osu file format v14

[General]
AudioFilename: audio.mp3
AudioLeadIn: 0
PreviewTime: 42696
Countdown: 1
SampleSet: Drum
StackLeniency: 0.7
Mode: 0
LetterboxInBreaks: 0
WidescreenStoryboard: 1

[Editor]
Bookmarks: 218462
DistanceSpacing: 1.2
BeatDivisor: 4
GridSize: 4
TimelineZoom: 1

[Metadata]
Title:Living Dead
TitleUnicode:Living Dead
Artist:Marina and the Diamonds
ArtistUnicode:Marina and the Diamonds
Creator:riffy
Version:Plebian
Source:
Tags:english pop Bakari Gabe & Veus electra heart lambrini diamandis Μαρίνα Λαμπρινή Διαμαντή electro synthie synthpop synth
BeatmapID:1420835
BeatmapSetID:672095

[Difficulty]
HPDrainRate:2
CircleSize:4
OverallDifficulty:3
ApproachRate:4
SliderMultiplier:1.1
SliderTickRate:1

[Events]
//Background and Video events
0,0,"286458798_1280x720.jpg",0,0
//Break Periods
2,141042,155690
//Storyboard Layer 0 (Background)
//Storyboard Layer 1 (Fail)
//Storyboard Layer 2 (Pass)
//Storyboard Layer 3 (Foreground)
//Storyboard Layer 4 (Overlay)
//Storyboard Sound Samples

[TimingPoints]
9430,483.870967741935,4,3,0,56,1,0
41849,-100,4,3,0,56,0,0
42817,-100,4,2,0,44,0,0
44268,-100,4,1,0,60,0,1
73059,-100,4,2,0,45,0,0
75236,-100,4,3,0,56,0,0
108623,-100,4,2,0,56,0,0
110075,-100,4,1,0,60,0,1
138865,-100,4,1,0,60,0,0
156526,-100,4,3,0,45,0,0
171526,-100,4,3,0,56,0,0
173946,-100,4,1,0,60,0,1
202736,-100,4,1,0,60,0,0
204913,-100,4,1,0,60,0,1
233704,-100,4,2,0,50,0,0

[Colours]
Combo1 : 193,204,130
Combo2 : 141,201,116
Combo3 : 189,158,224
Combo4 : 208,157,157
SliderBorder : 230,160,230
SliderTrackOverride : 160,90,160

[HitObjects]
80,356,9430,6,0,L|92:236,1,110,4|10,0:0|0:0,0:0:0:0:
108,128,10397,2,0,L|120:8,1,110,4|10,0:0|0:0,0:0:0:0:
240,12,11365,2,0,L|228:132,1,110,4|10,0:0|0:0,0:0:0:0:
212,240,12333,2,0,L|200:360,1,110,4|8,0:0|0:0,0:0:0:0:
324,356,13300,6,0,L|336:236,1,110,4|10,0:0|0:0,0:0:0:0:
352,128,14268,2,0,L|364:8,1,110,4|10,0:0|0:0,0:0:0:0:
484,12,15236,2,0,L|472:132,1,110,4|10,0:0|0:0,0:0:0:0:
456,240,16204,1,4,0:0:0:0:
440,300,16446,2,0,L|496:296,2,55,0|10|8,1:3|0:0|1:3,0:0:0:0:
424,360,17171,5,4,0:0:0:0:
304,348,17655,1,10,0:0:0:0:
184,364,18139,2,0,P|156:344|116:280,1,110,4|10,0:0|0:0,0:0:0:0:
152,164,19107,2,0,P|180:184|220:248,1,110,4|10,0:0|0:0,0:0:0:0:
340,256,20075,2,0,P|365:304|407:339,1,110,4|10,0:0|0:0,0:0:0:0:
464,232,21042,6,0,P|438:183|396:148,1,110,4|10,0:0|0:0,0:0:0:0:
276,160,22010,1,4,0:0:0:0:
224,272,22494,1,10,0:0:0:0:
140,360,22978,2,0,L|30:367,1,110,4|10,0:0|0:0,0:0:0:0:
0,264,23946,1,4,0:0:0:0:
48,228,24188,2,0,L|56:284,2,55,0|10|8,1:3|0:0|1:3,0:0:0:0:
104,252,24913,6,0,L|213:244,1,110,4|10,0:0|0:0,0:0:0:0:
256,132,25881,1,4,0:0:0:0:
376,136,26365,1,10,0:0:0:0:
332,248,26849,1,4,0:0:0:0:
420,332,27333,2,0,L|474:338,2,55,10|0|4,0:0|0:0|0:0,0:0:0:0:
360,348,28059,1,0,0:0:0:0:
304,372,28300,1,10,0:0:0:0:
184,348,28784,5,4,0:0:0:0:
92,268,29268,1,10,0:0:0:0:
72,148,29752,2,0,P|104:108|168:68,1,110,4|10,0:0|0:0,0:0:0:0:
272,40,30720,2,0,L|408:44,1,110,4|10,0:0|0:0,0:0:0:0:
456,140,31688,2,0,L|382:139,1,55,4|0,0:0|1:3,0:0:0:0:
352,176,32171,2,0,L|278:175,1,55,10|8,0:0|1:3,0:0:0:0:
248,208,32655,5,4,2:0:0:0:
148,140,33139,1,10,0:0:0:0:
36,184,33623,2,0,P|16:232|8:300,1,110,4|10,0:0|0:0,0:0:0:0:
104,364,34591,2,0,P|124:316|132:248,1,110,4|10,0:0|0:0,0:0:0:0:
100,140,35559,2,0,L|92:72,2,55,4|0|10,0:0|0:0|0:0,0:0:0:0:
152,164,36284,1,0,0:0:0:0:
208,192,36526,6,0,L|216:260,2,55,4|0|10,0:0|0:0|0:0,0:0:0:0:
320,148,37494,2,0,L|309:30,1,110,4|10,0:0|0:0,0:0:0:0:
428,68,38462,2,0,L|439:186,1,110,4|10,0:0|0:0,0:0:0:0:
464,296,39429,1,4,0:0:0:0:
464,296,39913,1,10,0:0:0:0:
464,296,40397,5,4,0:0:0:0:
256,192,40639,12,0,42333,1:0:0:0:
80,344,44268,5,6,0:0:0:0:
199,322,44752,1,10,0:0:0:0:
320,300,45236,1,2,0:0:0:0:
439,279,45720,1,10,0:0:0:0:
222,168,46688,5,10,0:0:0:0:
222,168,47171,1,2,1:0:0:0:
342,144,47655,1,10,0:0:0:0:
374,28,48139,1,6,0:0:0:0:
255,50,48623,1,10,0:0:0:0:
134,72,49107,1,2,0:0:0:0:
15,93,49591,1,10,0:0:0:0:
238,188,50559,5,10,0:0:0:0:
238,188,51042,1,2,1:0:0:0:
346,244,51526,1,10,0:0:0:0:
410,348,52010,1,6,0:0:0:0:
291,326,52494,1,10,0:0:0:0:
170,304,52978,1,2,0:0:0:0:
51,283,53462,1,10,0:0:0:0:
282,208,54429,6,0,L|350:220,1,55,10|0,0:0|0:0,0:0:0:0:
392,195,54913,1,2,1:0:0:0:
364,77,55397,1,10,0:0:0:0:
256,24,55881,1,6,0:0:0:0:
256,145,56365,1,10,0:0:0:0:
134,145,56849,1,2,0:0:0:0:
256,145,57333,1,10,0:0:0:0:
377,145,57817,1,4,3:0:0:0:
256,145,58300,6,2,B|256:245|256:245|260:249|260:249|252:249|252:249|256:253|256:253|256:324,1,165,10|0,0:0|0:0,0:0:0:0:
256,360,59268,1,8,0:0:0:0:
138,344,59752,6,0,L|6:356,1,110,6|8,0:0|0:0,0:0:0:0:
42,232,60720,2,0,L|174:220,1,110,0|8,0:0|0:0,0:0:0:0:
182,172,61446,1,2,0:0:0:0:
142,128,61688,2,0,L|66:135,2,55,6|0|8,0:0|0:0|0:0,0:0:0:0:
226,40,62655,2,0,L|358:28,1,110,0|8,0:0|0:0,0:0:0:0:
374,76,63381,1,2,0:0:0:0:
334,120,63623,6,0,L|210:133,1,110,4|8,0:0|0:0,0:0:0:0:
134,212,64591,1,4,3:0:0:0:
214,304,65075,2,0,L|206:372,2,55,8|2|0,0:0|0:0|0:0,0:0:0:0:
270,276,65800,2,0,L|282:148,2,110,2|2|0,0:0|0:0|0:0,0:0:0:0:
310,324,67010,5,10,0:0:0:0:
422,372,67494,1,6,0:0:0:0:
445,252,67978,1,10,0:0:0:0:
468,132,68462,1,2,0:0:0:0:
491,12,68946,1,10,0:0:0:0:
254,64,69913,5,10,0:0:0:0:
231,184,70397,1,2,0:0:0:0:
208,304,70881,1,10,0:0:0:0:
104,366,71365,1,6,0:0:0:0:
127,246,71849,1,10,0:0:0:0:
150,126,72333,1,2,0:0:0:0:
173,6,72817,1,10,0:0:0:0:
448,144,75236,6,0,L|432:272,1,110,4|10,0:0|0:0,0:0:0:0:
324,300,76204,2,0,L|340:172,1,110,4|10,0:0|0:0,0:0:0:0:
356,72,77171,1,4,0:0:0:0:
248,124,77655,1,10,0:0:0:0:
136,170,78139,2,0,L|149:60,1,110,4|10,0:0|0:0,0:0:0:0:
36,16,79107,6,0,L|22:125,1,110,4|10,0:0|0:0,0:0:0:0:
52,244,80075,2,0,L|38:353,1,110,4|10,0:0|0:0,0:0:0:0:
150,307,81042,1,4,0:0:0:0:
164,188,81526,1,10,0:0:0:0:
180,68,82010,2,0,L|240:76,1,55,4|0,0:0|1:3,0:0:0:0:
288,44,82494,2,0,L|348:52,1,55,10|8,0:0|1:3,0:0:0:0:
396,20,82978,5,4,0:0:0:0:
368,136,83462,1,10,0:0:0:0:
460,212,83946,2,0,L|468:328,1,110,4|10,0:0|0:0,0:0:0:0:
352,356,84913,2,0,L|344:240,1,110,4|10,0:0|0:0,0:0:0:0:
237,188,85881,2,0,L|245:304,1,110,4|10,0:0|0:0,0:0:0:0:
140,364,86849,6,0,L|72:356,2,55,4|0|10,0:0|0:0|0:0,0:0:0:0:
112,244,87817,2,0,L|2:236,1,110,4|10,0:0|0:0,0:0:0:0:
0,116,88784,2,0,L|109:123,1,110,4|8,0:0|0:0,0:0:0:0:
169,17,89752,2,0,L|99:11,2,55,4|0|10,0:0|1:3|0:0,0:0:0:0:
212,60,90478,1,8,1:3:0:0:
256,100,90720,5,4,2:0:0:0:
372,64,91204,1,10,0:0:0:0:
484,108,91688,2,0,L|496:232,1,110,4|10,0:0|0:0,0:0:0:0:
388,276,92655,2,0,L|376:152,1,110,4|10,0:0|0:0,0:0:0:0:
268,220,93623,2,0,L|280:344,1,110,4|10,0:0|0:0,0:0:0:0:
160,360,94591,5,4,0:0:0:0:
64,288,95075,1,10,0:0:0:0:
100,172,95559,2,0,L|88:48,1,110,4|10,0:0|0:0,0:0:0:0:
208,92,96526,2,0,L|220:216,1,110,4|10,0:0|0:0,0:0:0:0:
324,144,97494,2,0,L|317:85,2,55,4|0|10,0:0|1:3|0:0,0:0:0:0:
376,180,98220,1,8,1:3:0:0:
420,220,98462,6,0,L|432:344,1,110,4|10,2:0|0:0,0:0:0:0:
316,368,99429,2,0,L|304:244,1,110,4|10,0:0|0:0,0:0:0:0:
192,216,100397,2,0,L|204:340,1,110,4|10,0:0|0:0,0:0:0:0:
88,364,101365,2,0,L|76:240,1,110,4|10,0:0|0:0,0:0:0:0:
60,136,102333,5,4,0:0:0:0:
44,16,102817,1,10,0:0:0:0:
152,72,103300,2,0,L|162:181,1,110,4|10,0:0|0:0,0:0:0:0:
180,300,104268,1,4,0:0:0:0:
300,284,104752,1,10,0:0:0:0:
420,260,105236,2,0,L|428:320,2,55,4|0|10,0:0|1:3|0:0,0:0:0:0:
436,200,105962,1,8,1:3:0:0:
256,192,106204,12,4,108139,0:0:0:0:
77,196,110075,5,6,0:0:0:0:
45,78,110559,1,10,0:0:0:0:
161,47,111042,1,2,0:0:0:0:
192,163,111526,1,10,0:0:0:0:
420,84,112494,5,10,0:0:0:0:
420,84,112978,1,2,1:0:0:0:
308,132,113462,1,10,0:0:0:0:
312,252,113946,1,6,0:0:0:0:
280,369,114429,1,10,0:0:0:0:
164,338,114913,1,2,0:0:0:0:
195,222,115397,1,10,0:0:0:0:
328,20,116365,5,10,1:0:0:0:
328,20,116849,1,2,1:0:0:0:
240,104,117333,1,10,0:0:0:0:
132,48,117817,1,6,0:0:0:0:
15,79,118300,1,10,0:0:0:0:
46,196,118784,1,2,0:0:0:0:
163,164,119268,1,10,0:0:0:0:
384,200,120236,5,10,0:0:0:0:
308,104,120720,1,2,1:0:0:0:
187,90,121204,1,10,0:0:0:0:
66,76,121688,1,6,0:0:0:0:
95,193,122171,1,10,0:0:0:0:
128,312,122655,1,2,0:0:0:0:
95,193,123139,1,10,0:0:0:0:
66,76,123623,1,4,3:0:0:0:
95,193,124107,6,2,B|199:183|199:183|204:185|204:185|204:179|204:179|211:181|211:181|263:177,1,165,10|0,0:0|0:0,0:0:0:0:
305,210,125075,1,8,0:0:0:0:
224,300,125559,6,0,L|229:354,2,55,6|0|8,0:0|0:0|0:0,0:0:0:0:
324,364,126526,2,0,L|311:234,1,110,0|8,0:0|0:0,0:0:0:0:
352,208,127252,1,0,0:0:0:0:
380,156,127494,2,0,L|372:76,2,55,6|0|8,0:0|0:0|0:0,0:0:0:0:
492,200,128462,2,0,L|502:309,1,110,0|8,0:0|0:0,0:0:0:0:
452,344,129188,1,2,0:0:0:0:
396,368,129429,5,4,0:0:0:0:
276,344,129913,2,0,L|124:332,1,110,8|4,0:0|3:0,0:0:0:0:
132,284,130639,1,2,0:0:0:0:
176,244,130881,2,0,L|251:251,2,55,8|2|0,0:0|0:0|0:0,0:0:0:0:
136,196,131607,2,0,L|6:185,2,110,2|2|0,0:0|0:0|0:0,0:0:0:0:
188,164,132817,5,14,0:0:0:0:
300,116,133300,1,6,0:0:0:0:
418,148,133784,1,10,0:0:0:0:
386,266,134268,1,2,0:0:0:0:
270,235,134752,1,10,0:0:0:0:
108,56,135720,5,10,0:0:0:0:
108,56,136204,1,2,0:0:0:0:
212,116,136688,1,10,0:0:0:0:
128,204,137171,1,6,0:0:0:0:
97,320,137655,1,10,0:0:0:0:
215,352,138139,1,2,0:0:0:0:
247,234,138623,1,10,0:0:0:0:
220,268,157010,6,0,L|187:50,1,220,8|8,0:3|0:0,0:0:0:0:
96,136,158462,2,0,L|112:252,2,110,4|8|4,0:3|0:3|0:0,0:0:0:0:
136,20,159913,1,8,0:0:0:0:
240,240,160881,6,0,L|256:356,2,110,8|4|8,0:3|0:3|0:3,0:0:0:0:
280,124,162333,2,0,P|328:100|472:172,1,220,4|4,0:0|0:3,0:0:0:0:
444,220,163542,1,0,1:0:0:0:
424,276,163784,1,8,0:3:0:0:
324,208,164268,5,2,0:2:0:0:
208,244,164752,2,0,L|196:368,2,110,8|4|8,0:0|0:3|0:3,0:0:0:0:
128,152,166204,2,0,L|116:276,2,110,4|8|4,0:0|0:3|0:3,0:0:0:0:
28,80,167655,2,0,L|16:204,1,110,8|4,0:3|0:3,0:0:0:0:
100,280,168623,5,8,0:3:0:0:
212,236,169107,1,4,0:3:0:0:
324,188,169591,1,8,0:3:0:0:
256,192,169833,12,8,171768,0:0:0:0:
434,40,173946,5,6,0:0:0:0:
315,62,174429,1,10,0:0:0:0:
194,84,174913,1,2,0:0:0:0:
75,105,175397,1,10,0:0:0:0:
292,216,176365,5,10,0:0:0:0:
292,216,176849,1,2,1:0:0:0:
172,240,177333,1,10,0:0:0:0:
140,356,177817,1,6,0:0:0:0:
259,334,178300,1,10,0:0:0:0:
380,312,178784,1,2,0:0:0:0:
499,291,179268,1,10,0:0:0:0:
276,196,180236,5,10,0:0:0:0:
276,196,180720,1,2,1:0:0:0:
168,140,181204,1,10,0:0:0:0:
104,36,181688,1,6,0:0:0:0:
223,58,182171,1,10,0:0:0:0:
344,80,182655,1,2,0:0:0:0:
463,101,183139,1,10,0:0:0:0:
232,176,184107,6,0,L|164:164,1,55,10|0,0:0|0:0,0:0:0:0:
120,188,184591,1,2,1:0:0:0:
148,304,185075,1,10,0:0:0:0:
256,360,185559,1,6,0:0:0:0:
256,239,186042,1,10,0:0:0:0:
378,239,186526,1,2,0:0:0:0:
256,239,187010,1,10,0:0:0:0:
135,239,187494,1,4,3:0:0:0:
256,239,187978,6,2,B|256:139|256:139|260:135|260:135|252:135|252:135|256:131|256:131|257:64,1,165,10|0,0:0|0:0,0:0:0:0:
256,24,188946,1,8,0:0:0:0:
376,40,189429,6,0,L|508:28,1,110,6|8,0:0|0:0,0:0:0:0:
472,152,190397,2,0,L|340:164,1,110,0|8,0:0|0:0,0:0:0:0:
332,212,191123,1,0,0:0:0:0:
372,256,191365,2,0,L|448:249,2,55,6|0|8,0:0|0:0|0:0,0:0:0:0:
288,344,192333,2,0,L|156:356,1,110,0|8,0:0|0:0,0:0:0:0:
140,308,193059,1,0,0:0:0:0:
180,264,193300,6,0,L|304:251,1,110,4|8,0:0|0:0,0:0:0:0:
380,172,194268,1,4,3:0:0:0:
300,80,194752,2,0,L|308:12,2,55,8|2|0,0:0|0:0|0:0,0:0:0:0:
244,108,195478,2,0,L|232:236,2,110,2|2|0,0:0|0:0|0:0,0:0:0:0:
204,60,196688,5,14,0:0:0:0:
92,12,197171,1,6,0:0:0:0:
69,132,197655,1,10,0:0:0:0:
46,252,198139,1,2,0:0:0:0:
23,372,198623,1,10,0:0:0:0:
260,320,199591,5,10,0:0:0:0:
283,200,200075,1,2,0:0:0:0:
306,80,200559,1,10,0:0:0:0:
410,18,201042,1,6,0:0:0:0:
387,138,201526,1,10,0:0:0:0:
364,258,202010,1,2,0:0:0:0:
341,378,202494,1,10,0:0:0:0:
435,188,204913,5,6,0:0:0:0:
467,306,205397,1,10,0:0:0:0:
351,337,205881,1,2,0:0:0:0:
320,221,206365,1,10,0:0:0:0:
92,300,207333,5,10,0:0:0:0:
92,300,207817,1,2,1:0:0:0:
204,252,208300,1,10,0:0:0:0:
200,132,208784,1,6,0:0:0:0:
232,15,209268,1,10,0:0:0:0:
348,46,209752,1,2,0:0:0:0:
317,162,210236,1,10,0:0:0:0:
184,364,211204,5,10,0:0:0:0:
184,364,211688,1,2,1:0:0:0:
272,280,212171,1,10,0:0:0:0:
370,209,212655,1,6,0:0:0:0:
487,178,213139,1,10,0:0:0:0:
456,61,213623,1,2,0:0:0:0:
339,93,214107,1,10,0:0:0:0:
260,324,215075,6,0,L|192:336,1,55,10|0,1:0|0:0,0:0:0:0:
148,312,215559,1,6,1:0:0:0:
40,364,216042,1,10,1:0:0:0:
60,244,216526,1,6,0:0:0:0:
28,127,217010,1,10,0:0:0:0:
145,95,217494,1,2,0:0:0:0:
176,212,217978,1,10,0:0:0:0:
412,152,218946,5,10,0:0:0:0:
444,35,219429,1,6,1:0:0:0:
327,3,219913,1,10,0:0:0:0:
296,120,220397,1,6,0:0:0:0:
332,236,220881,1,10,0:0:0:0:
214,267,221365,1,2,0:0:0:0:
182,149,221849,1,10,0:0:0:0:
392,28,222817,5,10,0:0:0:0:
392,28,223300,1,2,1:0:0:0:
280,76,223784,1,10,0:0:0:0:
176,16,224268,1,6,0:0:0:0:
161,135,224752,1,10,0:0:0:0:
146,255,225236,1,2,0:0:0:0:
131,375,225720,1,10,0:0:0:0:
368,324,226688,5,10,0:0:0:0:
368,324,227171,1,2,1:0:0:0:
476,268,227655,1,10,0:0:0:0:
416,164,228139,1,6,0:0:0:0:
297,149,228623,1,10,0:0:0:0:
177,134,229107,1,2,0:0:0:0:
57,119,229591,1,10,0:0:0:0:
280,28,230559,5,10,0:0:0:0:
280,28,231042,1,2,0:0:0:0:
400,44,231526,1,10,0:0:0:0:
416,164,232010,1,6,0:0:0:0:
297,149,232494,1,10,0:0:0:0:
177,134,232978,1,2,0:0:0:0:
57,119,233462,1,10,0:0:0:0:
256,192,233704,12,0,235639,0:0:0:0:
