osu file format v14

[General]
AudioFilename: audio.mp3
AudioLeadIn: 0
PreviewTime: 178358
Countdown: 0
SampleSet: Soft
StackLeniency: 0.7
Mode: 0
LetterboxInBreaks: 0
WidescreenStoryboard: 1

[Editor]
DistanceSpacing: 0.9
BeatDivisor: 2
GridSize: 4
TimelineZoom: 1.7

[Metadata]
Title:How to Be a Heartbreaker
TitleUnicode:How to Be a Heartbreaker
Artist:Marina and the Diamonds
ArtistUnicode:Marina and the Diamonds
Creator:Krisom
Version:Normal
Source:
Tags:Electra Heart Pop English Lambrini Diamandis Electro Electro-Pop Μαρίνα Λαμπρινή Διαμαντή &
BeatmapID:3173888
BeatmapSetID:1553473

[Difficulty]
HPDrainRate:4.5
CircleSize:3.4
OverallDifficulty:4.7
ApproachRate:5.5
SliderMultiplier:1.6
SliderTickRate:2

[Events]
//Background and Video events
0,0,"Electra heart.jpg",0,0
//Break Periods
2,62094,74483
2,130665,139626
//Storyboard Layer 0 (Background)
//Storyboard Layer 1 (Fail)
//Storyboard Layer 2 (Pass)
//Storyboard Layer 3 (Foreground)
//Storyboard Layer 4 (Overlay)
//Storyboard Sound Samples

[TimingPoints]
180,428.571428571429,4,2,1,60,1,0
20751,-100,4,2,1,70,0,0
34465,-100,4,2,1,85,0,1
60180,-100,4,2,1,70,0,0
61894,-100,4,2,1,85,0,1
62001,-100,4,2,1,70,0,0
103037,-100,4,2,1,85,0,1
128751,-100,4,2,1,70,0,0
130465,-100,4,2,1,85,0,1
130572,-100,4,2,1,70,0,0
157894,-100,4,2,1,70,0,0
175037,-100,4,2,1,70,0,0
176751,-100,4,2,1,70,0,0
180180,-100,4,2,1,85,0,1
207501,-100,4,2,1,85,0,0
207608,-100,4,2,1,85,0,1
219608,-100,4,2,1,60,0,0

[Colours]
Combo1 : 255,201,36
Combo2 : 5,197,11
Combo3 : 17,88,255
Combo4 : 249,17,86

[HitObjects]
8,92,7037,6,0,B|172:92,1,160,8|8,0:0|0:1,0:0:0:0:
292,192,7894,2,0,L|116:192,1,160,8|8,0:0|0:1,0:0:0:0:
200,336,8751,5,8,0:0:0:0:
280,336,8965,1,2,0:0:0:0:
340,284,9180,2,0,P|360:316|356:360,2,80,8|2|8,0:1|0:0|0:0,0:0:0:0:
496,256,10037,1,8,0:1:0:0:
504,92,10465,6,0,B|344:92,1,160,8|8,0:0|0:1,0:0:0:0:
220,192,11322,2,0,L|380:192,1,160,8|8,0:0|0:1,0:0:0:0:
280,328,12180,5,8,0:0:0:0:
200,324,12394,2,0,P|156:324|112:292,2,80,2|8|2,0:0|0:1|0:0,0:0:0:0:
180,248,13037,1,8,0:0:0:0:
144,176,13251,2,0,B|188:156|220:176|256:200|304:184,1,160,2|2,0:0|0:0,0:0:0:0:
372,148,13894,6,0,L|392:308,1,160,8|8,0:0|0:1,0:0:0:0:
236,336,14751,2,0,L|216:176,1,160,8|8,0:0|0:1,0:0:0:0:
168,112,15394,1,0,0:0:0:0:
143,36,15608,6,0,P|181:28|215:47,1,80,8|2,0:0|0:0,0:0:0:0:
297,47,16037,2,0,P|331:27|369:35,2,80,8|2|8,0:1|0:0|0:0,0:0:0:0:
372,188,16894,1,8,0:1:0:0:
332,256,17108,6,0,B|307:271|292:232|284:246|272:236|268:268|256:260|244:268|240:236|227:246|220:232|204:271|180:256,1,160,2|0,0:0|0:0,0:0:0:0:
124,200,17751,1,8,0:1:0:0:
256,108,18180,1,8,0:0:0:0:
388,200,18608,1,8,0:1:0:0:
256,292,19037,5,2,0:0:0:0:
124,200,19465,2,0,L|160:44,1,160,8|0,0:1|0:0,0:0:0:0:
236,68,20108,2,0,P|296:88|384:40,1,160,2|0,0:0|0:0,0:0:0:0:
452,76,20751,6,0,L|452:252,1,160,4|0,0:0|1:0,0:0:0:0:
388,284,21394,1,0,0:0:0:0:
324,236,21608,2,0,L|324:60,1,160,8|0,0:0|1:0,0:0:0:0:
196,160,22465,5,8,0:0:0:0:
228,232,22680,1,2,0:0:0:0:
272,300,22894,2,0,P|312:316|352:312,2,80,0|2|8,1:0|0:0|0:0,0:0:0:0:
228,232,23537,1,2,0:0:0:0:
124,352,23965,1,2,0:0:0:0:
60,308,24180,6,0,L|60:132,1,160,8|0,0:0|1:0,0:0:0:0:
124,100,24823,1,0,0:0:0:0:
188,148,25037,2,0,L|188:324,1,160,8|0,0:0|1:0,0:0:0:0:
316,224,25894,5,8,0:0:0:0:
284,152,26109,1,2,0:0:0:0:
240,84,26323,2,0,P|200:68|160:72,2,80,0|2|8,1:0|0:0|0:0,0:0:0:0:
284,152,26966,1,2,0:0:0:0:
360,292,27394,1,2,0:0:0:0:
336,368,27608,6,0,L|164:368,1,160,8|8,0:0|1:2,0:0:0:0:
152,292,28251,1,0,0:0:0:0:
176,216,28465,2,0,L|336:216,1,160,8|8,0:0|1:2,0:0:0:0:
448,100,29322,5,8,0:0:0:0:
376,68,29537,1,2,0:0:0:0:
304,100,29751,2,0,L|224:64,1,80,8|2,1:2|0:0,0:0:0:0:
160,100,30180,1,8,0:0:0:0:
84,128,30394,2,0,P|148:180|216:156,1,160,2|0,0:0|0:0,0:0:0:0:
298,157,31037,6,0,P|371:178|428:127,1,160,0|0,3:0|1:0,0:0:0:0:
328,252,31894,2,0,P|255:282|184:252,1,160,0|0,3:0|1:0,0:0:0:0:
84,124,32751,5,8,1:2:0:0:
120,52,32965,1,0,1:0:0:0:
200,52,33180,2,0,L|216:148,1,80,0|0,1:0|1:0,0:0:0:0:
298,130,33608,2,0,L|312:52,1,80,0|0,1:0|1:0,0:0:0:0:
392,52,34037,1,8,1:2:0:0:
456,200,34465,6,2,P|423:294|296:292,1,240,6|8,0:1|1:2,0:1:0:0:
213,294,35322,2,2,P|100:303|56:200,1,240,2|8,0:1|1:2,0:1:0:0:
84,124,36180,5,4,3:0:0:0:
220,36,36608,2,0,P|256:72|244:116,1,80,8|4,1:0|3:0,0:0:0:0:
216,168,37037,2,0,P|180:204|136:192,1,80,2|4,0:1|0:3,0:0:0:0:
76,192,37465,2,0,P|40:156|52:112,1,80,8|2,1:0|0:1,0:0:0:0:
108,84,37894,6,2,B|208:84|208:84|272:88|304:132|296:172,1,240,6|8,0:1|1:2,0:1:0:0:
215,170,38751,2,2,B|208:132|240:88|304:84|304:84|404:84,1,240,2|8,0:1|1:2,0:1:0:0:
468,132,39608,5,0,1:0:0:0:
448,292,40037,1,8,1:0:0:0:
304,364,40465,1,2,0:1:0:0:
256,300,40680,1,0,3:0:0:0:
208,364,40894,1,8,1:0:0:0:
64,292,41322,6,2,P|8:192|64:92,1,240,6|4,0:1|3:0,0:1:0:0:
136,128,42180,2,0,L|376:128,1,240,2|4,1:0|0:3,0:0:0:0:
448,92,43037,6,2,P|504:192|448:292,1,240,6|4,0:1|3:0,0:1:0:0:
376,256,43895,2,0,L|136:256,1,240,2|8,1:0|1:0,0:0:0:0:
56,256,44751,6,0,B|36:204|36:204|56:132,2,120,2|2|2,1:0|1:0|1:0,0:0:0:0:
176,364,45822,2,0,L|348:364,1,160,2|4,1:1|0:0,0:1:0:0:
312,124,46895,6,0,L|296:28,1,80,0|0,1:0|1:0,0:0:0:0:
214,45,47323,2,0,L|200:123,1,80,0|0,1:0|1:0,0:0:0:0:
124,100,47752,1,8,1:2:0:0:
44,240,48180,6,2,P|100:328|220:296,1,240,6|8,0:1|1:2,0:1:0:0:
294,299,49037,2,2,P|402:331|468:240,1,240,2|8,0:1|1:2,0:1:0:0:
456,160,49895,5,4,3:0:0:0:
320,76,50323,2,0,L|296:156,1,80,8|4,1:0|3:0,0:0:0:0:
312,232,50752,2,0,L|392:256,1,80,2|4,0:1|0:3,0:0:0:0:
468,240,51180,2,0,L|492:160,1,80,8|2,1:0|0:1,0:0:0:0:
479,76,51608,6,2,B|333:72|333:72|337:132|297:152,1,240,6|8,0:1|1:2,0:1:0:0:
216,152,52465,2,2,B|176:132|180:72|180:72|34:76,1,240,2|8,0:1|1:2,0:1:0:0:
24,156,53323,5,0,1:0:0:0:
56,312,53752,1,8,1:0:0:0:
200,240,54180,1,2,0:1:0:0:
256,296,54395,1,0,3:0:0:0:
312,240,54609,1,8,1:0:0:0:
456,312,55037,6,2,P|512:212|456:112,1,240,6|4,0:1|3:0,0:1:0:0:
376,112,55895,2,0,L|136:112,1,240,2|4,1:0|0:3,0:0:0:0:
57,111,56752,6,2,P|1:211|57:311,1,240,6|4,0:1|3:0,0:1:0:0:
136,288,57608,2,0,L|376:288,1,240,2|8,1:0|1:0,0:0:0:0:
448,256,58466,6,0,B|468:204|468:204|448:132,2,120,2|2|2,1:0|1:0|1:0,0:0:0:0:
336,364,59537,2,0,L|164:364,1,160,2|4,1:1|0:0,0:1:0:0:
176,364,61894,5,4,1:0:0:0:
408,52,75608,6,0,B|372:28|332:48|332:56|292:76|256:52,1,160,8|8,0:0|0:1,0:0:0:0:
180,192,76465,2,0,B|216:168|256:188|256:196|296:216|332:192,1,160,8|8,0:0|0:1,0:0:0:0:
256,332,77322,5,8,0:0:0:0:
176,332,77536,1,2,0:0:0:0:
108,288,77751,2,0,L|48:356,2,80,8|2|8,0:1|0:0|0:0,0:0:0:0:
168,236,78394,1,2,0:0:0:0:
60,120,78822,1,2,0:0:0:0:
104,52,79037,6,0,B|140:28|180:48|180:56|220:76|256:52,1,160,8|8,0:0|0:1,0:0:0:0:
332,192,79894,2,0,B|296:168|256:188|256:196|216:216|180:192,1,160,8|8,0:0|0:1,0:0:0:0:
256,332,80751,5,8,0:0:0:0:
336,332,80965,1,2,0:0:0:0:
404,288,81180,2,0,L|464:356,2,80,8|2|8,0:1|0:0|0:0,0:0:0:0:
356,224,81822,2,0,P|288:172|208:176,1,160,2|2,0:0|0:0,0:0:0:0:
140,148,82465,6,0,L|120:308,1,160,8|8,0:0|0:1,0:0:0:0:
276,336,83322,2,0,L|296:176,1,160,8|8,0:0|0:1,0:0:0:0:
344,112,83965,1,0,0:0:0:0:
369,36,84179,6,0,P|330:28|296:47,1,80,8|2,0:0|0:0,0:0:0:0:
215,47,84608,2,0,P|180:27|142:35,2,80,8|2|8,0:1|0:0|0:0,0:0:0:0:
140,188,85465,1,8,0:1:0:0:
180,256,85679,6,0,B|212:276|256:252|256:252|300:276|332:256,1,160,2|0,0:0|0:0,0:0:0:0:
404,224,86322,1,8,0:1:0:0:
336,80,86751,1,8,0:0:0:0:
176,80,87179,1,8,0:1:0:0:
108,224,87608,5,2,0:0:0:0:
256,284,88036,2,0,P|232:208|264:128,1,160,8|0,0:1|0:0,0:0:0:0:
292,60,88679,2,0,L|132:40,1,160,2|0,0:0|0:0,0:0:0:0:
64,84,89322,6,0,P|40:160|64:236,1,160,4|0,0:0|1:0,0:0:0:0:
124,284,89965,1,0,0:0:0:0:
188,236,90180,2,0,P|164:160|188:84,1,160,8|0,0:0|1:0,0:0:0:0:
316,160,91036,5,8,0:0:0:0:
284,232,91251,1,2,0:0:0:0:
240,300,91465,2,0,P|200:316|160:312,2,80,0|2|8,1:0|0:0|0:0,0:0:0:0:
284,232,92108,1,2,0:0:0:0:
388,352,92536,1,2,0:0:0:0:
448,300,92751,6,0,P|472:224|448:148,1,160,8|0,0:0|1:0,0:0:0:0:
388,100,93394,1,0,0:0:0:0:
324,148,93609,2,0,P|348:224|324:300,1,160,8|0,0:0|1:0,0:0:0:0:
196,224,94465,5,8,0:0:0:0:
228,152,94680,1,2,0:0:0:0:
272,84,94894,2,0,P|312:68|352:72,2,80,0|2|8,1:0|0:0|0:0,0:0:0:0:
228,152,95537,1,2,0:0:0:0:
196,224,95751,1,0,1:0:0:0:
144,288,95965,6,0,B|184:312|228:304|256:280|256:280|284:304|328:312|368:288,1,240,2|8,0:0|1:2,0:0:0:0:
336,148,97036,2,0,L|176:148,1,160,0|8,0:0|1:2,0:0:0:0:
64,32,97893,5,8,0:0:0:0:
136,0,98108,1,2,0:0:0:0:
208,32,98322,2,0,L|288:-4,1,80,8|2,1:2|0:0,0:0:0:0:
356,32,98751,2,0,L|436:-4,1,80,8|2,0:2|0:0,0:0:0:0:
468,156,99394,6,0,P|408:204|324:168,1,160,2|0,0:0|0:0,0:0:0:0:
178,181,100251,2,0,P|104:203|44:155,1,160,2|0,0:0|0:0,0:0:0:0:
84,292,101322,5,8,1:2:0:0:
120,364,101536,1,0,1:0:0:0:
200,364,101751,2,0,L|216:268,1,80,0|0,1:0|1:0,0:0:0:0:
299,286,102179,2,0,L|312:364,1,80,0|0,1:0|1:0,0:0:0:0:
392,364,102608,1,8,1:2:0:0:
511,229,103037,6,2,B|467:292|404:263|406:252|343:222|299:286,1,240,6|8,0:1|1:2,0:1:0:0:
213,286,103894,2,2,B|168:222|105:252|107:263|44:292|0:229,1,240,2|8,0:1|1:2,0:1:0:0:
68,188,104751,5,4,3:0:0:0:
148,48,105179,2,0,L|188:120,1,80,8|4,1:0|3:0,0:0:0:0:
256,76,105608,2,0,L|296:148,1,80,2|4,0:1|3:0,0:0:0:0:
368,108,106037,2,0,L|408:180,1,80,8|4,1:0|3:0,0:0:0:0:
464,236,106465,6,2,L|264:368,1,240,6|8,0:1|1:2,0:1:0:0:
244,292,107322,2,2,B|445:160,1,240,2|8,0:1|1:2,0:1:0:0:
508,112,108179,5,0,1:0:0:0:
380,16,108608,1,8,1:0:0:0:
256,116,109036,1,2,0:1:0:0:
196,64,109251,1,0,3:0:0:0:
132,16,109465,1,8,1:0:0:0:
4,112,109894,6,2,P|60:212|4:312,1,240,6|4,0:1|3:0,0:1:0:0:
60,372,110751,2,0,L|214:187,1,240,2|4,1:0|0:3,0:0:0:0:
297,187,111608,6,2,L|452:372,1,240,6|4,0:1|0:3,0:1:0:0:
508,312,112466,2,0,P|452:212|508:112,1,240,2|4,1:1|3:0,0:1:0:0:
476,40,113322,6,0,B|424:20|424:20|352:40,2,120,2|2|2,1:0|1:0|1:0,0:0:0:0:
336,120,114393,2,0,L|164:120,1,160,2|4,1:1|0:0,0:1:0:0:
312,260,115466,6,0,L|296:356,1,80,0|0,1:0|1:0,0:0:0:0:
214,339,115894,2,0,L|201:261,1,80,0|0,1:0|1:0,0:0:0:0:
124,284,116323,1,8,1:2:0:0:
8,172,116751,6,2,B|80:200|116:140|108:132|144:72|216:100,1,240,6|8,0:1|1:2,0:1:0:0:
296,100,117608,2,2,B|368:72|404:132|396:140|432:200|504:172,1,240,2|8,0:1|1:2,0:1:0:0:
476,96,118466,5,4,3:0:0:0:
348,4,118894,2,0,L|256:28,1,80,8|4,1:0|3:0,0:0:0:0:
296,100,119323,2,0,L|376:80,1,80,2|4,0:1|0:3,0:0:0:0:
408,152,119751,2,0,L|432:232,1,80,8|2,1:0|0:1,0:0:0:0:
444,308,120179,6,2,B|424:364|336:376|296:316|296:316|296:256,1,240,6|8,0:1|1:2,0:1:0:0:
216,257,121037,2,2,B|216:316|216:316|176:376|88:364|68:308,1,240,2|8,0:1|1:2,0:1:0:0:
32,236,121894,5,0,1:0:0:0:
56,76,122323,1,8,1:0:0:0:
200,144,122751,1,2,0:1:0:0:
256,84,122966,1,0,3:0:0:0:
312,144,123180,1,8,1:0:0:0:
456,76,123608,6,2,P|468:189|377:260,1,240,6|4,0:1|3:0,0:1:0:0:
296,272,124466,2,0,L|296:32,1,240,2|4,1:0|0:3,0:0:0:0:
216,32,125322,6,2,L|216:272,1,240,6|4,1:0|0:3,0:1:0:0:
134,260,126180,2,0,P|43:190|56:76,1,240,2|4,1:1|3:0,0:1:0:0:
116,24,127037,6,0,B|168:4|168:4|240:24,2,120,2|2|2,1:0|1:0|1:0,0:0:0:0:
176,172,128108,2,0,L|348:172,1,160,2|4,1:1|0:0,0:1:0:0:
336,172,130465,5,4,1:0:0:0:
256,192,140751,12,6,144180,0:0:0:0:
164,348,145037,5,8,0:0:0:0:
256,316,145465,1,0,0:0:0:0:
348,284,145894,1,0,3:0:0:0:
436,112,146751,6,0,P|376:48|240:80,1,240,8|0,0:0|0:0,0:0:0:0:
204,124,147608,1,0,3:0:0:0:
4,24,148465,5,8,0:0:0:0:
36,188,149108,1,0,0:0:0:0:
56,240,149322,2,0,B|96:212|132:232|172:256|224:200,1,160,0|0,3:0|0:0,0:0:0:0:
180,164,149965,1,2,0:0:0:0:
288,188,150394,1,2,0:0:0:0:
400,208,150822,1,0,3:0:0:0:
404,264,151037,5,0,3:0:0:0:
360,48,151894,1,8,0:0:0:0:
256,88,152322,1,0,0:0:0:0:
144,128,152751,6,0,B|194:186|260:156|248:132|311:103|360:160,1,240,0|0,3:0|0:0,0:0:0:0:
400,240,153608,2,0,P|364:300|204:300,1,240,8|0,0:0|3:0,0:0:0:0:
180,228,154465,6,0,B|160:104|160:104|116:140|48:120|24:68|40:20,1,320,0|8,3:0|0:0,0:0:0:0:
152,28,155751,1,0,0:0:0:0:
264,8,156180,5,0,3:0:0:0:
328,100,156608,1,0,3:0:0:0:
304,152,156822,1,2,3:2:0:0:
196,184,157251,1,0,0:0:0:0:
88,216,157680,6,0,P|128:308|384:268,1,400,6|8,0:0|0:0,0:0:0:0:
172,196,159608,6,0,P|269:219|348:114,1,240,0|0,3:0|0:0,0:0:0:0:
400,96,160465,2,0,P|302:119|223:14,1,240,8|0,0:0|3:0,0:0:0:0:
276,4,161322,5,0,3:0:0:0:
80,116,162180,1,8,0:0:0:0:
112,224,162608,1,0,0:0:0:0:
184,140,163037,5,0,3:0:0:0:
260,224,163465,1,0,0:0:0:0:
284,172,163680,1,0,3:0:0:0:
392,192,164108,1,0,3:0:0:0:
504,212,164537,1,0,0:0:0:0:
284,40,165608,5,8,0:0:0:0:
104,176,166465,6,0,B|160:136|256:180|256:204|352:248|408:208,2,320,0|8|0,3:0|0:0|3:0,0:0:0:0:
228,344,169037,5,8,0:0:0:0:
320,280,169465,1,0,0:0:0:0:
416,224,169894,5,0,3:0:0:0:
412,112,170322,1,0,0:0:0:0:
356,128,170537,1,0,3:0:0:0:
248,156,170965,1,0,0:0:0:0:
212,48,171394,1,2,0:3:0:0:
212,48,173322,22,0,L|124:72,1,80,0|2,3:0|0:0,0:0:0:0:
88,172,173965,2,0,L|112:260,2,80,2|0|2,0:0|3:0|0:0,0:0:0:0:
196,200,174822,6,0,L|220:112,2,80,2|0|2,0:0|3:0|0:0,0:0:0:0:
304,176,175680,2,0,L|328:264,2,80,0|2|2,3:0|0:0|0:0,0:0:0:0:
412,148,176537,5,0,3:0:0:0:
384,72,176751,1,2,0:0:0:0:
308,52,176965,1,2,0:0:0:0:
148,68,177394,1,0,3:0:0:0:
176,144,177608,1,2,0:0:0:0:
252,164,177822,1,2,0:0:0:0:
428,260,178465,5,8,1:2:0:0:
392,332,178679,1,0,1:0:0:0:
312,332,178894,2,0,L|296:236,1,80,0|0,1:0|1:0,0:0:0:0:
214,254,179322,2,0,L|200:332,1,80,0|0,1:0|1:0,0:0:0:0:
120,332,179751,1,8,1:2:0:0:
56,184,180179,6,2,P|89:90|216:92,1,240,6|8,0:1|1:2,0:1:0:0:
299,90,181037,2,2,P|412:81|456:184,1,240,2|8,0:1|1:2,0:1:0:0:
428,260,181894,5,4,3:0:0:0:
292,348,182322,2,0,P|256:312|268:268,1,80,8|4,1:0|3:0,0:0:0:0:
296,216,182751,2,0,P|332:180|376:192,1,80,2|4,0:1|0:3,0:0:0:0:
436,192,183179,2,0,P|472:228|460:272,1,80,8|2,1:0|0:1,0:0:0:0:
404,300,183608,6,2,B|304:300|304:300|240:296|208:252|216:212,1,240,6|8,0:1|1:2,0:1:0:0:
297,214,184465,2,2,B|304:252|272:296|208:300|208:300|108:300,1,240,2|8,0:1|1:2,0:1:0:0:
44,252,185322,5,0,1:0:0:0:
64,92,185751,1,8,1:0:0:0:
208,20,186179,1,2,0:1:0:0:
256,84,186394,1,0,3:0:0:0:
304,20,186608,1,8,1:0:0:0:
448,92,187037,6,2,P|504:192|448:292,1,240,6|4,0:1|3:0,0:1:0:0:
376,256,187894,2,0,L|136:256,1,240,2|4,1:0|0:3,0:0:0:0:
64,292,188751,6,2,P|8:192|64:92,1,240,6|4,0:1|3:0,0:1:0:0:
136,128,189609,2,0,L|376:128,1,240,2|8,1:0|1:0,0:0:0:0:
456,128,190465,6,0,B|476:180|476:180|456:252,2,120,2|2|2,1:0|1:0|1:0,0:0:0:0:
336,20,191536,2,0,L|164:20,1,160,2|4,1:1|0:0,0:1:0:0:
200,260,192608,6,0,L|216:356,1,80,0|0,1:0|1:0,0:0:0:0:
298,339,193036,2,0,L|311:261,1,80,0|0,1:0|1:0,0:0:0:0:
388,284,193465,1,8,1:2:0:0:
504,172,193894,6,2,B|432:200|396:140|404:132|368:72|296:100,1,240,6|8,0:1|1:2,0:1:0:0:
216,100,194751,2,2,B|144:72|108:132|116:140|80:200|8:172,1,240,2|8,0:1|1:2,0:1:0:0:
36,96,195608,5,4,3:0:0:0:
164,4,196036,2,0,L|256:28,1,80,8|4,1:0|3:0,0:0:0:0:
216,100,196465,2,0,L|136:80,1,80,2|4,0:1|0:3,0:0:0:0:
104,152,196893,2,0,L|80:232,1,80,8|2,1:0|0:1,0:0:0:0:
68,308,197322,6,2,B|88:364|176:376|216:316|216:316|216:256,1,240,6|8,0:1|1:2,0:1:0:0:
296,257,198179,2,2,B|296:316|296:316|336:376|424:364|444:308,1,240,2|8,0:1|1:2,0:1:0:0:
480,236,199036,5,0,1:0:0:0:
456,76,199465,1,8,1:0:0:0:
312,144,199893,1,2,0:1:0:0:
256,84,200108,1,0,3:0:0:0:
200,144,200322,1,8,1:0:0:0:
56,76,200751,6,2,P|44:189|135:260,1,240,6|4,0:1|3:0,0:1:0:0:
216,272,201608,2,0,L|216:32,1,240,2|4,1:0|0:3,0:0:0:0:
296,32,202465,6,2,L|296:272,1,240,6|4,1:0|0:3,0:1:0:0:
378,260,203322,2,0,P|469:190|456:76,1,240,2|4,1:1|3:0,0:1:0:0:
396,24,204179,6,0,B|344:4|344:4|272:24,2,120,2|2|2,1:0|1:0|1:0,0:0:0:0:
336,172,205251,2,0,L|164:172,1,160,2|4,1:1|0:0,0:1:0:0:
256,192,205894,12,4,207608,0:1:0:0:
300,272,208465,5,0,1:0:0:0:
456,308,208894,1,4,0:3:0:0:
484,232,209108,2,2,P|444:160|312:204,1,240,2|8,0:1|0:3,0:1:0:0:
220,332,210180,1,0,1:0:0:0:
64,372,210608,1,8,0:3:0:0:
40,296,210822,1,0,1:0:0:0:
68,56,211465,5,8,0:3:0:0:
164,184,211894,1,0,1:0:0:0:
264,60,212322,1,8,0:3:0:0:
259,141,212537,2,2,B|300:152|336:112|348:64|420:40|480:92,1,240,2|8,0:1|0:3,0:1:0:0:
436,240,213608,1,0,1:0:0:0:
280,268,214037,1,0,1:0:0:0:
296,344,214251,1,4,3:0:0:0:
80,240,214894,5,8,0:3:0:0:
132,88,215322,1,0,1:0:0:0:
288,120,215751,1,8,0:3:0:0:
360,80,215965,2,2,B|384:176|384:176|356:220|356:220|380:328,1,240,2|8,0:1|0:3,0:1:0:0:
216,280,217037,1,0,1:0:0:0:
72,352,217465,1,8,0:3:0:0:
52,272,217680,1,0,1:0:0:0:
64,192,217894,6,0,B|44:140|44:140|64:68,2,120,2|2|2,1:0|1:0|1:0,0:0:0:0:
176,308,218966,2,0,L|348:308,1,160,2|4,1:1|0:0,0:1:0:0:
336,148,219822,6,0,L|292:76,1,80,0|2,0:0|0:0,0:0:0:0:
217,79,220251,2,0,L|176:148,1,80,0|2,0:0|0:0,0:0:0:0:
216,215,220680,2,0,L|295:215,1,80,2|0,0:0|0:0,0:0:0:0:
