osu file format v14

[General]
AudioFilename: audio.mp3
AudioLeadIn: 0
PreviewTime: 178358
Countdown: 0
SampleSet: Soft
StackLeniency: 0.7
Mode: 0
LetterboxInBreaks: 0
WidescreenStoryboard: 0

[Editor]
DistanceSpacing: 0.9
BeatDivisor: 4
GridSize: 4
TimelineZoom: 1.7

[Metadata]
Title:How to Be a Heartbreaker
TitleUnicode:How to Be a Heartbreaker
Artist:Marina and the Diamonds
ArtistUnicode:Marina and the Diamonds
Creator:Krisom
Version:Insane
Source:
Tags:Electra Heart Pop English Lambrini Diamandis Electro Electro-Pop Μαρίνα Λαμπρινή Διαμαντή &
BeatmapID:3173887
BeatmapSetID:1553473

[Difficulty]
HPDrainRate:6
CircleSize:4.2
OverallDifficulty:8
ApproachRate:8.8
SliderMultiplier:2.4
SliderTickRate:2

[Events]
//Background and Video events
0,0,"Electra heart.jpg",0,0
//Break Periods
2,60180,61265
2,73894,74979
2,128751,129837
2,144180,157265
//Storyboard Layer 0 (Background)
//Storyboard Layer 1 (Fail)
//Storyboard Layer 2 (Pass)
//Storyboard Layer 3 (Foreground)
//Storyboard Layer 4 (Overlay)
//Storyboard Sound Samples

[TimingPoints]
180,428.571428571429,4,2,1,60,1,0
20751,-100,4,2,1,70,0,0
34465,-90.9090909090909,4,2,1,85,0,1
60180,-90.9090909090909,4,2,1,70,0,0
61894,-90.9090909090909,4,2,1,85,0,1
62001,-100,4,2,1,70,0,0
103037,-90.9090909090909,4,2,1,85,0,1
128751,-90.9090909090909,4,2,1,70,0,0
130465,-90.9090909090909,4,2,1,85,0,1
130572,-100,4,2,1,70,0,0
157894,-125,4,2,1,70,0,0
175037,-117.647058823529,4,2,1,70,0,0
176751,-105.263157894737,4,2,1,70,0,0
180180,-86.9565217391304,4,2,1,85,0,1
207501,-86.9565217391304,4,2,1,85,0,0
207608,-86.9565217391304,4,2,1,85,0,1
219608,-86.9565217391304,4,2,1,60,0,0

[Colours]
Combo1 : 255,201,36
Combo2 : 5,197,11
Combo3 : 17,88,255
Combo4 : 249,17,86

[HitObjects]
4,148,7037,6,0,B|64:100|116:148|168:196|228:148,1,240,8|8,0:0|0:1,0:0:0:0:
308,76,7680,1,0,0:0:0:0:
404,28,7894,2,0,P|316:96|336:212,1,240,8|8,0:0|0:1,0:0:0:0:
404,296,8537,1,0,0:0:0:0:
488,360,8751,5,8,0:0:0:0:
496,252,8965,1,2,0:0:0:0:
404,296,9180,1,8,0:1:0:0:
308,344,9394,1,2,0:0:0:0:
288,240,9608,1,8,0:0:0:0:
196,284,9823,1,2,0:0:0:0:
100,332,10037,1,8,0:1:0:0:
100,332,10465,6,0,B|112:240|112:240|124:156|212:140,1,240,8|8,0:0|0:1,0:0:0:0:
308,108,11108,1,0,0:0:0:0:
416,132,11322,2,0,P|320:216|224:172,1,240,8|8,0:0|0:1,0:0:0:0:
312,108,11965,1,0,0:0:0:0:
388,32,12180,5,8,0:0:0:0:
416,132,12394,1,2,0:0:0:0:
312,108,12608,1,8,0:1:0:0:
208,76,12822,1,2,0:0:0:0:
232,180,13037,1,8,0:0:0:0:
280,276,13251,2,0,P|380:312|452:208,1,240,2|2,0:0|0:0,0:0:0:0:
432,32,13894,6,0,P|335:91|351:204,1,240,8|8,0:0|0:1,0:0:0:0:
400,300,14537,1,0,0:0:0:0:
500,352,14751,2,0,L|256:332,1,240,8|8,0:0|0:1,0:0:0:0:
156,312,15394,1,0,0:0:0:0:
156,204,15608,5,8,0:0:0:0:
260,312,15822,1,2,0:0:0:0:
256,204,16037,1,8,0:1:0:0:
356,312,16251,1,2,0:0:0:0:
356,204,16465,2,0,B|392:204|440:172|460:116|444:64,1,180,8|8,0:0|0:0,0:0:0:0:
424,28,16894,1,8,0:1:0:0:
316,44,17108,1,2,0:0:0:0:
212,64,17322,5,8,0:0:0:0:
224,172,17537,2,0,B|176:176|144:156|116:120,1,120,0|8,0:0|0:1,0:0:0:0:
128,236,17965,1,0,0:0:0:0:
112,344,18180,2,0,B|160:348|192:328|220:292,2,120,8|0|8,0:0|0:0|0:1,0:0:0:0:
256,368,18822,1,0,0:0:0:0:
400,344,19037,6,0,B|352:348|320:328|292:292,1,120,8|0,0:0|0:0,0:0:0:0:
352,204,19465,2,0,B|256:132|256:132|160:204,1,240,8|8,0:1|0:0,0:0:0:0:
160,96,20108,2,0,B|256:24|256:24|352:96,1,240,2|0,0:0|0:0,0:0:0:0:
432,172,20751,6,0,L|304:212,1,120,12|0,0:0|0:0,0:0:0:0:
112,272,21180,1,8,1:2:0:0:
216,240,21394,1,0,0:0:0:0:
192,136,21608,2,0,B|132:140|132:140|68:180,1,120,8|0,0:0|0:0,0:0:0:0:
204,360,22037,1,8,1:2:0:0:
168,260,22251,1,0,0:0:0:0:
136,156,22465,5,8,0:0:0:0:
256,192,22680,1,2,0:0:0:0:
376,160,22894,1,8,1:2:0:0:
256,116,23108,1,2,0:0:0:0:
256,256,23322,1,8,0:0:0:0:
332,112,23537,2,0,P|256:35|180:112,1,240,2|2,0:0|0:0,0:0:0:0:
116,200,24180,6,0,B|180:200|180:200|228:244,1,120,8|0,0:0|0:0,0:0:0:0:
376,312,24608,1,8,1:2:0:0:
376,312,24822,1,0,0:0:0:0:
396,200,25037,2,0,B|336:200|336:200|284:244,1,120,8|0,0:0|0:0,0:0:0:0:
136,312,25465,1,8,1:2:0:0:
136,312,25679,1,0,0:0:0:0:
56,240,25894,5,8,0:0:0:0:
96,140,26108,1,2,0:0:0:0:
172,216,26322,1,8,1:2:0:0:
204,112,26537,1,2,0:0:0:0:
96,140,26751,1,8,0:0:0:0:
120,244,26965,2,0,B|186:282|230:226|274:170|341:208,1,240,2|2,0:0|0:0,0:0:0:0:
424,280,27608,6,0,P|392:244|400:172,1,120,8|0,0:0|0:0,0:0:0:0:
472,64,28037,1,8,1:2:0:0:
372,104,28251,1,0,0:0:0:0:
268,76,28465,2,0,P|300:112|292:184,1,120,8|0,0:0|0:0,0:0:0:0:
220,292,28894,1,8,1:2:0:0:
320,252,29108,1,0,0:0:0:0:
416,208,29322,5,8,0:0:0:0:
336,136,29537,1,2,0:0:0:0:
256,64,29751,1,8,1:2:0:0:
256,64,29965,1,2,0:0:0:0:
176,136,30180,1,8,0:0:0:0:
96,208,30394,2,0,B|124:256|172:236|216:216|260:264,1,180,2|0,0:0|0:0,0:0:0:0:
280,288,30822,1,2,0:0:0:0:
356,364,31037,6,0,B|388:360|420:372|472:304,2,120,0|0|8,0:0|0:0|0:0,0:0:0:0:
256,320,31680,1,0,0:0:0:0:
156,364,31894,2,0,B|124:360|92:372|40:304,2,120,0|0|8,0:0|0:0|0:0,0:0:0:0:
256,320,32537,1,0,0:0:0:0:
352,152,32751,5,8,1:2:0:0:
356,260,32965,1,0,1:0:0:0:
160,152,33180,1,8,1:2:0:0:
156,260,33394,1,0,1:0:0:0:
416,208,33608,1,8,1:2:0:0:
96,208,33822,1,0,1:0:0:0:
256,88,34037,1,8,1:2:0:0:
372,304,34465,6,2,B|288:376|256:360|224:376|140:304,1,264.000008056641,6|8,0:1|1:0,0:1:0:0:
256,196,35108,1,4,3:0:0:0:
372,80,35322,2,2,B|288:8|256:24|224:8|140:80,1,264.000008056641,2|8,0:1|1:0,0:1:0:0:
256,196,35965,1,4,3:0:0:0:
440,296,36180,6,0,L|312:344,1,132.00000402832,0|0,1:0|0:0,0:0:0:0:
180,256,36608,1,10,1:0:0:0:
332,256,36822,1,4,3:0:0:0:
252,144,37037,1,2,0:1:0:0:
256,284,37251,1,4,3:0:0:0:
72,296,37465,2,0,L|200:344,1,132.00000402832,10|4,1:0|3:0,0:0:0:0:
320,192,37894,6,2,B|360:128|316:44|216:36|172:108,1,264.000008056641,6|8,0:1|1:0,0:1:0:0:
192,220,38537,1,4,3:0:0:0:
320,192,38751,2,2,B|280:256|324:340|424:348|468:276,1,264.000008056641,2|8,0:1|1:0,0:1:0:0:
440,164,39394,1,4,3:0:0:0:
424,48,39608,5,0,1:0:0:0:
328,120,39822,2,0,B|279:144|232:128|212:88,1,132.00000402832,2|8,0:1|1:0,0:0:0:0:
41,166,40251,2,0,B|89:141|137:158|156:196,1,132.00000402832,2|0,0:1|1:0,0:0:0:0:
68,276,40680,1,2,0:1:0:0:
176,324,40894,1,8,1:0:0:0:
176,324,41108,1,2,1:0:0:0:
296,324,41322,6,2,B|360:340|408:292|404:236|360:192|312:224|272:204|236:160|280:56|360:96,1,396.000012084961,6|4,0:1|3:0,0:1:0:0:
449,176,42180,2,0,B|427:182|391:249|410:192|478:240|353:210|346:176|361:134|402:164|405:204|322:226|322:273|357:320|370:269|364:224|268:217|261:184|287:98|337:168|345:210|251:259|254:292|293:346|315:288|310:250|219:229|213:196|240:191|273:180|282:214|191:253|196:292|223:297|245:272|239:249|196:231|133:263,1,396.000012084961,10|4,1:0|3:0,0:0:0:0:
48,148,43037,6,0,L|192:100,1,132.00000402832,2|4,1:0|3:0,0:0:0:0:
464,148,43465,2,0,L|320:100,1,132.00000402832,8|4,1:0|3:0,0:0:0:0:
256,300,43894,2,0,L|256:164,1,132.00000402832,2|4,1:0|3:0,0:0:0:0:
316,40,44322,1,8,1:0:0:0:
196,40,44537,1,2,0:1:0:0:
100,112,44751,5,2,1:0:0:0:
256,300,45072,1,2,1:0:0:0:
412,112,45394,1,2,1:0:0:0:
140,248,45822,2,2,B|200:196|256:168|312:196|372:248,1,264.000008056641,2|4,1:0|0:0,0:1:0:0:
340,76,46894,5,10,1:0:0:0:
340,308,47108,1,0,1:0:0:0:
172,76,47322,1,8,1:0:0:0:
172,308,47536,1,0,1:0:0:0:
488,192,47751,1,10,1:0:0:0:
24,192,48180,6,2,P|47:308|172:308,1,264.000008056641,6|8,0:1|1:0,0:1:0:0:
256,192,48822,1,4,3:0:0:0:
339,76,49037,2,2,P|461:73|488:192,1,264.000008056641,2|8,0:1|1:0,0:1:0:0:
368,204,49680,1,4,3:0:0:0:
316,312,49894,6,0,B|268:344|244:344|196:312,1,132.00000402832,0|0,1:0|0:0,0:0:0:0:
216,196,50322,1,10,1:0:0:0:
64,68,50536,1,4,3:0:0:0:
96,256,50751,1,2,0:1:0:0:
192,80,50965,1,4,3:0:0:0:
8,196,51179,2,0,B|32:160|80:140|132:152,1,132.00000402832,10|4,1:0|3:0,0:0:0:0:
368,212,51608,6,2,B|328:170|263:181|256:233|246:282|191:304|148:266,1,264.000008056641,6|8,0:1|1:0,0:1:0:0:
76,172,52251,1,4,3:0:0:0:
170,102,52465,2,2,B|219:71|279:99|272:151|269:201|317:236|367:211,1,264.000008056641,2|8,0:1|1:0,0:1:0:0:
424,104,53108,1,4,3:0:0:0:
316,56,53322,5,0,1:0:0:0:
204,100,53536,2,0,B|72:144,1,132.00000402832,2|8,0:1|1:0,0:0:0:0:
177,229,53965,2,0,B|204:92,1,132.00000402832,2|4,0:1|3:0,0:0:0:0:
78,141,54394,2,0,B|182:233,1,132.00000402832,2|8,0:1|1:0,0:0:0:0:
260,312,54822,1,2,1:0:0:0:
356,280,55037,6,2,B|432:260|460:172|428:108|356:76|272:96|244:148|256:212,1,396.000012084961,6|4,0:1|3:0,0:1:0:0:
154,135,55894,2,0,B|78:155|50:243|82:307|154:339|238:319|266:267|254:203,1,396.000012084961,2|4,0:1|3:0,0:1:0:0:
464,236,56751,6,0,L|320:284,1,132.00000402832,2|4,1:0|3:0,0:0:0:0:
256,76,57179,2,0,L|256:208,1,132.00000402832,8|4,1:0|3:0,0:0:0:0:
48,236,57608,2,0,L|176:280,1,132.00000402832,2|4,1:0|3:0,0:0:0:0:
328,160,58036,1,8,1:0:0:0:
184,160,58251,1,2,0:1:0:0:
412,112,58465,5,2,1:0:0:0:
256,300,58786,1,2,1:0:0:0:
100,112,59108,1,2,1:0:0:0:
372,248,59536,2,2,B|312:196|256:168|200:196|140:248,1,264.000008056641,2|4,1:0|0:0,0:1:0:0:
139,248,61894,21,4,1:0:0:0:
440,300,62322,2,0,L|312:328,1,120,8|0,1:0|0:0,0:0:0:0:
376,232,62751,2,0,L|248:260,1,120,2|0,0:1|0:0,0:0:0:0:
312,164,63180,1,8,1:0:0:0:
372,72,63394,6,2,B|336:24|264:32|264:96|192:120|160:76,1,240,2|0,1:0|0:0,0:1:0:0:
68,16,64037,2,0,B|44:48|40:88|64:132,1,120,8|0,1:0|0:0,0:0:0:0:
153,188,64465,2,0,B|177:156|181:116|159:75,1,120,2|0,0:1|0:0,0:0:0:0:
62,129,64894,1,8,1:0:0:0:
68,16,65108,1,2,0:1:0:0:
408,300,65751,6,0,B|344:300|344:300|304:340,1,120,8|0,1:0|0:0,0:0:0:0:
104,300,66180,2,0,B|168:300|168:300|208:340,1,120,2|0,0:1|0:0,0:0:0:0:
256,244,66608,1,8,1:0:0:0:
312,152,66822,6,2,B|328:108|304:64|256:36|208:64|184:108|200:152,1,240,2|0,1:0|0:0,0:1:0:0:
92,160,67465,2,0,P|106:217|145:262,1,120,8|0,1:0|0:0,0:0:0:0:
52,316,67894,2,0,P|95:356|152:372,1,120,2|0,0:1|0:0,0:0:0:0:
256,344,68322,1,8,1:1:0:0:
360,372,68537,1,4,3:0:0:0:
256,64,69180,6,0,L|368:112,1,120,8|0,1:1|0:0,0:0:0:0:
256,320,69608,2,0,L|144:272,1,120,2|0,0:1|0:0,0:0:0:0:
151,151,70037,1,8,1:0:0:0:
151,151,70251,6,2,B|224:128|256:192|287:255|360:232,1,240,2|0,1:0|0:1,0:1:0:0:
464,196,70894,2,0,L|428:320,1,120,8|0,1:0|0:0,0:0:0:0:
361,231,71322,2,0,L|325:355,1,120,2|0,0:1|0:0,0:0:0:0:
256,268,71751,1,8,1:0:0:0:
151,231,71965,1,2,0:1:0:0:
88,144,72180,5,2,1:0:0:0:
256,32,72501,1,2,1:0:0:0:
424,144,72822,1,2,1:0:0:0:
356,348,73251,2,2,B|320:296|256:264|192:296|156:348,1,240,2|4,1:0|0:0,0:1:0:0:
476,192,75608,22,0,B|476:80|368:56|304:124,1,240,8|8,0:0|0:1,0:0:0:0:
256,212,76251,1,0,0:0:0:0:
216,312,76465,2,0,P|327:290|355:180,1,240,8|8,0:0|0:1,0:0:0:0:
256,140,77108,1,0,0:0:0:0:
160,176,77322,5,8,0:0:0:0:
68,116,77536,1,2,0:0:0:0:
68,224,77751,1,8,0:1:0:0:
68,331,77965,1,2,0:0:0:0:
175,331,78179,1,8,0:0:0:0:
175,222,78394,1,2,0:0:0:0:
175,222,78822,1,2,0:0:0:0:
264,280,79036,6,0,B|496:188,1,240,8|8,0:0|0:1,0:0:0:0:
424,104,79679,1,0,0:0:0:0:
324,144,79893,2,0,L|97:233,1,240,8|8,0:0|0:1,0:0:0:0:
80,124,80536,1,0,0:0:0:0:
176,76,80751,5,8,0:0:0:0:
260,144,80965,1,2,0:0:0:0:
212,240,81179,1,8,0:1:0:0:
100,231,81393,1,2,0:0:0:0:
168,144,81608,1,8,0:0:0:0:
212,240,81822,2,0,B|256:284|316:232|384:180|444:248,1,240,2|2,0:0|0:0,0:0:0:0:
396,340,82465,6,0,P|332:260|388:144,1,240,8|8,0:0|0:1,0:0:0:0:
492,148,83108,1,0,0:0:0:0:
436,240,83322,2,0,L|192:220,1,240,8|8,0:0|0:1,0:0:0:0:
88,212,83965,1,0,0:0:0:0:
148,120,84179,5,8,0:0:0:0:
256,120,84393,1,2,0:0:0:0:
364,120,84608,1,8,0:1:0:0:
424,212,84822,1,2,0:0:0:0:
316,220,85036,2,0,B|136:235,1,180,8|8,0:0|0:0,0:0:0:0:
84,240,85465,1,8,0:1:0:0:
60,136,85679,1,2,0:0:0:0:
164,112,85893,5,8,0:0:0:0:
156,4,86108,2,0,B|204:0|236:20|264:56,1,120,0|8,0:0|0:1,0:0:0:0:
164,112,86536,1,0,0:0:0:0:
172,220,86751,2,0,B|124:224|92:204|64:168,2,120,8|0|8,0:0|0:0|0:1,0:0:0:0:
256,288,87393,1,0,0:0:0:0:
340,220,87608,6,0,B|388:224|420:204|448:168,1,120,8|0,0:0|0:0,0:0:0:0:
368,96,88036,2,0,B|256:52|256:52|144:96,1,240,8|8,0:1|0:0,0:0:0:0:
36,76,88680,2,0,P|44:132|84:188,1,120,2|8,0:0|0:1,0:0:0:0:
152,264,89108,1,2,0:0:0:0:
176,216,89215,1,8,0:0:0:0:
200,168,89322,6,0,B|240:140|272:140|312:168,1,120,12|0,0:0|0:0,0:0:0:0:
256,332,89751,1,8,1:2:0:0:
256,224,89965,1,0,0:0:0:0:
312,132,90180,2,0,B|272:104|240:104|200:132,1,120,8|0,0:0|0:0,0:0:0:0:
256,292,90608,1,8,1:2:0:0:
256,184,90822,1,0,0:0:0:0:
352,236,91036,5,8,0:0:0:0:
352,344,91251,1,2,0:0:0:0:
460,236,91465,1,8,1:2:0:0:
460,344,91679,1,2,0:0:0:0:
352,236,91893,1,8,0:0:0:0:
352,344,92108,2,0,B|308:364|272:360|296:288|268:304|260:276|224:340|216:312|188:324|224:256|180:248|140:260,1,240,2|2,0:0|0:0,0:0:0:0:
64,192,92751,6,0,B|112:184|148:164|168:132,1,120,8|0,0:0|0:0,0:0:0:0:
308,36,93179,1,8,1:2:0:0:
204,36,93393,1,0,0:0:0:0:
346,135,93608,2,0,B|364:164|400:184|448:192,1,120,8|0,0:0|0:0,0:0:0:0:
308,220,94036,1,8,1:2:0:0:
204,220,94250,1,0,0:0:0:0:
144,312,94465,5,8,0:0:0:0:
76,228,94679,1,2,0:0:0:0:
136,136,94893,1,8,1:2:0:0:
204,220,95108,1,2,0:0:0:0:
260,312,95322,2,0,B|288:340|336:348|376:328,2,120,8|2|8,0:0|0:0|1:2,0:0:0:0:
216,136,95965,6,0,P|280:124|320:268,1,240,2|0,0:0|0:0,0:0:0:0:
220,240,96608,1,8,1:2:0:0:
220,240,96822,1,0,0:0:0:0:
116,220,97036,2,0,P|84:184|92:112,1,120,8|0,0:0|0:0,0:0:0:0:
196,80,97465,1,8,1:2:0:0:
196,80,97679,1,0,0:0:0:0:
256,168,97893,5,8,0:0:0:0:
356,212,98108,1,2,0:0:0:0:
432,136,98322,1,8,1:2:0:0:
372,44,98536,1,2,0:0:0:0:
264,64,98751,1,8,0:0:0:0:
164,104,98965,2,0,B|136:152|88:132|44:112|0:160,1,180,2|0,0:0|0:0,0:0:0:0:
0,204,99393,1,2,0:0:0:0:
64,288,99608,6,8,L|176:340,1,120,8|2,0:0|0:0,0:0:0:0:
256,268,100037,2,0,L|368:216,1,120,0|0,1:0|0:0,0:0:0:0:
448,288,100465,2,0,L|336:340,1,120,8|2,0:0|0:0,0:0:0:0:
256,268,100894,2,0,L|144:216,1,120,0|0,1:0|0:0,0:0:0:0:
136,112,101322,5,8,1:2:0:0:
376,204,101536,1,0,1:0:0:0:
136,204,101751,1,8,1:2:0:0:
376,112,101965,1,0,1:0:0:0:
136,24,102179,1,8,1:2:0:0:
256,208,102393,1,0,1:0:0:0:
376,24,102608,1,8,1:2:0:0:
23,208,103037,6,2,B|107:280|139:264|171:280|255:208,1,264.000008056641,6|8,0:1|1:0,0:1:0:0:
373,96,103680,1,4,3:0:0:0:
487,208,103894,2,2,B|403:280|371:264|339:280|255:208,1,264.000008056641,2|8,0:1|1:0,0:1:0:0:
139,96,104537,1,4,3:0:0:0:
25,208,104752,6,0,B|72:236|100:276|108:324,1,132.00000402832,0|0,1:0|0:0,0:0:0:0:
180,184,105180,1,10,1:0:0:0:
332,184,105394,1,4,3:0:0:0:
256,100,105609,1,2,0:1:0:0:
256,264,105823,1,4,3:0:0:0:
407,308,106037,2,0,B|412:276|440:236|487:208,1,132.00000402832,10|0,1:0|3:0,0:0:0:0:
500,82,106466,6,2,B|465:44|381:68|373:116|293:139|256:96,1,264.000008056641,6|8,0:1|1:0,0:1:0:0:
152,204,107109,1,4,3:0:0:0:
11,110,107322,2,2,B|45:148|130:123|137:76|218:52|255:96,1,264.000008056641,2|8,0:1|1:0,0:1:0:0:
360,204,107966,1,4,3:0:0:0:
256,264,108180,5,0,1:0:0:0:
140,292,108394,2,0,B|11:323,1,132.00000402832,2|8,0:1|1:0,0:0:0:0:
96,180,108823,2,0,B|225:149,1,132.00000402832,2|0,0:1|1:0,0:0:0:0:
392,228,109252,1,2,0:1:0:0:
276,260,109466,1,8,1:0:0:0:
312,148,109680,1,2,1:0:0:0:
256,44,109894,6,2,B|184:-8|28:8|-12:184|68:248,1,396.000012084961,6|4,0:1|3:0,0:1:0:0:
176,164,110752,2,0,B|198:170|234:237|215:180|147:228|272:198|279:164|264:122|223:152|220:192|303:214|303:261|268:308|255:257|261:212|357:205|364:172|338:86|288:156|280:198|374:247|371:280|332:334|310:276|315:238|406:217|412:184|385:179|352:168|343:202|434:241|429:280|402:285|380:260|386:237|429:219|492:251,1,396.000012084961,10|4,1:0|3:0,0:0:0:0:
460,120,111609,6,0,L|316:72,1,132.00000402832,2|4,1:0|3:0,0:0:0:0:
220,44,112037,2,0,L|250:192,1,132.00000402832,8|4,1:0|3:0,0:0:0:0:
280,288,112465,2,0,L|393:187,1,132.00000402832,2|4,1:0|3:0,0:0:0:0:
334,78,112894,1,8,1:0:0:0:
246,173,113109,1,2,0:1:0:0:
378,200,113323,5,2,1:0:0:0:
256,368,113644,1,2,1:0:0:0:
134,200,113966,1,2,1:0:0:0:
380,112,114394,2,2,B|314:59|256:112|199:164|133:112,1,264.000008056641,2|4,1:0|0:0,0:1:0:0:
132,111,115466,5,10,1:0:0:0:
132,273,115680,1,0,1:0:0:0:
256,56,115894,1,8,1:0:0:0:
256,328,116108,1,0,1:0:0:0:
380,111,116323,1,10,1:0:0:0:
379,273,116752,6,2,P|236:288|196:184,1,264.000008056641,6|8,0:1|1:0,0:1:0:0:
256,96,117394,1,4,3:0:0:0:
317,195,117608,2,2,P|253:301|132:273,1,264.000008056641,2|8,0:1|1:0,0:1:0:0:
52,184,118252,1,4,3:0:0:0:
132,273,118466,6,0,B|180:268|216:216|204:160,1,132.00000402832,0|0,1:0|0:0,0:0:0:0:
168,32,118894,1,10,1:0:0:0:
256,128,119108,1,4,3:0:0:0:
344,32,119323,1,2,0:1:0:0:
256,144,119537,1,4,3:0:0:0:
168,32,119751,2,0,B|132:56|112:104|124:156,1,132.00000402832,10|4,1:0|3:0,0:0:0:0:
124,268,120180,6,2,B|388:268,1,264.000008056641,6|8,0:1|1:0,0:1:0:0:
480,192,120823,1,4,3:0:0:0:
388,116,121037,2,2,B|120:116,1,264.000008056641,2|8,0:1|1:0,0:1:0:0:
40,32,121680,1,4,3:0:0:0:
16,148,121894,5,0,1:0:0:0:
48,264,122108,2,0,B|180:308,1,132.00000402832,2|8,0:1|1:0,0:0:0:0:
322,216,122537,2,0,B|190:216,1,132.00000402832,2|4,0:1|3:0,0:0:0:0:
464,264,122965,2,0,B|332:308,1,132.00000402832,2|8,0:1|1:0,0:0:0:0:
496,148,123394,1,2,1:0:0:0:
384,108,123608,6,2,B|388:56|368:16|320:-24|256:-36|192:-24|144:16|124:56|128:108,1,396.000012084961,6|4,0:1|3:0,0:1:0:0:
92,220,124466,2,0,B|128:272|160:256|160:148|184:192|232:148|208:272|256:364|304:272|280:148|328:192|352:148|352:256|384:272|420:220,1,396.000012084961,2|4,0:1|3:0,0:1:0:0:
452,104,125323,6,0,P|384:104|308:152,1,132.00000402832,2|4,1:0|3:0,0:0:0:0:
256,36,125751,2,0,L|256:168,1,132.00000402832,8|4,1:0|3:0,0:0:0:0:
60,104,126180,2,0,P|128:104|204:152,1,132.00000402832,2|4,1:0|3:0,0:0:0:0:
328,252,126608,1,8,1:0:0:0:
184,252,126823,1,2,0:1:0:0:
100,168,127037,5,2,1:0:0:0:
256,328,127358,1,2,1:0:0:0:
412,168,127680,1,2,1:0:0:0:
132,108,128108,2,2,B|198:55|256:108|313:160|379:108,1,264.000008056641,2|4,1:0|0:0,0:1:0:0:
379,107,130466,21,4,1:0:0:0:
179,187,130894,2,0,L|307:215,1,120,8|0,1:0|0:0,0:0:0:0:
503,178,131323,2,0,L|385:152,1,120,2|0,0:1|0:0,0:0:0:0:
183,192,131752,1,8,1:0:0:0:
183,192,131966,6,2,B|135:135|153:62|225:27|283:54,1,240,2|0,1:0|0:0,0:1:0:0:
183,192,132609,2,0,B|183:231|163:266|118:288,1,120,8|0,1:0|0:0,0:0:0:0:
83,188,133037,2,0,B|59:156|55:116|77:75,1,120,2|0,0:1|0:0,0:0:0:0:
175,120,133466,1,8,1:0:0:0:
255,48,133680,1,2,0:1:0:0:
504,256,134323,6,0,B|465:372,1,120,8|0,1:0|0:0,0:0:0:0:
388,293,134752,2,0,B|346:180,1,120,2|0,0:1|0:0,0:0:0:0:
255,239,135180,1,8,1:0:0:0:
166,180,135394,6,2,B|188:116|256:86|324:116|345:180,1,240,2|0,1:0|0:0,0:1:0:0:
255,239,136037,2,0,P|241:296|202:341,1,120,8|0,1:0|0:0,0:0:0:0:
156,244,136465,2,0,P|142:187|103:142,1,120,2|0,0:1|0:0,0:0:0:0:
48,236,136894,1,8,1:1:0:0:
0,332,137109,1,4,3:0:0:0:
324,312,137752,6,0,L|396:214,1,120,8|0,1:1|0:0,0:0:0:0:
188,72,138180,2,0,L|115:169,1,120,2|0,0:1|0:0,0:0:0:0:
180,276,138609,1,8,1:0:0:0:
181,276,138823,6,2,B|256:263|255:191|255:121|330:109,1,240,2|0,1:0|0:1,0:1:0:0:
464,196,139466,2,0,L|428:320,1,120,8|0,1:0|0:0,0:0:0:0:
302,375,139894,2,0,L|336:260,1,120,2|0,0:1|0:0,0:0:0:0:
368,156,140323,1,8,1:0:0:0:
404,56,140537,1,2,0:1:0:0:
464,144,140752,5,2,1:0:0:0:
256,32,141073,1,2,1:0:0:0:
48,144,141394,1,2,1:0:0:0:
356,184,141823,2,2,B|320:132|256:100|192:132|156:184,1,240,2|4,1:0|0:0,0:1:0:0:
456,296,157894,6,0,L|364:320,1,96,2|0,3:2|0:0,0:0:0:0:
276,328,158322,2,0,L|300:236,1,96,0|0,3:0|0:0,0:0:0:0:
320,152,158751,2,0,L|100:96,1,192,8|0,0:0|3:0,0:0:0:0:
56,296,159608,6,0,L|148:320,1,96,2|0,3:2|0:0,0:0:0:0:
236,328,160036,2,0,L|212:236,1,96,0|0,3:0|0:0,0:0:0:0:
192,152,160465,2,0,L|412:96,1,192,8|0,0:0|3:0,0:0:0:0:
404,188,161108,1,0,3:0:0:0:
434,267,161322,6,0,B|382:307|318:311|256:268,1,192,2|0,3:2|3:0,0:0:0:0:
104,264,161965,1,0,3:0:0:0:
74,343,162179,2,0,B|126:383|190:387|252:343,1,192,8|0,3:2|3:0,0:0:0:0:
400,340,162822,1,0,3:0:0:0:
468,284,163037,6,0,B|492:240|448:208|420:200|388:160|416:116,1,192,2|0,3:2|3:0,0:0:0:0:
484,64,163680,2,0,P|420:116|312:100,1,192,0|0,3:0|3:0,0:0:0:0:
256,40,164322,1,0,3:0:0:0:
88,84,164751,6,0,L|180:60,1,96,2|0,3:2|0:0,0:0:0:0:
240,120,165179,2,0,L|216:212,1,96,0|0,3:0|0:0,0:0:0:0:
192,296,165608,2,0,L|412:352,1,192,8|0,0:0|3:0,0:0:0:0:
424,84,166465,6,0,L|332:60,1,96,2|0,3:2|0:0,0:0:0:0:
272,120,166893,2,0,L|296:212,1,96,0|0,3:0|0:0,0:0:0:0:
320,296,167322,2,0,L|100:352,1,192,8|0,0:0|3:0,0:0:0:0:
104,264,167965,1,0,3:0:0:0:
76,180,168179,6,0,B|128:140|192:136|254:179,1,192,2|0,3:2|3:0,0:0:0:0:
392,188,168822,1,0,3:0:0:0:
432,104,169036,2,0,B|380:64|316:60|253:103,1,192,8|0,3:2|3:0,0:0:0:0:
116,112,169679,1,0,3:0:0:0:
72,184,169894,6,0,B|101:224|149:199|168:177|218:166|245:210,1,192,2|0,3:2|3:0,0:0:0:0:
184,272,170537,2,0,P|248:324|356:308,1,192,0|0,3:0|3:0,0:0:0:0:
440,164,171394,1,2,3:0:0:0:
440,164,173322,22,0,L|336:124,1,96,0|0,3:0|0:0,0:0:0:0:
72,164,173751,2,0,L|176:124,1,96,8|0,0:0|0:0,0:0:0:0:
304,216,174180,2,0,L|393:250,1,96,0|0,3:0|0:0,0:0:0:0:
208,216,174609,2,0,L|118:250,1,96,8|0,0:0|0:0,0:0:0:0:
304,216,175037,6,0,B|308:184|336:152|372:152,1,102.000001945496,0|0,3:0|0:0,0:0:0:0:
208,216,175465,2,0,B|204:184|176:152|140:152,1,102.000001945496,8|0,3:2|0:0,0:0:0:0:
376,228,175894,2,0,B|380:260|408:292|444:292,1,102.000001945496,0|0,3:0|0:0,0:0:0:0:
136,228,176322,2,0,B|132:260|104:292|68:292,1,102.000001945496,8|0,3:2|0:0,0:0:0:0:
33,108,176751,6,0,L|141:152,1,113.999996955872,0|0,3:0|3:0,0:0:0:0:
479,108,177180,2,0,L|371:152,1,113.999996955872,8|0,3:2|3:0,0:0:0:0:
33,276,177608,2,0,L|141:232,1,113.999996955872,0|0,3:0|3:0,0:0:0:0:
479,276,178037,2,0,L|371:232,1,113.999996955872,8|0,3:2|3:0,0:0:0:0:
140,84,178465,5,2,3:2:0:0:
140,300,178680,1,2,3:2:0:0:
372,84,178894,1,2,3:2:0:0:
372,300,179109,1,2,3:2:0:0:
60,192,179322,1,2,3:2:0:0:
256,320,179537,1,2,3:2:0:0:
452,192,179751,1,2,3:2:0:0:
428,56,180180,6,2,B|396:152|268:176|204:96,1,276.000005264282,6|8,0:1|1:0,0:1:0:0:
124,192,180823,1,4,3:0:0:0:
84,328,181037,2,2,B|116:232|244:208|308:288,1,276.000005264282,2|8,0:1|1:0,0:1:0:0:
424,248,181680,1,4,3:0:0:0:
408,128,181894,5,4,1:3:0:0:
324,32,182108,1,0,0:0:0:0:
188,32,182323,1,10,1:0:0:0:
104,128,182537,1,4,3:0:0:0:
104,256,182752,1,2,0:1:0:0:
188,352,182966,1,4,3:0:0:0:
324,352,183180,1,10,1:0:0:0:
408,256,183394,1,4,0:3:0:0:
464,144,183609,6,2,B|384:80|328:140|264:208|200:156,1,276.000005264282,6|8,0:1|1:0,0:1:0:0:
120,72,184252,1,4,3:0:0:0:
240,44,184465,2,2,B|341:60|333:142|326:235|407:248,1,276.000005264282,2|8,0:1|1:0,0:1:0:0:
464,352,185109,1,4,3:0:0:0:
472,228,185323,5,0,1:0:0:0:
424,116,185537,2,0,B|392:80|332:72|280:112,1,138.000002632141,2|8,0:1|1:0,0:0:0:0:
88,116,185965,2,0,B|120:80|180:72|232:112,1,138.000002632141,2|4,0:1|0:3,0:0:0:0:
344,204,186395,1,2,0:1:0:0:
256,292,186609,1,8,1:0:0:0:
168,204,186823,1,2,1:0:0:0:
88,112,187037,6,2,B|132:20|256:-36|380:20|424:112,1,414.000007896423,6|4,0:1|3:0,0:1:0:0:
424,272,187894,2,0,B|380:364|256:420|132:364|88:272,1,414.000007896423,10|4,0:1|3:0,0:1:0:0:
44,152,188751,6,0,L|190:102,1,138.000002632141,2|4,1:0|3:0,0:0:0:0:
468,152,189180,2,0,L|320:103,1,138.000002632141,8|4,1:0|3:0,0:0:0:0:
256,320,189609,2,0,L|256:179,1,138.000002632141,2|4,1:0|3:0,0:0:0:0:
340,40,190037,1,8,1:0:0:0:
172,40,190252,1,2,0:1:0:0:
104,144,190466,5,2,1:0:0:0:
256,320,190787,1,2,1:0:0:0:
408,144,191109,1,2,1:0:0:0:
140,280,191537,2,2,B|184:212|256:200|328:212|372:280,1,276.000005264282,2|4,1:0|0:0,0:1:0:0:
371,105,192609,5,10,1:0:0:0:
371,279,192823,1,0,1:0:0:0:
141,105,193037,1,8,1:0:0:0:
141,279,193251,1,0,1:0:0:0:
256,104,193466,1,10,1:0:0:0:
256,280,193894,6,2,B|340:328|456:276|448:160,1,276.000005264282,6|8,0:1|1:0,0:1:0:0:
324,172,194537,1,4,3:0:0:0:
256,356,194751,2,2,B|172:404|56:352|64:236,1,276.000005264282,2|8,0:1|1:0,0:1:0:0:
188,220,195394,1,4,3:0:0:0:
104,128,195608,5,4,1:3:0:0:
188,32,195822,1,0,0:0:0:0:
324,32,196037,1,10,1:0:0:0:
408,128,196251,1,4,3:0:0:0:
408,256,196466,1,2,0:1:0:0:
324,352,196680,1,4,3:0:0:0:
188,352,196894,1,10,1:0:0:0:
104,256,197108,1,4,0:3:0:0:
32,152,197323,6,2,B|112:88|168:148|232:216|296:164,1,276.000005264282,6|8,0:1|1:0,0:1:0:0:
388,96,197966,1,4,3:0:0:0:
476,260,198180,2,2,B|396:196|340:256|276:324|212:272,1,276.000005264282,2|8,0:1|1:0,0:1:0:0:
104,232,198823,1,4,3:0:0:0:
20,144,199037,5,0,1:0:0:0:
88,40,199251,2,0,B|168:40|168:40|212:80,1,138.000002632141,2|8,0:1|1:0,0:0:0:0:
424,40,199680,2,0,B|344:40|344:40|300:80,1,138.000002632141,2|4,0:1|0:3,0:0:0:0:
168,160,200109,1,2,0:1:0:0:
256,248,200323,1,8,1:0:0:0:
344,160,200537,1,2,1:0:0:0:
336,24,200751,6,2,B|428:68|484:192|428:316|336:360,1,414.000007896423,6|4,0:1|3:0,0:1:0:0:
176,360,201608,2,0,B|84:316|28:192|84:68|176:24,1,414.000007896423,10|4,0:1|3:0,0:1:0:0:
342,110,202466,6,0,L|473:152,1,138.000002632141,2|4,1:0|3:0,0:0:0:0:
256,188,202894,2,0,L|256:326,1,138.000002632141,8|4,1:0|3:0,0:0:0:0:
169,110,203323,2,0,L|38:152,1,138.000002632141,2|4,1:0|3:0,0:0:0:0:
172,212,203751,1,8,1:0:0:0:
340,212,203966,1,2,0:1:0:0:
408,108,204180,5,2,1:0:0:0:
256,284,204501,1,2,1:0:0:0:
104,108,204823,1,2,1:0:0:0:
372,232,205251,2,2,B|328:164|256:152|184:164|140:232,1,276.000005264282,2|4,1:0|0:0,0:1:0:0:
256,192,205787,12,4,207608,1:0:0:0:
76,192,208037,22,0,L|212:220,1,138.000002632141,8|0,1:0|0:0,0:0:0:0:
436,192,208466,2,0,L|300:220,1,138.000002632141,2|0,0:1|0:0,0:0:0:0:
76,192,208895,1,8,1:0:0:0:
76,192,209109,6,2,B|80:132|160:120|216:176|292:180|308:88,1,276.000005264282,2|0,1:0|0:0,0:1:0:0:
420,24,209752,2,0,B|378:48|368:107|401:145,1,138.000002632141,8|0,1:0|0:0,0:0:0:0:
412,280,210180,2,0,B|410:232|365:193|316:203,1,138.000002632141,2|0,1:0|0:0,0:0:0:0:
196,176,210609,1,8,1:0:0:0:
76,148,210823,1,2,0:1:0:0:
256,272,211466,6,0,B|112:320,1,138.000002632141,8|0,1:0|0:0,0:0:0:0:
256,184,211894,2,0,B|400:232,1,138.000002632141,2|0,0:1|0:0,0:0:0:0:
476,140,212323,1,8,1:0:0:0:
360,96,212537,6,2,B|336:24|256:-12|176:24|152:96,1,276.000005264282,2|0,1:0|0:0,0:1:0:0:
148,220,213180,2,0,P|149:280|198:336,1,138.000002632141,8|0,1:0|0:0,0:0:0:0:
313,336,213608,2,0,P|360:287|364:220,1,138.000002632141,2|0,0:1|0:0,0:0:0:0:
256,132,214037,1,8,1:1:0:0:
256,256,214252,1,4,3:0:0:0:
120,72,214895,6,0,B|196:72|196:72|240:132,1,138.000002632141,8|0,1:1|0:0,0:0:0:0:
392,112,215322,2,0,B|316:112|316:112|272:52,1,138.000002632141,2|0,1:1|0:0,0:0:0:0:
148,180,215752,1,8,1:0:0:0:
148,180,215966,6,2,P|256:252|364:180,1,276.000005264282,2|0,1:0|0:1,0:1:0:0:
484,144,216609,2,0,L|444:284,1,138.000002632141,8|0,1:0|0:0,0:0:0:0:
364,179,217037,2,0,L|324:315,1,138.000002632141,2|0,0:1|0:0,0:0:0:0:
256,208,217466,1,8,1:0:0:0:
220,328,217680,1,2,0:1:0:0:
124,248,217895,5,2,1:0:0:0:
256,116,218216,1,2,1:0:0:0:
388,248,218537,1,2,1:0:0:0:
168,132,218966,2,2,B|172:56|256:-4|340:56|344:132,1,276.000005264282,2|4,1:0|0:0,0:1:0:0:
220,256,219822,5,0,0:0:0:0:
292,256,220037,1,2,0:0:0:0:
324,192,220251,1,0,0:0:0:0:
292,128,220465,1,2,0:0:0:0:
220,128,220680,1,2,0:0:0:0:
188,192,220894,1,0,0:0:0:0:
