osu file format v14

[General]
AudioFilename: audio.mp3
AudioLeadIn: 0
PreviewTime: 178358
Countdown: 0
SampleSet: Soft
StackLeniency: 0.7
Mode: 0
LetterboxInBreaks: 0
WidescreenStoryboard: 1

[Editor]
DistanceSpacing: 0.9
BeatDivisor: 4
GridSize: 4
TimelineZoom: 1.7

[Metadata]
Title:How to Be a Heartbreaker
TitleUnicode:How to Be a Heartbreaker
Artist:Marina and the Diamonds
ArtistUnicode:Marina and the Diamonds
Creator:Krisom
Version:Hard
Source:
Tags:Electra Heart Pop English Lambrini Diamandis Electro Electro-Pop Μαρίνα Λαμπρινή Διαμαντή &
BeatmapID:3173886
BeatmapSetID:1553473

[Difficulty]
HPDrainRate:5.4
CircleSize:3.8
OverallDifficulty:6.9
ApproachRate:8
SliderMultiplier:2
SliderTickRate:2

[Events]
//Background and Video events
0,0,"Electra heart.jpg",0,0
//Break Periods
2,60180,61144
2,73879,74858
2,128751,129715
2,144180,157144
//Storyboard Layer 0 (Background)
//Storyboard Layer 1 (Fail)
//Storyboard Layer 2 (Pass)
//Storyboard Layer 3 (Foreground)
//Storyboard Layer 4 (Overlay)
//Storyboard Sound Samples

[TimingPoints]
180,428.571428571429,4,2,1,60,1,0
20751,-100,4,2,1,70,0,0
34465,-90.9090909090909,4,2,1,85,0,1
60180,-90.9090909090909,4,2,1,70,0,0
61894,-90.9090909090909,4,2,1,85,0,1
62001,-100,4,2,1,70,0,0
103037,-90.9090909090909,4,2,1,85,0,1
128751,-90.9090909090909,4,2,1,70,0,0
130465,-90.9090909090909,4,2,1,85,0,1
130572,-100,4,2,1,70,0,0
157894,-125,4,2,1,70,0,0
175037,-117.647058823529,4,2,1,70,0,0
176751,-105.263157894737,4,2,1,70,0,0
180180,-90.9090909090909,4,2,1,85,0,1
207501,-90.9090909090909,4,2,1,85,0,0
207608,-90.9090909090909,4,2,1,85,0,1
219608,-90.9090909090909,4,2,1,60,0,0

[Colours]
Combo1 : 255,201,36
Combo2 : 5,197,11
Combo3 : 17,88,255
Combo4 : 249,17,86

[HitObjects]
4,352,7037,6,0,B|204:352,1,200,8|8,0:0|0:1,0:0:0:0:
294,352,7680,1,0,0:0:0:0:
336,272,7894,2,0,L|136:272,1,200,8|8,0:0|0:1,0:0:0:0:
45,272,8537,1,0,0:0:0:0:
92,196,8751,5,8,0:0:0:0:
152,132,8965,1,2,0:0:0:0:
208,60,9180,2,0,P|256:44|304:60,1,100,8|2,0:1|0:0,0:0:0:0:
360,132,9608,1,8,0:0:0:0:
420,196,9823,1,2,0:0:0:0:
467,272,10037,1,8,0:1:0:0:
467,272,10465,6,0,P|400:344|312:320,1,200,8|8,0:0|0:1,0:0:0:0:
256,248,11108,1,0,0:0:0:0:
200,319,11322,2,0,P|108:342|45:272,1,200,8|8,0:0|0:1,0:0:0:0:
100,200,11965,1,0,0:0:0:0:
44,128,12180,5,8,0:0:0:0:
100,56,12394,2,0,L|4:24,2,100,2|8|2,0:0|0:1|0:0,0:0:0:0:
184,84,13037,1,8,0:0:0:0:
268,112,13251,2,0,B|324:88|364:120|408:156|464:120,1,200,2|2,0:0|0:0,0:0:0:0:
412,48,13894,6,0,P|372:136|432:208,1,200,8|8,0:0|0:1,0:0:0:0:
504,264,14537,1,0,0:0:0:0:
431,207,14751,2,0,P|343:167|271:227,1,200,8|8,0:0|0:1,0:0:0:0:
200,284,15394,1,0,0:0:0:0:
136,220,15608,5,8,0:0:0:0:
172,136,15822,1,2,0:0:0:0:
256,100,16037,1,8,0:1:0:0:
340,136,16251,1,2,0:0:0:0:
376,220,16465,1,8,0:0:0:0:
376,220,16894,1,8,0:1:0:0:
348,304,17108,6,0,B|320:324|300:268|292:292|280:268|268:324|256:328|244:324|232:268|220:292|212:268|192:324|164:304,1,200,2|0,0:0|0:0,0:0:0:0:
80,268,17751,1,8,0:0:0:0:
8,144,18180,1,2,0:0:0:0:
88,184,18394,1,0,0:0:0:0:
152,120,18608,1,8,0:0:0:0:
256,268,19037,5,2,0:0:0:0:
336,312,19251,1,0,0:0:0:0:
416,356,19465,2,0,P|460:304|392:208,1,200,8|0,0:0|0:0,0:0:0:0:
312,244,20108,2,0,B|392:208|392:208|356:148|400:96,1,200,2|0,0:0|0:0,0:0:0:0:
376,16,20751,6,0,P|340:48|276:36,1,100,12|0,0:0|0:0,0:0:0:0:
200,36,21180,1,8,1:2:0:0:
128,88,21394,1,0,0:0:0:0:
60,148,21608,2,0,P|96:180|160:168,1,100,10|0,0:0|0:0,0:0:0:0:
236,168,22037,1,8,1:2:0:0:
308,220,22251,1,0,0:0:0:0:
384,268,22465,5,8,0:0:0:0:
460,220,22680,1,2,0:0:0:0:
384,168,22894,1,8,1:2:0:0:
308,220,23108,1,2,0:0:0:0:
236,168,23322,1,8,0:0:0:0:
164,220,23537,2,0,B|80:220|80:220|12:220|0:288,1,200,2|2,0:0|0:0,0:0:0:0:
88,308,24180,6,0,B|204:308,1,100,8|0,0:0|0:0,0:0:0:0:
276,308,24608,1,8,1:2:0:0:
348,256,24822,1,0,0:0:0:0:
408,188,25037,2,0,B|292:188,1,100,8|0,0:0|0:0,0:0:0:0:
220,188,25465,1,8,1:2:0:0:
148,136,25679,1,0,0:0:0:0:
96,60,25894,5,8,0:0:0:0:
176,20,26108,1,2,0:0:0:0:
256,64,26322,1,8,1:2:0:0:
336,20,26537,1,2,0:0:0:0:
416,60,26751,1,8,0:0:0:0:
432,148,26965,2,0,B|392:132|344:184|344:184|288:152|248:184,1,200,2|2,0:0|0:0,0:0:0:0:
196,252,27608,6,0,P|168:216|232:92,1,200,8|8,0:0|1:2,0:0:0:0:
316,104,28251,1,0,0:0:0:0:
404,116,28465,2,0,P|432:152|368:276,1,200,8|8,0:0|1:2,0:0:0:0:
284,252,29108,1,0,0:0:0:0:
204,292,29322,5,8,0:0:0:0:
132,236,29537,1,2,0:0:0:0:
168,156,29751,2,0,L|112:68,1,100,8|2,1:2|0:0,0:0:0:0:
204,72,30180,1,8,0:0:0:0:
168,156,30394,2,0,P|232:208|348:184,1,200,2|0,0:0|0:0,0:0:0:0:
364,104,31037,6,0,B|472:140,2,100,0|0|8,0:0|0:0|0:0,0:0:0:0:
341,189,31680,1,0,0:0:0:0:
308,272,31894,2,0,B|200:308,2,100,0|0|8,0:0|0:0|0:0,0:0:0:0:
341,189,32537,1,0,0:0:0:0:
332,100,32751,5,8,1:2:0:0:
180,100,32965,1,0,1:0:0:0:
312,180,33180,1,8,1:2:0:0:
256,44,33394,1,0,1:0:0:0:
200,180,33608,1,8,1:2:0:0:
332,100,33822,1,0,1:0:0:0:
180,100,34037,1,8,1:2:0:0:
180,100,34465,6,2,P|88:160|110:260,1,220.000006713867,6|8,0:1|1:0,0:1:0:0:
196,300,35108,1,4,3:0:0:0:
200,200,35322,2,2,B|244:163|301:173|305:205|362:215|406:178,1,220.000006713867,2|8,0:1|1:0,0:1:0:0:
348,100,35965,1,4,3:0:0:0:
256,64,36180,6,0,L|136:104,1,110.000003356934,0|0,1:0|0:0,0:0:0:0:
56,128,36608,1,10,1:0:0:0:
84,224,36822,1,4,3:0:0:0:
179,194,37037,1,2,0:1:0:0:
208,288,37251,1,4,3:0:0:0:
303,258,37465,2,0,L|408:224,1,110.000003356934,10|4,1:0|3:0,0:0:0:0:
500,184,37894,6,2,P|408:120|320:168,1,220.000006713867,6|8,0:1|1:0,0:1:0:0:
256,240,38537,1,4,3:0:0:0:
188,312,38751,2,2,B|211:239|211:239|241:148|164:111,1,220.000006713867,2|8,0:1|1:0,0:1:0:0:
84,72,39394,1,4,3:0:0:0:
88,172,39608,5,0,1:0:0:0:
172,114,39822,2,0,B|276:164,1,110.000003356934,2|8,0:1|1:0,0:0:0:0:
256,64,40251,2,0,B|355:16,1,110.000003356934,2|4,0:1|1:3,0:0:0:0:
344,116,40680,2,0,B|443:163,2,110.000003356934,2|8|2,0:1|1:0|0:1,0:0:0:0:
280,192,41322,6,2,B|264:236|232:276|168:236|152:232|156:200|136:176|100:148|12:176|24:240,1,330.000010070801,6|4,0:1|3:0,0:1:0:0:
96,304,42180,2,0,L|200:100,1,220.000006713867,2|8,1:0|1:0,0:0:0:0:
256,28,42822,1,4,3:0:0:0:
316,106,43037,6,2,B|364:200|364:200|396:258|380:342|314:356|264:330,1,330.000010070801,6|4,0:1|0:3,0:1:0:0:
267,231,43894,2,0,B|317:186|370:206|428:229|474:172,1,220.000006713867,2|8,1:0|1:0,0:0:0:0:
435,84,44537,1,2,0:0:0:0:
340,52,44751,5,2,1:0:0:0:
256,172,45072,1,2,1:0:0:0:
172,52,45394,1,2,1:0:0:0:
164,248,45822,2,2,B|208:304|256:316|304:304|348:248,1,220.000006713867,2|4,1:0|0:0,0:1:0:0:
256,40,46894,5,10,1:0:0:0:
200,188,47108,1,0,1:0:0:0:
336,100,47322,1,8,1:0:0:0:
176,100,47536,1,0,1:0:0:0:
312,188,47751,1,10,1:0:0:0:
312,188,48180,6,2,P|420:200|476:112,1,220.000006713867,6|8,0:1|1:0,0:1:0:0:
376,108,48822,1,4,3:0:0:0:
312,188,49037,2,2,P|248:276|144:264,1,220.000006713867,2|8,0:1|1:0,0:1:0:0:
72,200,49680,1,4,3:0:0:0:
64,100,49894,6,0,L|184:140,1,110.000003356934,0|0,1:0|0:0,0:0:0:0:
244,200,50322,1,10,1:0:0:0:
332,160,50536,1,4,3:0:0:0:
316,64,50751,1,2,0:1:0:0:
220,48,50965,1,4,3:0:0:0:
168,134,51180,2,0,L|128:254,1,110.000003356934,2|0,1:0|0:0,0:0:0:0:
80,324,51608,6,2,B|112:344|164:348|180:328|204:300|264:308|300:340,1,220.000006713867,6|8,0:1|1:0,0:1:0:0:
384,364,52251,1,4,3:0:0:0:
400,268,52465,2,2,P|304:212|196:208,1,220.000006713867,2|8,0:1|1:0,0:1:0:0:
100,232,53108,1,4,3:0:0:0:
76,136,53322,5,0,1:0:0:0:
168,104,53536,2,0,B|218:0,1,110.000003356934,2|8,0:1|1:0,0:0:0:0:
268,88,53965,2,0,B|316:187,1,110.000003356934,2|4,0:1|1:3,0:0:0:0:
368,104,54394,2,0,B|415:5,2,110.000003356934,2|8|2,0:1|1:0|0:1,0:0:0:0:
368,208,55037,6,2,B|360:304|256:344|152:304|144:208,1,330.000010070801,6|4,0:1|3:0,0:1:0:0:
146,108,55894,2,0,L|370:108,1,220.000006713867,2|8,1:0|1:0,0:0:0:0:
464,104,56536,1,4,3:0:0:0:
421,193,56751,6,2,B|89:193,1,330.000010070801,6|4,0:1|0:3,0:1:0:0:
152,272,57608,2,0,P|256:304|360:272,1,220.000006713867,2|8,1:0|1:0,0:0:0:0:
420,192,58251,1,2,0:0:0:0:
404,96,58465,5,2,1:0:0:0:
256,96,58786,1,2,1:0:0:0:
108,96,59108,1,2,1:0:0:0:
164,284,59536,2,2,B|208:340|256:352|304:340|348:284,1,220.000006713867,2|4,1:0|0:0,0:1:0:0:
347,284,61894,21,4,1:0:0:0:
347,284,62322,2,0,P|324:252|320:160,1,100,8|0,1:0|0:0,0:0:0:0:
400,208,62751,2,0,P|423:240|427:332,1,100,2|0,0:1|0:0,0:0:0:0:
368,360,63180,1,8,1:0:0:0:
280,344,63394,6,2,P|168:360|116:284,1,200,2|0,1:0|0:0,0:1:0:0:
52,240,64037,2,0,B|156:216,1,100,8|0,1:0|0:0,0:0:0:0:
128,128,64465,2,0,B|27:151,1,100,2|0,0:1|0:0,0:0:0:0:
64,64,64894,1,8,1:0:0:0:
64,64,65108,1,2,0:1:0:0:
268,244,65751,6,0,B|312:244|312:244|368:280,1,100,8|0,1:0|0:0,0:0:0:0:
447,214,66180,2,0,B|403:214|403:214|356:184,1,100,2|0,0:1|0:0,0:0:0:0:
284,132,66608,1,8,1:0:0:0:
212,76,66822,6,2,B|168:56|136:84|136:120|136:144|84:184|44:152,1,200,2|0,1:0|0:0,0:1:0:0:
68,248,67465,2,0,P|112:248|168:208,1,100,8|0,1:0|0:0,0:0:0:0:
184,308,67894,2,0,P|142:334|93:336,1,100,2|0,0:1|0:0,0:0:0:0:
12,316,68322,1,8,1:1:0:0:
12,316,68537,1,4,3:0:0:0:
64,52,69180,6,0,L|168:96,1,100,8|0,1:1|0:0,0:0:0:0:
148,180,69608,2,0,L|40:132,1,100,2|0,0:1|0:0,0:0:0:0:
68,228,70037,1,8,1:0:0:0:
148,180,70251,6,2,B|272:212|316:96,1,200,2|0,1:0|0:1,0:1:0:0:
396,68,70894,2,0,L|424:168,1,100,8|0,1:0|0:0,0:0:0:0:
348,212,71322,2,0,L|316:324,1,100,2|0,0:1|0:0,0:0:0:0:
232,292,71751,1,8,1:0:0:0:
144,272,71965,1,2,0:1:0:0:
124,184,72180,5,2,1:0:0:0:
256,160,72501,1,2,1:0:0:0:
388,136,72822,1,2,1:0:0:0:
348,312,73251,2,2,B|304:280|256:316|256:316|208:280|164:312,1,200,2|4,1:0|0:0,0:1:0:0:
480,336,75608,22,0,P|384:360|288:336,1,200,8|8,0:0|0:1,0:0:0:0:
287,245,76251,1,0,0:0:0:0:
287,155,76465,2,0,P|191:179|95:155,1,200,8|8,0:0|0:1,0:0:0:0:
20,104,77108,1,0,0:0:0:0:
96,60,77322,5,8,0:0:0:0:
176,100,77536,1,2,0:0:0:0:
208,16,77751,2,0,P|256:0|304:16,1,100,8|2,0:1|0:0,0:0:0:0:
336,100,78179,1,8,0:0:0:0:
416,60,78394,1,2,0:0:0:0:
416,60,78822,1,2,0:0:0:0:
489,105,79036,6,0,B|448:124|432:168|460:188|492:224|480:264|453:280,1,200,8|8,0:0|0:1,0:0:0:0:
364,292,79679,1,0,0:0:0:0:
276,308,79893,2,0,L|72:336,1,200,8|8,0:0|0:1,0:0:0:0:
60,248,80536,1,0,0:0:0:0:
48,160,80751,5,8,0:0:0:0:
104,88,80965,2,0,P|132:128|136:184,2,100,2|8|2,0:0|0:1|0:0,0:0:0:0:
48,160,81608,1,8,0:0:0:0:
60,248,81822,2,0,P|152:280|228:216,1,200,2|2,0:0|0:0,0:0:0:0:
256,136,82465,6,0,B|268:68|336:68|336:68|420:68,1,200,8|8,0:0|0:1,0:0:0:0:
400,156,83108,1,0,0:0:0:0:
368,240,83322,2,0,B|356:308|288:308|288:308|204:308,1,200,8|8,0:0|0:1,0:0:0:0:
140,244,83965,1,0,0:0:0:0:
60,204,84179,5,8,0:0:0:0:
72,116,84393,1,2,0:0:0:0:
160,96,84608,1,8,0:1:0:0:
204,176,84822,1,2,0:0:0:0:
140,244,85036,1,8,0:0:0:0:
140,244,85465,1,8,0:1:0:0:
164,332,85679,6,0,B|192:352|212:296|220:320|232:296|244:352|256:356|268:352|280:296|292:320|300:296|320:352|348:332,1,200,2|0,0:0|0:0,0:0:0:0:
416,272,86322,1,8,0:0:0:0:
496,144,86751,1,2,0:0:0:0:
432,80,86965,1,0,0:0:0:0:
412,168,87179,1,8,0:0:0:0:
264,268,87608,5,2,0:0:0:0:
204,336,87822,1,0,0:0:0:0:
116,328,88036,2,0,B|100:252|100:252|84:176|148:144,1,200,8|0,0:0|0:0,0:0:0:0:
228,124,88680,1,2,0:0:0:0:
228,124,89108,1,2,0:0:0:0:
268,140,89215,1,0,1:0:0:0:
312,156,89322,6,0,P|348:188|412:176,1,100,12|0,0:0|0:0,0:0:0:0:
468,128,89751,1,8,1:2:0:0:
488,216,89965,1,0,0:0:0:0:
504,304,90179,2,0,P|468:336|404:324,1,100,10|0,0:0|0:0,0:0:0:0:
352,272,90608,1,8,1:2:0:0:
324,356,90822,1,0,0:0:0:0:
260,292,91036,5,8,0:0:0:0:
284,204,91251,1,2,0:0:0:0:
212,148,91465,1,8,1:2:0:0:
136,100,91679,1,2,0:0:0:0:
160,12,91893,1,8,0:0:0:0:
232,64,92108,2,0,P|208:156|116:192,1,200,2|2,0:0|0:0,0:0:0:0:
52,256,92751,6,0,B|152:292,1,100,8|0,0:0|0:0,0:0:0:0:
204,360,93179,1,8,1:2:0:0:
232,276,93393,1,0,0:0:0:0:
300,336,93608,2,0,B|400:300,1,100,8|0,0:0|0:0,0:0:0:0:
484,316,94036,1,8,1:2:0:0:
452,232,94250,1,0,0:2:0:0:
424,148,94465,5,8,0:0:0:0:
396,64,94679,1,2,0:0:0:0:
312,28,94893,1,8,1:2:0:0:
256,100,95108,1,2,0:0:0:0:
200,28,95322,2,0,B|148:28|148:28|116:64,1,100,8|2,0:0|0:0,0:0:0:0:
88,148,95751,1,8,1:2:0:0:
124,232,95965,6,0,B|168:264|240:240|256:192|272:144|344:120|385:150,1,300,2|8,0:0|1:2,0:0:0:0:
432,228,96822,1,0,0:0:0:0:
344,220,97037,2,0,B|314:241|266:225|256:193|245:161|197:145|169:165,1,200,8|8,0:0|1:2,0:0:0:0:
80,156,97679,1,0,0:0:0:0:
84,244,97893,5,8,0:0:0:0:
172,264,98108,1,2,0:0:0:0:
260,280,98322,2,0,P|312:280|356:256,1,100,8|2,1:2|0:0,0:0:0:0:
292,192,98751,1,8,0:0:0:0:
204,172,98965,2,0,P|264:112|368:144,1,200,2|0,0:0|0:0,0:0:0:0:
412,220,99608,6,0,B|376:328,2,100,0|0|8,0:0|0:0|0:0,0:0:0:0:
365,140,100251,1,0,0:0:0:0:
296,196,100465,2,0,B|260:304,2,100,0|0|8,0:0|0:0|0:0,0:0:0:0:
244,124,101108,1,0,0:0:0:0:
180,60,101322,5,8,1:2:0:0:
332,60,101536,1,0,1:0:0:0:
200,140,101751,1,8,1:2:0:0:
256,4,101965,1,0,1:0:0:0:
312,140,102179,1,8,1:2:0:0:
180,60,102393,1,0,1:0:0:0:
332,60,102608,1,8,1:2:0:0:
332,60,103037,6,2,P|424:120|400:224,1,220.000006713867,6|8,0:1|1:0,0:1:0:0:
328,160,103679,1,4,3:0:0:0:
316,260,103893,2,2,B|272:297|215:287|211:255|154:245|110:282,1,220.000006713867,2|8,0:1|1:0,0:1:0:0:
168,364,104536,1,4,3:0:0:0:
109,282,104751,6,0,L|69:162,1,110.000003356934,0|0,1:0|0:0,0:0:0:0:
112,84,105179,1,10,1:0:0:0:
208,112,105393,1,4,3:0:0:0:
178,207,105608,1,2,0:1:0:0:
272,240,105822,1,4,3:0:0:0:
304,148,106036,2,0,L|409:114,1,110.000003356934,10|4,1:0|3:0,0:0:0:0:
444,20,106465,6,2,P|508:112|460:200,1,220.000006713867,6|8,0:1|1:0,0:1:0:0:
368,220,107108,1,4,3:0:0:0:
272,240,107322,2,2,B|40:212|40:212,1,220.000006713867,2|8,0:1|1:0,0:1:0:0:
8,304,107965,1,4,3:0:0:0:
84,364,108179,5,0,1:0:0:0:
164,308,108393,2,0,B|268:358,1,110.000003356934,2|8,0:1|1:0,0:0:0:0:
308,268,108822,2,0,B|407:220,1,110.000003356934,2|4,0:1|1:3,0:0:0:0:
400,120,109251,2,0,B|499:167,2,110.000003356934,2|8|2,0:1|1:0|0:1,0:0:0:0:
308,80,109894,6,2,P|156:132|160:280,1,330.000010070801,6|4,0:1|3:0,0:1:0:0:
60,284,110751,2,0,P|128:188|220:200,1,220.000006713867,2|8,1:0|1:0,0:0:0:0:
204,80,111393,1,4,3:0:0:0:
204,80,111608,6,2,P|356:132|352:280,1,330.000010070801,6|4,0:1|3:0,0:1:0:0:
452,284,112465,2,0,P|384:188|292:200,1,220.000006713867,2|8,1:0|1:0,0:0:0:0:
200,232,113108,1,2,0:0:0:0:
132,160,113322,5,2,1:0:0:0:
256,80,113643,1,2,1:0:0:0:
380,160,113965,1,2,1:0:0:0:
360,356,114394,2,2,B|311:324|256:341|256:373|201:390|152:359,1,220.000006713867,2|4,1:1|0:0,0:1:0:0:
256,40,115465,5,10,1:0:0:0:
312,188,115679,1,0,1:0:0:0:
176,100,115893,1,8,1:0:0:0:
336,100,116107,1,0,1:0:0:0:
200,188,116322,1,10,1:0:0:0:
200,188,116751,6,2,P|92:200|56:296,1,220.000006713867,6|8,0:1|1:0,0:1:0:0:
156,296,117393,1,4,3:0:0:0:
200,188,117608,2,2,P|300:192|360:96,1,220.000006713867,2|8,0:1|1:0,0:1:0:0:
296,24,118251,1,4,3:0:0:0:
200,52,118465,6,0,L|80:92,1,110.000003356934,0|0,1:0|0:0,0:0:0:0:
44,168,118893,1,10,1:0:0:0:
132,216,119107,1,4,3:0:0:0:
212,156,119322,1,2,0:1:0:0:
284,88,119536,1,4,3:0:0:0:
376,128,119751,2,0,L|480:172,1,110.000003356934,10|0,1:0|0:0,0:0:0:0:
472,268,120179,6,2,B|403:238|403:238|323:202|263:250,1,220.000006713867,6|8,0:1|1:0,0:1:0:0:
188,308,120822,1,4,3:0:0:0:
92,324,121036,2,2,P|180:252|152:164,1,220.000006713867,2|8,0:1|1:0,0:1:0:0:
72,104,121679,1,4,3:0:0:0:
164,64,121893,5,0,1:0:0:0:
256,28,122107,2,0,B|306:132,1,110.000003356934,2|8,0:1|1:0,0:0:0:0:
356,212,122536,2,0,B|417:120,1,110.000003356934,2|4,0:1|1:3,0:0:0:0:
472,40,122965,2,0,B|362:31,2,110.000003356934,2|8|2,0:1|1:0|0:1,0:0:0:0:
480,140,123608,6,2,B|472:236|368:276|264:236|256:140,1,330.000010070801,6|4,0:1|3:0,0:1:0:0:
352,112,124465,2,0,B|256:59|256:59|160:112,1,220.000006713867,2|8,1:0|1:0,0:0:0:0:
32,140,125107,1,4,3:0:0:0:
32,140,125322,6,2,B|40:236|144:276|248:236|256:140,1,330.000010070801,6|4,0:1|3:0,0:1:0:0:
160,112,126179,2,0,B|256:59|256:59|352:112,1,220.000006713867,2|8,1:0|1:0,0:0:0:0:
440,156,126822,1,2,0:0:0:0:
404,248,127036,5,2,1:0:0:0:
256,248,127357,1,2,1:0:0:0:
108,248,127679,1,2,1:0:0:0:
152,56,128108,2,2,B|201:24|256:41|256:73|311:90|360:59,1,220.000006713867,2|4,1:1|0:0,0:1:0:0:
360,58,130465,21,4,1:0:0:0:
360,58,130893,2,0,P|328:81|236:85,1,100,8|0,1:0|0:0,0:0:0:0:
196,148,131322,2,0,P|228:171|320:175,1,100,2|0,0:1|0:0,0:0:0:0:
348,248,131751,1,8,1:0:0:0:
436,244,131965,6,2,P|375:165|287:181,1,200,2|0,1:0|0:0,0:1:0:0:
252,264,132608,2,0,B|148:240,1,100,8|0,1:0|0:0,0:0:0:0:
180,156,133036,2,0,B|79:179,1,100,2|0,0:1|0:0,0:0:0:0:
24,116,133465,1,8,1:0:0:0:
24,116,133679,1,2,0:1:0:0:
152,352,134322,6,0,B|196:352|196:352|252:316,1,100,8|0,1:0|0:0,0:0:0:0:
176,264,134751,2,0,B|132:264|132:264|85:294,1,100,2|0,0:1|0:0,0:0:0:0:
152,352,135179,1,8,1:0:0:0:
176,264,135393,6,2,P|232:188|328:208,1,200,2|0,1:0|0:0,0:1:0:0:
356,292,136036,2,0,P|312:292|256:252,1,100,8|0,1:0|0:0,0:0:0:0:
240,352,136465,2,0,P|282:378|331:380,1,100,2|0,0:1|0:0,0:0:0:0:
420,356,136893,1,8,1:1:0:0:
420,356,137108,1,4,3:0:0:0:
348,96,137751,6,0,L|255:134,1,100,8|0,1:1|0:0,0:0:0:0:
163,93,138179,2,0,L|255:134,1,100,2|0,0:1|0:0,0:0:0:0:
256,224,138608,1,8,1:0:0:0:
328,280,138822,6,2,B|320:336|256:356|192:336|184:280,1,200,2|0,1:0|0:1,0:1:0:0:
180,192,139465,2,0,L|208:92,1,100,8|0,1:0|0:0,0:0:0:0:
306,95,139893,2,0,L|338:207,1,100,2|0,0:1|0:0,0:0:0:0:
408,244,140322,1,8,1:0:0:0:
464,172,140536,1,2,0:1:0:0:
388,120,140751,5,2,1:0:0:0:
256,96,141072,1,2,1:0:0:0:
124,72,141393,1,2,1:0:0:0:
164,248,141822,2,2,B|208:216|256:252|256:252|304:216|348:248,1,200,2|4,1:0|0:0,0:1:0:0:
120,328,157894,6,0,L|40:348,2,80,0|0|0,3:0|0:0|0:0,0:0:0:0:
120,328,158751,2,0,P|96:282|158:201,1,160,8|0,0:0|0:0,0:0:0:0:
293,172,159608,5,0,0:0:0:0:
293,172,159822,1,0,0:0:0:0:
293,172,160037,1,0,0:0:0:0:
425,116,160465,2,0,P|401:62|299:39,1,160,8|0,0:0|0:0,0:0:0:0:
269,95,161108,6,0,B|218:116|193:89|166:67|106:101,1,160,2|0,0:0|0:0,0:0:0:0:
60,144,161751,1,0,0:0:0:0:
112,278,162180,2,0,L|285:245,1,160,8|0,0:0|0:0,0:0:0:0:
338,227,162822,1,0,0:0:0:0:
321,297,163037,6,0,L|197:176,1,160,0|0,3:0|0:0,0:0:0:0:
148,142,163680,2,0,P|197:181|302:140,2,160,2|0|0,0:0|0:0|0:0,0:0:0:0:
130,73,164751,6,0,L|210:53,2,80,0|0|0,3:0|0:0|0:0,0:0:0:0:
239,179,165608,2,0,P|263:133|201:52,1,160,8|0,0:0|0:0,0:0:0:0:
106,244,166465,6,0,B|128:191|198:165|239:179,1,160,0|0,3:0|0:0,0:0:0:0:
371,258,167322,2,0,B|349:311|279:337|238:323,1,160,8|0,0:0|0:0,0:0:0:0:
175,359,167965,6,0,B|144:315|171:286|207:251|174:206,1,160,2|0,0:0|0:0,0:0:0:0:
131,150,168608,1,0,0:0:0:0:
82,285,169037,2,0,L|238:323,1,160,8|0,0:0|0:0,0:0:0:0:
304,296,169679,1,0,0:0:0:0:
355,245,169894,6,0,P|270:249|215:189,1,160,0|0,3:0|0:0,0:0:0:0:
241,131,170537,2,0,P|326:127|381:187,2,160,0|0|2,3:0|0:0|0:3,0:0:0:0:
96,328,173322,5,0,0:0:0:0:
164,300,173537,1,2,0:0:0:0:
312,224,173965,1,2,0:0:0:0:
256,268,174180,1,0,0:0:0:0:
200,224,174394,1,2,0:0:0:0:
348,300,174822,5,2,0:0:0:0:
416,328,175037,1,0,0:0:0:0:
408,252,175251,1,2,0:0:0:0:
332,120,175680,1,0,0:0:0:0:
256,128,175894,1,2,0:0:0:0:
180,136,176108,1,2,0:0:0:0:
104,252,176537,5,0,0:0:0:0:
76,172,176751,1,2,3:2:0:0:
48,92,176965,1,2,0:0:0:0:
228,112,177394,1,0,0:0:0:0:
256,192,177608,1,2,3:2:0:0:
284,272,177822,1,2,0:0:0:0:
452,244,178251,1,0,0:0:0:0:
380,192,178465,21,2,3:2:0:0:
320,92,178680,1,2,3:2:0:0:
192,92,178894,1,2,3:2:0:0:
132,192,179108,1,2,3:2:0:0:
184,292,179322,1,2,3:2:0:0:
256,192,179537,1,2,3:2:0:0:
328,292,179751,1,2,3:2:0:0:
328,292,180180,6,2,P|420:232|396:128,1,220.000006713867,6|8,0:1|1:0,0:1:0:0:
312,96,180822,1,4,3:0:0:0:
256,180,181037,2,2,P|164:240|188:344,1,220.000006713867,2|8,0:1|1:0,0:1:0:0:
272,372,181679,1,4,3:0:0:0:
360,328,181894,6,0,L|248:276,1,110.000003356934,0|0,1:0|0:0,0:0:0:0:
168,248,182322,1,10,1:0:0:0:
192,152,182536,1,4,3:0:0:0:
220,60,182751,1,2,0:1:0:0:
314,93,182965,1,4,3:0:0:0:
288,188,183179,2,0,L|392:140,1,110.000003356934,10|4,1:0|3:0,0:0:0:0:
424,48,183608,6,2,P|488:140|440:228,1,220.000006713867,6|8,0:1|1:0,0:1:0:0:
400,316,184251,1,4,3:0:0:0:
366,223,184465,2,2,B|146:223,1,220.000006713867,2|8,0:1|1:0,0:1:0:0:
112,316,185108,1,4,3:0:0:0:
56,232,185322,5,0,1:0:0:0:
80,132,185536,2,0,B|196:132,1,110.000003356934,2|8,0:1|1:0,0:0:0:0:
308,60,185965,2,0,B|196:60,1,110.000003356934,2|4,0:1|1:3,0:0:0:0:
314,132,186394,2,0,B|424:132,2,110.000003356934,2|8|2,0:1|1:0|0:1,0:0:0:0:
256,68,187037,6,2,B|200:76|176:160|216:228|296:156|336:224|312:308|256:316,1,330.000010070801,6|4,0:1|3:0,0:1:0:0:
192,240,187894,2,0,P|256:192|384:232,1,220.000006713867,2|8,1:0|1:0,0:0:0:0:
448,156,188536,1,4,3:0:0:0:
380,84,188751,6,2,B|372:28|288:4|220:44|292:124|224:164|140:140|132:84,1,330.000010070801,6|4,0:1|3:0,0:1:0:0:
208,20,189608,2,0,P|256:84|216:212,1,220.000006713867,2|8,1:0|1:0,0:0:0:0:
144,272,190251,1,2,0:0:0:0:
132,172,190465,5,2,1:0:0:0:
256,272,190786,1,2,1:0:0:0:
380,172,191108,1,2,1:0:0:0:
360,368,191537,2,2,B|311:336|256:353|256:385|201:402|152:371,1,220.000006713867,2|4,1:1|0:0,0:1:0:0:
88,80,192608,5,10,1:0:0:0:
176,220,192822,1,0,1:0:0:0:
256,76,193036,1,8,1:0:0:0:
336,220,193250,1,0,1:0:0:0:
424,80,193465,1,10,1:0:0:0:
424,80,193894,6,2,L|352:296,1,220.000006713867,6|8,0:1|1:0,0:1:0:0:
256,324,194536,1,4,3:0:0:0:
158,288,194751,2,2,L|88:80,1,220.000006713867,2|8,0:1|1:0,0:1:0:0:
168,24,195394,1,4,3:0:0:0:
184,120,195608,6,0,B|220:136|268:116|280:80,1,110.000003356934,0|0,1:0|0:0,0:0:0:0:
368,44,196036,1,10,1:0:0:0:
436,116,196250,1,4,3:0:0:0:
380,200,196465,1,2,0:1:0:0:
284,172,196679,1,4,3:0:0:0:
277,85,196894,2,0,B|267:115|219:135|183:119,1,110.000003356934,8|2,1:0|0:1,0:0:0:0:
204,24,197322,6,2,B|232:248,1,220.000006713867,6|8,0:1|1:0,0:1:0:0:
248,340,197965,1,4,3:0:0:0:
152,328,198179,2,2,P|220:244|320:276,1,220.000006713867,2|8,0:1|1:0,0:1:0:0:
380,348,198822,1,4,3:0:0:0:
424,260,199036,5,0,1:0:0:0:
376,176,199250,2,0,B|326:72,1,110.000003356934,2|8,0:1|1:0,0:0:0:0:
256,148,199680,2,0,B|206:44,1,110.000003356934,2|4,0:1|0:3,0:0:0:0:
140,120,200108,2,0,B|92:20,2,110.000003356934,2|8|2,0:1|1:0|0:1,0:0:0:0:
52,168,200751,6,2,P|128:296|288:260,1,330.000010070801,6|4,0:1|3:0,0:1:0:0:
224,184,201608,2,0,B|274:139|327:159|385:182|431:125,1,220.000006713867,2|8,1:0|1:0,0:0:0:0:
476,40,202250,1,4,3:0:0:0:
476,40,202465,6,2,B|412:8|344:32|324:84|316:136|320:172|268:196|224:184,1,330.000010070801,6|4,0:1|3:0,0:1:0:0:
236,84,203322,2,0,P|340:92|384:200,1,220.000006713867,2|8,1:0|1:0,0:0:0:0:
392,288,203965,1,2,0:0:0:0:
332,364,204179,5,2,1:0:0:0:
256,236,204500,1,2,1:0:0:0:
180,108,204822,1,2,1:0:0:0:
152,304,205251,2,2,P|256:336|360:304,1,220.000006713867,2|4,1:1|0:0,0:1:0:0:
256,192,205894,12,4,207608,0:1:0:0:
200,80,208037,22,0,P|168:103|100:98,1,110.000003356934,8|0,1:0|0:0,0:0:0:0:
120,196,208466,2,0,L|228:175,1,110.000003356934,2|0,0:1|0:0,0:0:0:0:
192,268,208895,1,8,1:0:0:0:
192,268,209109,6,2,B|256:288|292:244|328:196|400:224,1,220.000006713867,2|0,1:0|0:0,0:1:0:0:
484,272,209752,2,0,B|460:160,1,110.000003356934,8|0,1:0|0:0,0:0:0:0:
364,140,210180,2,0,B|388:32,1,110.000003356934,2|0,0:1|0:0,0:0:0:0:
292,24,210609,1,8,1:0:0:0:
292,24,210823,1,2,0:1:0:0:
144,292,211466,6,0,B|84:292|84:292|44:256,1,110.000003356934,8|0,1:0|0:0,0:0:0:0:
88,168,211895,2,0,B|140:168|140:168|184:208,1,110.000003356934,2|0,0:1|0:0,0:0:0:0:
244,284,212323,1,8,1:0:0:0:
244,284,212537,6,2,P|332:312|424:228,1,220.000006713867,2|0,1:0|0:0,0:1:0:0:
440,140,213180,2,0,L|332:184,1,110.000003356934,8|0,1:0|0:0,0:0:0:0:
280,100,213609,2,0,L|168:64,1,110.000003356934,2|0,0:1|0:0,0:0:0:0:
124,152,214037,1,8,1:1:0:0:
124,152,214252,1,4,3:0:0:0:
124,152,214895,6,0,L|216:216,1,110.000003356934,8|0,1:1|0:0,0:0:0:0:
388,152,215323,2,0,L|296:216,1,110.000003356934,2|0,0:1|0:0,0:0:0:0:
252,128,215752,1,8,1:0:0:0:
216,216,215966,6,2,B|184:280|256:352|328:280|296:216,1,220.000006713867,2|0,1:0|0:1,0:1:0:0:
396,208,216609,2,0,P|368:164|368:108,1,110.000003356934,8|0,1:0|0:0,0:0:0:0:
464,84,217037,2,0,P|496:128|496:196,1,110.000003356934,2|0,0:1|0:0,0:0:0:0:
472,276,217466,1,8,1:0:0:0:
472,276,217680,1,2,0:1:0:0:
396,208,217895,5,2,1:0:0:0:
256,184,218216,1,2,1:0:0:0:
116,160,218537,1,2,1:0:0:0:
152,356,218966,2,2,B|208:320|256:356|256:356|304:320|360:356,1,220.000006713867,2|4,1:0|0:0,0:1:0:0:
360,244,219822,5,0,0:0:0:0:
324,204,220037,1,2,0:0:0:0:
272,184,220251,1,0,0:0:0:0:
216,184,220465,1,2,0:0:0:0:
164,160,220680,1,2,0:0:0:0:
136,112,220894,1,0,0:0:0:0:
