osu file format v14

[General]
AudioFilename: audio.mp3
AudioLeadIn: 0
PreviewTime: 178358
Countdown: 0
SampleSet: Soft
StackLeniency: 0.7
Mode: 0
LetterboxInBreaks: 0
WidescreenStoryboard: 1

[Editor]
DistanceSpacing: 1
BeatDivisor: 2
GridSize: 4
TimelineZoom: 1.7

[Metadata]
Title:How to Be a Heartbreaker
TitleUnicode:How to Be a Heartbreaker
Artist:Marina and the Diamonds
ArtistUnicode:Marina and the Diamonds
Creator:Krisom
Version:Easy
Source:
Tags:Electra Heart Pop English Lambrini Diamandis Electro Electro-Pop Μαρίνα Λαμπρινή Διαμαντή &
BeatmapID:3173885
BeatmapSetID:1553473

[Difficulty]
HPDrainRate:2.7
CircleSize:2.5
OverallDifficulty:3.3
ApproachRate:3.9
SliderMultiplier:1.3
SliderTickRate:2

[Events]
//Background and Video events
0,0,"Electra heart.jpg",0,0
//Break Periods
2,62094,74277
2,130665,139420
//Storyboard Layer 0 (Background)
//Storyboard Layer 1 (Fail)
//Storyboard Layer 2 (Pass)
//Storyboard Layer 3 (Foreground)
//Storyboard Layer 4 (Overlay)
//Storyboard Sound Samples

[TimingPoints]
180,428.571428571429,4,2,1,60,1,0
20751,-100,4,2,1,70,0,0
34465,-100,4,2,1,85,0,1
60180,-100,4,2,1,70,0,0
61894,-100,4,2,1,85,0,1
62001,-100,4,2,1,70,0,0
103037,-100,4,2,1,85,0,1
128751,-100,4,2,1,70,0,0
130465,-100,4,2,1,85,0,1
130572,-100,4,2,1,70,0,0
145894,-125,4,2,1,70,0,0
157894,-100,4,2,1,70,0,0
175037,-100,4,2,1,70,0,0
176751,-100,4,2,1,70,0,0
180180,-100,4,2,1,85,0,1
207501,-100,4,2,1,85,0,0
207608,-100,4,2,1,85,0,1
219608,-100,4,2,1,60,0,0

[Colours]
Combo1 : 255,201,36
Combo2 : 5,197,11
Combo3 : 17,88,255
Combo4 : 249,17,86

[HitObjects]
32,104,7037,6,0,P|84:140|152:144,1,130,8|8,0:0|0:1,0:0:0:0:
256,68,7894,1,8,0:0:0:0:
480,204,8751,2,0,P|428:240|360:244,1,130,8|8,0:0|0:1,0:0:0:0:
256,168,9608,1,8,0:0:0:0:
150,244,10037,1,8,0:1:0:0:
80,136,10465,6,0,L|204:68,1,130,8|8,0:0|0:1,0:0:0:0:
308,12,11322,1,8,0:0:0:0:
424,244,12180,2,0,L|300:176,1,130,8|8,0:0|0:1,0:0:0:0:
196,120,13037,1,8,0:0:0:0:
76,172,13465,1,8,0:1:0:0:
140,284,13894,6,0,P|256:334|372:284,2,260,8|8|8,0:0|0:0|0:0,0:0:0:0:
128,156,16037,1,8,0:1:0:0:
256,128,16465,1,8,0:0:0:0:
384,100,16894,1,8,0:1:0:0:
384,228,17322,6,0,P|412:280|392:344,2,130,8|8|8,0:0|0:1|0:0,0:0:0:0:
128,228,19037,2,0,P|100:280|120:344,2,130,8|8|8,0:0|0:1|0:0,0:0:0:0:
332,64,20751,5,2,0:0:0:0:
452,112,21180,1,0,1:0:0:0:
476,240,21608,1,8,0:3:0:0:
228,320,22465,1,2,0:0:0:0:
256,192,22894,1,0,1:0:0:0:
284,64,23322,1,8,0:3:0:0:
148,68,23751,1,0,1:0:0:0:
36,144,24180,5,2,0:0:0:0:
60,272,24608,1,0,1:0:0:0:
180,320,25037,1,8,0:3:0:0:
404,192,25894,2,0,L|284:136,1,130,2|0,0:0|1:0,0:0:0:0:
225,246,26751,2,0,L|108:192,1,130,8|0,0:3|1:0,0:0:0:0:
140,68,27608,6,0,B|216:44|256:92|256:116|296:164|372:140,2,260,2|8|2,0:0|0:3|0:0,0:0:0:0:
96,188,29751,1,0,1:0:0:0:
192,276,30180,1,8,0:3:0:0:
320,276,30608,1,0,1:0:0:0:
416,188,31037,1,4,0:3:0:0:
416,188,32751,5,2,1:0:0:0:
320,276,33180,1,2,1:0:0:0:
192,276,33608,1,2,1:0:0:0:
96,188,34037,1,2,1:0:0:0:
132,64,34465,6,2,B|188:28|256:64|256:64|324:28|380:64,2,260,6|2|4,1:0|0:1|3:0,0:1:0:0:
124,192,36608,1,0,1:0:0:0:
256,192,37037,1,2,0:1:0:0:
388,192,37465,1,0,1:0:0:0:
376,320,37894,6,2,B|256:310|256:310|256:330|256:330|136:320,2,260,6|2|4,1:0|0:1|0:3,0:1:0:0:
476,236,40037,1,0,1:0:0:0:
504,108,40465,1,2,0:0:0:0:
380,76,40894,1,0,1:0:0:0:
256,36,41322,6,2,P|144:116|136:236,1,260,6|4,0:1|0:3,0:1:0:0:
378,154,43037,2,2,P|361:279|256:348,1,260,6|4,0:1|0:3,0:1:0:0:
132,312,44322,1,0,1:0:0:0:
64,200,44751,6,0,B|101:125|198:107|259:167|254:190|249:213|310:274|407:255|444:181,1,455,4|2,3:0|0:0,0:0:0:0:
372,360,46894,1,2,1:0:0:0:
256,300,47322,1,2,1:0:0:0:
140,360,47751,1,2,1:0:0:0:
40,276,48180,6,2,B|28:164|28:164|20:80|100:36,2,260,6|2|4,1:0|0:1|3:3,0:1:0:0:
168,288,50322,1,0,1:0:0:0:
256,192,50751,1,2,0:1:0:0:
344,96,51179,1,0,1:0:0:0:
472,108,51608,6,2,B|484:220|484:220|492:304|412:348,2,260,6|2|4,1:0|0:1|3:3,0:1:0:0:
376,20,53751,1,0,1:0:0:0:
256,76,54179,1,2,0:0:0:0:
136,20,54608,1,0,1:0:0:0:
64,128,55036,6,2,L|196:356,1,260,6|4,0:1|0:3,0:1:0:0:
448,256,56751,2,2,L|316:28,1,260,6|4,0:1|0:3,0:1:0:0:
196,76,58036,1,0,1:0:0:0:
152,200,58465,6,0,B|152:260|152:260|152:364|256:408|360:364|360:260|360:260|360:200,1,455,4|2,3:0|0:0,0:0:0:0:
360,199,61894,1,4,1:0:0:0:
480,280,75608,6,0,B|412:280|412:280|360:240,1,130,8|8,0:0|0:1,0:0:0:0:
256,316,76465,1,8,0:0:0:0:
32,180,77322,2,0,B|96:180|96:180|152:140,1,130,8|8,0:0|0:1,0:0:0:0:
256,216,78179,1,8,0:0:0:0:
363,141,78608,1,8,0:1:0:0:
432,248,79036,6,0,P|368:280|332:336,1,130,8|8,0:0|0:1,0:0:0:0:
208,356,79893,1,8,0:0:0:0:
88,140,80751,2,0,P|160:152|212:208,1,130,8|8,0:0|0:1,0:0:0:0:
308,260,81608,1,8,0:0:0:0:
428,212,82036,1,8,0:1:0:0:
372,100,82465,6,0,B|256:40|256:40|140:100,2,260,8|8|8,0:0|0:0|0:0,0:0:0:0:
388,228,84608,1,8,0:1:0:0:
256,256,85036,1,8,0:0:0:0:
124,228,85465,1,8,0:1:0:0:
141,99,85893,6,0,P|89:71|25:91,2,130,8|8|8,0:0|0:1|0:0,0:0:0:0:
371,99,87608,2,0,P|423:71|487:91,2,130,8|8|8,0:0|0:1|0:0,0:0:0:0:
384,360,89322,5,6,0:0:0:0:
256,348,89751,1,0,1:0:0:0:
128,360,90179,1,8,0:3:0:0:
68,108,91036,1,2,0:0:0:0:
192,64,91465,1,0,1:0:0:0:
320,64,91893,1,8,0:3:0:0:
444,108,92322,1,0,1:0:0:0:
384,224,92751,5,2,0:0:0:0:
256,200,93179,1,0,1:0:0:0:
128,224,93608,1,8,0:3:0:0:
308,36,94465,2,0,P|372:20|432:44,1,130,2|0,0:0|1:0,0:0:0:0:
500,152,95322,2,0,P|436:136|376:160,1,130,4|0,0:3|1:0,0:0:0:0:
372,288,96179,6,0,B|340:308|296:312|255:267|255:267|216:312|172:308|140:288,2,260,2|8|2,0:0|0:3|0:0,0:0:0:0:
416,164,98322,1,0,1:0:0:0:
320,76,98751,1,8,0:3:0:0:
192,76,99179,1,0,1:0:0:0:
96,164,99608,1,4,0:3:0:0:
96,164,101322,5,2,1:0:0:0:
192,76,101751,1,2,1:0:0:0:
320,76,102179,1,2,1:0:0:0:
416,164,102608,1,2,1:0:0:0:
380,288,103036,6,2,B|328:320|304:312|280:280|256:272|232:280|208:312|184:320|132:288,2,260,6|2|4,1:0|0:1|3:0,0:1:0:0:
388,160,105179,1,0,1:0:0:0:
256,192,105608,1,2,0:1:0:0:
124,224,106036,1,0,1:0:0:0:
136,96,106465,6,2,P|256:52|376:96,2,260,6|2|4,1:0|0:1|0:3,0:1:0:0:
32,176,108608,1,0,1:0:0:0:
24,304,109036,1,2,0:0:0:0:
152,328,109465,1,0,1:0:0:0:
280,348,109893,6,2,P|392:268|372:160,1,260,6|4,0:1|0:3,0:1:0:0:
138,222,111608,2,2,P|126:99|232:36,1,260,6|4,0:1|0:3,0:1:0:0:
352,80,112893,1,0,1:0:0:0:
444,172,113322,6,0,B|407:247|310:265|249:205|254:182|259:159|198:98|101:117|64:191,1,455,4|2,3:0|0:0,0:0:0:0:
156,364,115465,1,2,1:0:0:0:
256,284,115893,1,2,1:0:0:0:
356,200,116322,1,2,1:0:0:0:
456,116,116751,6,2,B|468:228|468:228|476:312|396:356,2,260,6|2|4,1:0|0:1|3:3,0:1:0:0:
360,32,118893,1,0,1:0:0:0:
256,112,119322,1,2,0:1:0:0:
152,32,119750,1,0,1:0:0:0:
56,116,120179,6,2,B|44:228|44:228|36:312|116:356,2,260,6|2|4,1:0|0:1|3:3,0:1:0:0:
152,32,122322,1,0,1:0:0:0:
256,108,122750,1,2,0:0:0:0:
368,176,123179,1,0,1:0:0:0:
385,304,123607,6,2,L|121:304,1,260,6|4,0:1|0:3,0:1:0:0:
125,43,125322,2,2,L|397:43,1,260,6|4,0:1|0:3,0:1:0:0:
460,144,126607,1,0,1:0:0:0:
416,264,127037,6,0,B|416:320|392:360|312:380|312:380|200:380|200:380|120:360|96:320|96:264,1,455,4|2,3:0|0:0,0:0:0:0:
95,272,130465,1,4,1:0:0:0:
256,192,140751,12,6,144180,0:0:0:0:
128,264,145894,6,0,P|216:300|300:216,2,208,0|8|0,3:0|0:0|3:0,0:0:0:0:
188,108,148465,1,8,0:0:0:0:
344,52,149322,6,0,B|304:116|352:180|416:176|480:172|488:256|456:300,1,312,0|0,3:0|3:0,0:0:0:0:
372,280,151037,2,0,B|304:256|304:256|280:300|212:308|184:276,2,208,0|8|0,3:0|0:0|3:0,0:0:0:0:
472,148,153608,5,8,0:0:0:0:
348,40,154465,2,0,B|260:76|260:76|236:128|236:128|144:104|92:176,1,312,0|0,3:0|3:0,0:0:0:0:
140,244,156180,1,0,3:0:0:0:
256,284,156822,2,0,P|304:240|360:252,2,104,0|0|6,3:0|3:0|3:2,0:0:0:0:
76,96,158751,5,8,0:0:0:0:
176,64,159180,1,0,0:0:0:0:
272,24,159608,2,0,B|248:128|248:128|304:116|360:164|348:224,2,260,0|8|0,3:0|0:0|3:0,0:0:0:0:
468,92,162180,5,8,0:0:0:0:
444,192,162608,1,0,0:0:0:0:
412,292,163037,2,0,B|364:248|304:276|304:276|288:252|288:252|228:284|164:252|136:208|152:152|184:120,1,390,0|0,3:0|3:0,0:0:0:0:
264,64,164751,5,0,3:0:0:0:
468,28,165608,1,8,0:0:0:0:
492,128,166037,1,0,0:0:0:0:
388,132,166465,2,0,P|304:156|292:308,2,260,0|8|0,3:0|0:0|3:0,0:0:0:0:
480,320,169037,5,8,0:0:0:0:
404,252,169465,1,0,0:0:0:0:
328,180,169894,2,0,L|116:216,1,195,0|0,3:0|3:0,0:0:0:0:
36,240,170965,1,0,0:0:0:0:
16,136,171394,1,2,0:3:0:0:
256,192,173322,12,2,178465,0:0:0:0:
436,68,180180,22,2,B|472:124|436:192|436:192|472:260|436:316,2,260,6|2|4,1:0|0:1|3:0,0:1:0:0:
304,68,182323,1,0,1:0:0:0:
256,192,182752,1,2,0:1:0:0:
208,316,183180,1,0,1:0:0:0:
76,312,183609,6,2,P|32:192|76:72,2,260,6|2|4,1:0|0:1|0:3,0:1:0:0:
200,356,185752,1,0,1:0:0:0:
316,300,186180,1,2,0:0:0:0:
432,244,186609,1,0,1:0:0:0:
448,116,187037,6,2,P|364:20|240:32,1,260,6|4,0:1|0:3,0:1:0:0:
96,244,188751,2,2,P|180:148|304:160,1,260,6|4,0:1|0:3,0:1:0:0:
376,264,190037,1,0,1:0:0:0:
288,360,190466,6,0,B|188:348|164:244|231:189|254:194|277:199|348:140|324:36|224:24,1,455,4|2,3:0|0:0,0:0:0:0:
88,164,192609,1,2,1:0:0:0:
52,288,193037,1,2,1:0:0:0:
176,324,193466,1,2,1:0:0:0:
212,200,193894,6,2,B|324:188|324:188|408:180|452:260,2,260,6|2|4,1:0|0:1|3:3,0:1:0:0:
108,276,196036,1,0,1:0:0:0:
212,352,196465,1,2,0:1:0:0:
336,324,196893,1,0,1:0:0:0:
300,200,197322,6,2,B|188:188|188:188|104:180|60:260,2,260,6|2|4,1:0|0:1|3:3,0:1:0:0:
428,212,199465,1,0,1:0:0:0:
388,88,199893,1,2,0:0:0:0:
256,84,200322,1,0,1:0:0:0:
124,88,200750,6,2,L|124:352,1,260,6|4,0:1|0:3,0:1:0:0:
388,296,202465,2,2,L|388:36,1,260,6|4,0:1|0:3,0:1:0:0:
256,64,203750,1,0,1:0:0:0:
156,144,204180,6,0,P|256:306|356:144,1,455,4|2,3:0|0:0,0:0:0:0:
256,192,205894,12,4,207608,0:1:0:0:
