osu file format v14

[General]
AudioFilename: audio.mp3
AudioLeadIn: 0
PreviewTime: 36825
Countdown: 0
SampleSet: Soft
StackLeniency: 0.7
Mode: 0
LetterboxInBreaks: 0
WidescreenStoryboard: 1

[Editor]
Bookmarks: 370,12521,24673,36825,52015,58091,70243,82395,97585,109737,115813,121888,137078,151509
DistanceSpacing: 1.2
BeatDivisor: 4
GridSize: 8
TimelineZoom: 1

[Metadata]
Title:Bubblegum Bitch
TitleUnicode:Bubblegum Bitch
Artist:Marina and the Diamonds
ArtistUnicode:Marina and the Diamonds
Creator:StarCastler
Version:ReFaller's Hard
Source:
Tags:ReFaller MkGuh Larto & electra heart marina lambrini diamandis Μαρίνα Λαμπρινή Διαμαντή electro synthie synthpop synth english pop dance electro-pop dance-pop
BeatmapID:2478302
BeatmapSetID:1189331

[Difficulty]
HPDrainRate:5
CircleSize:4
OverallDifficulty:6
ApproachRate:7
SliderMultiplier:1.6
SliderTickRate:2

[Events]
//Background and Video events
0,0,"tumblr_lxjn0an2j41qf4gzoo1_1280.jpg",0,0
//Break Periods
2,52215,56811
2,109937,114913
//Storyboard Layer 0 (Background)
//Storyboard Layer 1 (Fail)
//Storyboard Layer 2 (Pass)
//Storyboard Layer 3 (Foreground)
//Storyboard Layer 4 (Overlay)
//Storyboard Sound Samples

[TimingPoints]
370,379.746835443038,4,2,0,70,1,0
35971,-100,4,1,0,30,0,0
36161,-100,4,2,0,70,0,0
36445,-100,4,1,0,40,0,0
36541,-100,4,2,0,70,0,0
36825,-100,4,1,0,70,0,1
36920,-90.9090909090909,4,1,0,50,0,1
52015,-100,4,1,0,50,0,0
58091,-100,4,2,0,70,0,0
81540,-100,4,1,0,40,0,0
81730,-100,4,2,0,70,0,0
81921,-100,4,1,0,50,0,0
82110,-100,4,2,0,70,0,0
82395,-100,4,1,0,70,0,1
82490,-90.9090909090909,4,1,0,50,0,1
97585,-100,4,1,0,50,0,0
121888,-90.9090909090909,4,1,0,70,0,1
121983,-90.9090909090909,4,1,0,55,0,1
136983,-100,4,1,0,55,0,0
137078,-90.9090909090909,4,1,0,70,0,1
137173,-90.9090909090909,4,1,0,65,0,1
151414,-100,4,1,0,65,0,0
151509,-100,4,1,0,65,0,1
151604,-100,4,1,0,65,0,0

[Colours]
Combo1 : 243,131,201
Combo2 : 231,207,184
Combo3 : 224,150,197
Combo4 : 247,207,168

[HitObjects]
64,48,12142,5,8,0:0:0:0:
96,120,12332,1,0,0:0:0:0:
168,160,12521,2,0,B|200:152|248:144,1,80,4|0,0:0|0:0,0:0:0:0:
224,248,12901,2,0,B|176:256|144:264,1,80,8|0,0:0|0:0,0:0:0:0:
56,280,13281,2,0,B|56:232|64:200,1,80,2|0,0:0|0:0,0:0:0:0:
168,160,13661,1,8,0:0:0:0:
200,352,14040,5,4,0:0:0:0:
272,312,14230,1,0,0:0:0:0:
352,304,14420,2,0,B|392:304|432:312,1,80,8|0,0:0|0:0,0:0:0:0:
440,224,14800,2,0,B|400:216|360:216,2,80,2|8|8,0:0|0:0|0:0,0:0:0:0:
199,267,15559,6,0,B|183:227|205:190,1,80,4|0,0:0|0:0,0:0:0:0:
279,235,15939,2,0,B|295:275|272:311,1,80,8|0,0:0|0:0,0:0:0:0:
200,352,16319,1,2,0:0:0:0:
128,312,16509,1,0,0:0:0:0:
48,328,16699,6,0,B|2:256|34:176,1,160,8|4,0:0|0:0,0:0:0:0:
88,112,17268,1,0,0:0:0:0:
88,112,17458,2,0,L|176:104,1,80,8|0,0:0|0:0,0:0:0:0:
224,16,17838,2,0,L|144:23,1,80,2|8,0:0|0:0,0:0:0:0:
248,96,18218,1,8,0:0:0:0:
464,192,18597,6,0,B|464:232|456:272,1,80,4|0,0:0|0:0,0:0:0:0:
440,352,18977,1,8,0:0:0:0:
360,184,19357,2,0,B|360:144|368:104,1,80,2|0,0:0|0:0,0:0:0:0:
384,24,19737,1,8,0:0:0:0:
166,64,20116,6,0,B|128:57|88:73,1,80,4|0,0:0|0:0,0:0:0:0:
56,160,20496,2,0,B|95:168|135:152,1,80,8|0,0:0|0:0,0:0:0:0:
208,192,20876,2,0,L|280:232,1,80,2|8,0:0|0:0,0:0:0:0:
352,272,21256,1,8,0:0:0:0:
352,272,21635,6,0,B|264:248|208:320,1,160,4|8,0:0|0:0,0:0:0:0:
168,384,22205,1,0,0:0:0:0:
304,360,22395,2,0,B|392:384|448:312,1,160,2|8,0:0|0:0,0:0:0:0:
376,80,23154,2,0,B|352:168|424:224,2,160,4|8|2,0:0|0:0|0:0,0:0:0:0:
408,0,24104,1,8,0:0:0:0:
464,64,24294,1,8,0:0:0:0:
216,152,24673,6,0,B|200:112|200:72,1,80,4|0,0:0|0:0,0:0:0:0:
296,168,25053,2,0,B|312:208|312:248,1,80,8|0,0:0|0:0,0:0:0:0:
312,336,25433,2,0,B|232:368|152:368,2,160,2|8|4,0:0|0:0|0:0,0:0:0:0:
200,264,26382,1,0,0:0:0:0:
311,245,26572,2,0,B|348:244|388:260,1,80,8|0,0:0|0:0,0:0:0:0:
480,296,26952,2,0,B|512:216|512:136,1,160,2|8,0:0|0:0,0:0:0:0:
480,24,27521,1,0,0:0:0:0:
424,96,27711,6,0,L|410:174,1,80,4|0,0:0|0:0,0:0:0:0:
392,288,28091,2,0,L|313:274,1,80,8|0,0:0|0:0,0:0:0:0:
200,280,28471,2,0,B|200:200|224:120,2,160,2|8|4,0:0|0:0|0:0,0:0:0:0:
256,344,29420,1,0,0:0:0:0:
128,336,29610,2,0,B|113:299|114:257,1,80,8|0,0:0|0:0,0:0:0:0:
208,184,29990,2,0,B|280:154|368:160,1,160,2|8,0:0|0:0,0:0:0:0:
424,88,30559,1,0,0:0:0:0:
376,168,30749,6,0,L|392:256,1,80,4|0,0:0|0:0,0:0:0:0:
392,336,31129,1,8,0:0:0:0:
312,368,31319,1,0,0:0:0:0:
224,376,31509,2,0,L|64:376,2,160,2|8|4,0:0|0:0|0:0,0:0:0:0:
272,296,32458,1,0,0:0:0:0:
272,296,32648,2,0,B|286:259|285:217,1,80,8|0,0:0|0:0,0:0:0:0:
216,168,33028,2,0,B|214:84|243:11,1,160,2|8,0:0|0:0,0:0:0:0:
400,120,33787,5,4,0:0:0:0:
200,248,34167,1,8,0:0:0:0:
216,168,34357,1,0,0:0:0:0:
184,88,34547,2,0,B|121:33|33:57,2,160,2|8|4,0:0|0:0|0:0,0:0:0:0:
216,168,35496,1,0,0:0:0:0:
136,160,35686,1,8,0:0:0:0:
328,88,36066,2,2,B|390:33|478:57,2,160,6|6|6,0:0|0:0|0:0,0:0:0:0:
256,48,37015,5,0,0:0:0:0:
216,168,37205,2,0,B|216:216|232:256,1,88.000002685547,8|0,0:0|0:0,0:0:0:0:
320,280,37585,2,0,L|408:296,1,88.000002685547,2|0,0:0|0:0,0:0:0:0:
240,344,37964,2,0,L|153:328,1,88.000002685547,8|0,0:0|0:0,0:0:0:0:
120,184,38344,1,2,0:0:0:0:
120,184,38534,1,8,0:0:0:0:
216,168,38724,1,8,0:0:0:0:
216,168,38914,1,8,0:0:0:0:
312,152,39104,1,2,0:0:0:0:
312,152,39483,1,8,0:0:0:0:
312,152,39863,6,0,B|336:192|392:192,1,88.000002685547,2|0,0:0|0:0,0:0:0:0:
432,280,40243,2,0,B|472:256|472:200,1,88.000002685547,8|0,0:0|0:0,0:0:0:0:
392,96,40623,2,0,B|352:40|272:40|224:96,2,176.000005371094,2|8|2,0:0|0:0|0:0,0:0:0:0:
488,96,41572,1,0,0:0:0:0:
471,205,41762,2,0,L|456:296,1,88.000002685547,8|8,0:0|0:0,0:0:0:0:
360,320,42142,2,0,L|272:344,1,88.000002685547,2|0,0:0|0:0,0:0:0:0:
184,368,42521,1,8,0:0:0:0:
184,368,42901,6,0,B|112:296|136:208,1,176.000005371094,6|8,0:0|0:0,0:0:0:0:
192,128,43471,1,0,0:0:0:0:
192,128,43661,2,0,B|228:92|216:48,1,88.000002685547,2|0,0:0|0:0,0:0:0:0:
64,152,44040,2,0,B|28:188|40:232,1,88.000002685547,8|0,0:0|0:0,0:0:0:0:
136,296,44420,1,2,0:0:0:0:
216,312,44610,1,8,0:0:0:0:
296,328,44800,1,8,0:0:0:0:
272,248,44990,1,8,0:0:0:0:
352,264,45180,1,2,0:0:0:0:
352,264,45559,1,8,0:0:0:0:
352,264,45939,6,2,B|408:184|376:96,1,176.000005371094,6|10,0:0|0:0,0:0:0:0:
312,32,46509,1,0,0:0:0:0:
272,168,46699,2,2,B|216:248|248:336,1,176.000005371094,2|8,0:0|0:0,0:0:0:0:
247,334,47458,2,0,L|336:352,1,88.000002685547,2|0,0:0|0:0,0:0:0:0:
248,240,47838,2,0,L|159:258,1,88.000002685547,8|0,0:0|0:0,0:0:0:0:
352,264,48218,2,0,L|441:246,1,88.000002685547,2|8,0:0|0:0,0:0:0:0:
504,168,48597,1,8,0:0:0:0:
312,128,48977,6,2,B|225:159|145:103,1,176.000005371094,6|10,0:0|0:0,0:0:0:0:
72,48,49547,1,0,0:0:0:0:
8,192,49737,2,2,B|94:160|174:216,1,176.000005371094,2|8,0:0|0:0,0:0:0:0:
176,216,50496,2,0,B|168:264|192:312,1,88.000002685547,2|0,0:0|0:0,0:0:0:0:
328,328,50876,2,0,B|336:280|312:232,1,88.000002685547,8|0,0:0|0:0,0:0:0:0:
264,144,51256,1,6,0:0:0:0:
176,216,51445,1,8,0:0:0:0:
64,192,51635,1,8,0:0:0:0:
232,32,52015,5,4,0:0:0:0:
96,104,57711,5,0,0:0:0:0:
96,104,58091,2,0,B|48:182|110:250,1,160,4|8,0:0|0:0,0:0:0:0:
176,320,58661,1,0,0:0:0:0:
176,320,58851,2,0,B|223:241|161:173,1,160,2|8,0:0|0:0,0:0:0:0:
161,173,59610,6,0,B|121:189|76:174,1,80,4|0,0:0|0:0,0:0:0:0:
120,88,59990,2,0,B|126:45|161:13,1,80,8|0,0:0|0:0,0:0:0:0:
214,94,60370,2,0,B|247:120|257:167,2,80,2|8|8,0:0|0:0|0:0,0:0:0:0:
280,256,61129,6,0,B|318:271|358:271,1,80,4|0,0:0|0:0,0:0:0:0:
448,264,61509,2,0,B|463:225|463:185,1,80,8|0,0:0|0:0,0:0:0:0:
464,104,61888,1,2,0:0:0:0:
376,96,62078,1,0,0:0:0:0:
288,176,62268,1,8,0:0:0:0:
376,184,62458,1,0,0:0:0:0:
288,88,62648,6,0,B|264:80|208:80,1,80,4|0,0:0|0:0,0:0:0:0:
208,80,63028,2,0,B|208:136|200:160,1,80,8|0,0:0|0:0,0:0:0:0:
128,216,63407,2,0,B|72:216|48:208,1,80,2|8,0:0|0:0,0:0:0:0:
144,304,63787,1,8,0:0:0:0:
144,304,64167,5,4,0:0:0:0:
224,312,64357,1,0,0:0:0:0:
304,320,64547,1,8,0:0:0:0:
288,88,64926,1,2,0:0:0:0:
208,80,65116,1,0,0:0:0:0:
128,72,65306,1,8,0:0:0:0:
144,304,65686,6,0,B|176:272|168:224,1,80,4|0,0:0|0:0,0:0:0:0:
118,172,66066,2,0,B|129:215|175:232,1,80,8|0,0:0|0:0,0:0:0:0:
244,215,66445,2,0,B|200:203|162:234,1,80,2|0,0:0|0:0,0:0:0:0:
80,256,66825,1,8,0:0:0:0:
256,320,67205,6,0,B|335:299|410:361,1,160,4|8,0:0|0:0,0:0:0:0:
512,240,67964,2,0,B|432:260|357:198,1,160,2|8,0:0|0:0,0:0:0:0:
312,56,68724,2,2,B|391:35|466:97,2,160,2|8|0,0:0|0:0|0:0,0:0:0:0:
240,88,69673,1,8,0:0:0:0:
160,96,69863,1,8,0:0:0:0:
88,120,70053,1,0,0:0:0:0:
24,168,70243,6,0,B|0:208|16:256,1,80,4|0,0:0|0:0,0:0:0:0:
72,320,70623,2,0,B|150:339|230:331,1,160,8|2,0:0|0:0,0:0:0:0:
312,328,71192,1,0,0:0:0:0:
312,328,71382,1,8,0:0:0:0:
488,224,71762,1,4,0:0:0:0:
424,288,71952,1,0,0:0:0:0:
400,208,72142,2,0,B|376:168|392:120,1,80,8|0,0:0|0:0,0:0:0:0:
464,64,72521,2,0,B|384:112|288:80,2,160,2|8|4,0:0|0:0|0:0,0:0:0:0:
504,136,73471,5,0,0:0:0:0:
496,240,73661,2,0,B|480:320,1,80,8|0,0:0|0:0,0:0:0:0:
384,344,74040,2,0,B|305:359,1,80,2|0,0:0|0:0,0:0:0:0:
200,360,74420,2,0,B|128:310|145:220,1,160,8|4,0:0|0:0,0:0:0:0:
199,167,74990,1,0,0:0:0:0:
199,167,75180,2,0,B|191:207|135:223,1,80,8|0,0:0|0:0,0:0:0:0:
64,192,75559,2,0,B|4:138|32:24,1,160,2|8,0:0|0:0,0:0:0:0:
27,43,76129,1,0,0:0:0:0:
112,32,76319,6,0,B|152:32|192:48,1,80,4|0,0:0|0:0,0:0:0:0:
256,96,76699,2,0,B|328:128|416:120,1,160,8|2,0:0|0:0,0:0:0:0:
496,112,77268,1,0,0:0:0:0:
496,112,77458,1,8,0:0:0:0:
320,216,77838,1,4,0:0:0:0:
256,280,78028,1,0,0:0:0:0:
336,304,78218,2,0,B|376:328|424:312,1,80,8|0,0:0|0:0,0:0:0:0:
320,216,78597,2,0,B|240:168|144:200,1,160,2|8,0:0|0:0,0:0:0:0:
88,232,79167,1,0,0:0:0:0:
168,280,79357,6,0,L|208:352,1,80,4|0,0:0|0:0,0:0:0:0:
281,285,79737,2,0,L|321:213,1,80,8|0,0:0|0:0,0:0:0:0:
256,144,80116,1,2,0:0:0:0:
440,192,80496,2,0,L|362:331,1,160,8|4,0:0|0:0,0:0:0:0:
281,285,81066,1,0,0:0:0:0:
192,336,81256,2,0,B|168:296|184:248,1,80,8|0,0:0|0:0,0:0:0:0:
317,143,81635,2,0,B|294:183|244:193,1,80,6|0,0:0|0:0,0:0:0:0:
88,132,82015,2,0,B|134:131|168:169,1,80,6|0,0:0|0:0,0:0:0:0:
281,285,82395,5,6,0:0:0:0:
472,272,82775,2,0,B|491:233|483:177,1,88.000002685547,8|0,0:0|0:0,0:0:0:0:
376,256,83154,2,0,B|360:295|360:344,1,88.000002685547,2|0,0:0|0:0,0:0:0:0:
304,200,83534,2,0,B|280:160|288:113,1,88.000002685547,8|0,0:0|0:0,0:0:0:0:
312,24,83914,1,2,0:0:0:0:
312,24,84104,1,8,0:0:0:0:
375,99,84294,1,8,0:0:0:0:
375,99,84483,1,8,0:0:0:0:
287,115,84673,1,2,0:0:0:0:
287,115,85053,1,8,0:0:0:0:
287,115,85433,6,0,B|263:75|207:75,1,88.000002685547,2|0,0:0|0:0,0:0:0:0:
136,136,85813,2,0,B|160:176|216:176,1,88.000002685547,8|0,0:0|0:0,0:0:0:0:
304,200,86192,2,0,B|480:168,2,176.000005371094,2|8|2,0:0|0:0|0:0,0:0:0:0:
232,264,87142,1,0,0:0:0:0:
352,280,87332,2,0,L|443:265,1,88.000002685547,8|8,0:0|0:0,0:0:0:0:
288,352,87711,2,0,L|202:367,1,88.000002685547,2|0,0:0|0:0,0:0:0:0:
112,344,88091,1,8,0:0:0:0:
112,344,88471,6,0,B|40:280|72:184,2,176.000005371094,6|8|2,0:0|0:0|0:0,0:0:0:0:
201,367,89420,1,0,0:0:0:0:
264,304,89610,2,0,B|228:268|184:280,1,88.000002685547,8|0,0:0|0:0,0:0:0:0:
112,344,89990,1,2,0:0:0:0:
16,352,90180,1,8,0:0:0:0:
72,184,90370,1,8,0:0:0:0:
168,176,90559,1,8,0:0:0:0:
264,168,90749,1,2,0:0:0:0:
264,168,91129,1,8,0:0:0:0:
264,168,91509,6,2,B|344:112|432:144,1,176.000005371094,6|10,0:0|0:0,0:0:0:0:
448,64,92078,1,0,0:0:0:0:
360,224,92268,2,2,B|280:280|193:248,1,176.000005371094,2|8,0:0|0:0,0:0:0:0:
193,248,93028,2,0,L|175:159,1,88.000002685547,2|0,0:0|0:0,0:0:0:0:
184,168,93407,2,0,L|95:186,1,88.000002685547,8|0,0:0|0:0,0:0:0:0:
128,72,93787,2,0,L|217:54,1,88.000002685547,2|8,0:0|0:0,0:0:0:0:
312,32,94167,1,8,0:0:0:0:
479,225,94547,6,2,B|392:194|312:250,1,176.000005371094,6|10,0:0|0:0,0:0:0:0:
232,192,95116,1,0,0:0:0:0:
208,280,95306,2,2,B|122:312|42:256,1,176.000005371094,2|8,0:0|0:0,0:0:0:0:
41,255,96066,2,0,B|80:232|80:176,1,88.000002685547,2|0,0:0|0:0,0:0:0:0:
34,109,96445,2,0,B|34:154|82:182,1,88.000002685547,8|0,0:0|0:0,0:0:0:0:
168,192,96825,1,6,0:0:0:0:
256,168,97015,1,8,0:0:0:0:
232,256,97205,1,8,0:0:0:0:
168,192,97395,1,0,0:0:0:0:
256,168,97585,6,0,B|296:160|336:160,1,80,4|0,0:0|0:0,0:0:0:0:
344,240,97964,2,0,B|344:280|368:320,1,80,8|0,0:0|0:0,0:0:0:0:
432,232,98344,2,0,B|440:144|408:64,1,160,2|8,0:0|0:0,0:0:0:0:
320,32,98914,1,0,0:0:0:0:
240,88,99104,2,0,B|232:176|264:256,1,160,0|8,0:0|0:0,0:0:0:0:
304,328,99673,1,0,0:0:0:0:
356,253,99863,2,0,B|392:231|432:231,2,80,2|0|8,0:0|0:0|0:0,0:0:0:0:
304,328,100433,1,0,0:0:0:0:
216,312,100623,6,0,B|146:284|58:292,1,160,4|8,0:0|0:0,0:0:0:0:
16,152,101382,2,0,B|85:179|173:171,1,160,0|8,0:0|0:0,0:0:0:0:
256,200,101952,1,0,0:0:0:0:
256,200,102142,2,0,B|320:160|416:176,1,160,2|8,0:0|0:0,0:0:0:0:
496,248,102711,2,0,B|432:288|336:272,1,160,2|8,0:0|0:0,0:0:0:0:
341,272,103281,2,0,L|288:344,1,80,2|8,0:0|0:0,0:0:0:0:
200,344,103661,6,0,L|120:344,1,80,4|0,0:0|0:0,0:0:0:0:
40,296,104040,1,8,0:0:0:0:
120,256,104230,1,0,0:0:0:0:
40,200,104420,2,0,B|-8:120|8:40,2,160,2|8|0,0:0|0:0|0:0,0:0:0:0:
128,168,105370,1,0,0:0:0:0:
208,224,105559,2,0,B|232:264|224:304,1,80,8|0,0:0|0:0,0:0:0:0:
160,368,105939,2,0,B|223:319|312:344,1,160,2|8,0:0|0:0,0:0:0:0:
408,376,106509,1,0,0:0:0:0:
384,288,106699,6,0,B|385:248|416:208,1,80,4|0,0:0|0:0,0:0:0:0:
411,214,107078,2,2,B|459:150|435:62,2,160,10|0|8,0:0|0:0|0:0,0:0:0:0:
464,288,108028,1,0,0:0:0:0:
376,296,108218,6,0,B|328:288|296:272,1,80,6|0,0:0|0:0,0:0:0:0:
240,352,108597,2,0,B|219:308|213:272,1,80,8|0,0:0|0:0,0:0:0:0:
112,272,108977,2,0,B|135:229|161:205,1,80,10|0,0:0|0:0,0:0:0:0:
104,120,109357,2,0,B|152:115|187:122,1,80,8|0,0:0|0:0,0:0:0:0:
256,192,109737,5,6,0:0:0:0:
200,72,115813,6,0,B|256:0|344:40,1,160,6|8,0:0|0:0,0:0:0:0:
416,88,116382,1,0,0:0:0:0:
416,88,116572,2,0,B|360:160|272:120,1,160,6|8,0:0|0:0,0:0:0:0:
192,160,117142,1,0,0:0:0:0:
192,160,117332,2,0,L|32:160,2,160,6|8|0,0:0|0:0|0:0,0:0:0:0:
264,208,118281,1,8,0:0:0:0:
264,208,118471,2,0,L|304:280,1,80,8|0,0:0|0:0,0:0:0:0:
302,277,118851,6,0,B|368:224|454:245,1,160,4|8,0:0|0:0,0:0:0:0:
512,312,119420,1,0,0:0:0:0:
392,336,119610,2,0,B|326:389|240:368,1,160,6|8,0:0|0:0,0:0:0:0:
184,312,120180,1,0,0:0:0:0:
302,277,120370,2,0,B|355:211|334:125,1,160,4|8,0:0|0:0,0:0:0:0:
272,56,120939,1,0,0:0:0:0:
334,126,121129,2,0,L|414:118,1,80,8|0,0:0|0:0,0:0:0:0:
416,197,121509,2,0,B|415:199|420:155|413:117,1,80,8|0,0:0|0:0,0:0:0:0:
272,56,121888,6,0,L|88:56,2,176.000005371094,2|8|2,0:0|0:0|0:0,0:0:0:0:
334,126,122838,1,0,0:0:0:0:
240,144,123028,2,0,L|152:152,1,88.000002685547,8|0,0:0|0:0,0:0:0:0:
72,200,123407,1,2,0:0:0:0:
72,200,123597,1,8,0:0:0:0:
160,240,123787,1,8,0:0:0:0:
160,240,123977,1,8,0:0:0:0:
80,288,124167,1,2,0:0:0:0:
80,288,124547,1,8,0:0:0:0:
80,288,124926,6,0,B|120:280|167:279,1,88.000002685547,2|0,0:0|0:0,0:0:0:0:
288,352,125306,2,0,B|248:360|200:360,1,88.000002685547,8|0,0:0|0:0,0:0:0:0:
248,232,125686,2,0,B|344:216|423:214,2,176.000005371094,2|8|2,0:0|0:0|0:0,0:0:0:0:
167,278,126635,1,0,0:0:0:0:
120,360,126825,2,0,B|72:360|32:352,1,88.000002685547,8|8,0:0|0:0,0:0:0:0:
16,200,127205,2,0,B|64:200|104:208,1,88.000002685547,2|0,0:0|0:0,0:0:0:0:
167,278,127585,1,8,0:0:0:0:
167,278,127964,6,0,B|224:208|200:104,1,176.000005371094,6|8,0:0|0:0,0:0:0:0:
112,88,128534,1,0,0:0:0:0:
192,24,128724,2,0,B|184:64|201:111,1,88.000002685547,2|0,0:0|0:0,0:0:0:0:
296,184,129104,2,0,B|304:144|287:97,1,88.000002685547,8|0,0:0|0:0,0:0:0:0:
192,24,129483,1,2,0:0:0:0:
112,88,129673,1,8,0:0:0:0:
200,110,129863,1,8,0:0:0:0:
287,97,130053,1,8,0:0:0:0:
376,120,130243,1,2,0:0:0:0:
376,120,130623,1,8,0:0:0:0:
376,120,131002,6,2,B|353:216|410:286,1,176.000005371094,2|10,0:0|0:0,0:0:0:0:
504,304,131572,1,0,0:0:0:0:
440,368,131762,2,2,B|343:390|273:333,1,176.000005371094,2|8,0:0|0:0,0:0:0:0:
274,333,132521,2,0,L|186:365,1,88.000002685547,2|0,0:0|0:0,0:0:0:0:
240,248,132901,2,0,L|208:160,1,88.000002685547,8|0,0:0|0:0,0:0:0:0:
312,176,133281,2,0,L|344:88,1,88.000002685547,2|8,0:0|0:0,0:0:0:0:
440,96,133661,1,8,0:0:0:0:
209,165,134040,6,2,B|139:108|42:130,1,176.000005371094,6|10,0:0|0:0,0:0:0:0:
104,232,134610,1,0,0:0:0:0:
104,232,134800,2,0,B|174:289|270:266,1,176.000005371094,2|8,0:0|0:0,0:0:0:0:
269,266,135559,2,0,B|269:314|309:346,1,88.000002685547,2|0,0:0|0:0,0:0:0:0:
376,264,135939,2,0,B|376:216|336:184,1,88.000002685547,8|0,0:0|0:0,0:0:0:0:
163,168,136319,2,0,B|204:192|252:173,1,88.000002685547,12|0,0:0|0:0,0:0:0:0:
352,31,136699,2,0,B|310:54|302:105,1,88.000002685547,8|0,0:0|0:0,0:0:0:0:
269,266,137078,5,6,0:0:0:0:
80,208,137458,2,0,L|-8:216,1,88.000002685547,8|0,0:0|0:0,0:0:0:0:
48,304,137838,2,0,L|136:296,1,88.000002685547,2|0,0:0|0:0,0:0:0:0:
269,266,138218,2,0,L|232:352,1,88.000002685547,8|0,0:0|0:0,0:0:0:0:
234,346,138597,1,2,0:0:0:0:
320,344,138787,1,8,0:0:0:0:
384,288,138977,1,8,0:0:0:0:
392,200,139167,1,8,0:0:0:0:
448,136,139357,1,2,0:0:0:0:
448,136,139737,1,8,0:0:0:0:
448,136,140116,6,0,B|488:120|488:120|536:128,1,88.000002685547,2|0,0:0|0:0,0:0:0:0:
496,216,140496,2,0,B|456:232|456:232|408:224,1,88.000002685547,8|0,0:0|0:0,0:0:0:0:
360,152,140876,2,0,B|272:112|176:160,2,176.000005371094,2|8|2,0:0|0:0|0:0,0:0:0:0:
411,224,141825,1,0,0:0:0:0:
384,312,142015,2,0,L|296:339,1,88.000002685547,8|8,0:0|0:0,0:0:0:0:
208,360,142395,2,0,L|235:272,1,88.000002685547,2|0,0:0|0:0,0:0:0:0:
320,248,142775,1,8,0:0:0:0:
144,296,143154,6,0,B|88:224|96:128,1,176.000005371094,6|8,0:0|0:0,0:0:0:0:
95,131,143724,1,0,0:0:0:0:
112,40,143914,2,0,B|158:26|224:24,1,88.000002685547,2|0,0:0|0:0,0:0:0:0:
288,40,144294,2,0,B|274:86|273:126,1,88.000002685547,8|0,0:0|0:0,0:0:0:0:
288,216,144673,1,2,0:0:0:0:
384,192,144863,1,8,0:0:0:0:
448,264,145053,1,8,0:0:0:0:
352,288,145243,1,8,0:0:0:0:
384,192,145433,1,2,0:0:0:0:
384,192,145813,1,8,0:0:0:0:
384,192,146192,5,6,0:0:0:0:
256,192,146287,12,4,148471,0:0:0:0:
208,264,149230,6,2,B|240:88,1,176.000005371094,6|10,0:0|0:0,0:0:0:0:
312,144,149800,1,0,0:0:0:0:
168,32,149990,2,2,B|136:208,1,176.000005371094,2|8,0:0|0:0,0:0:0:0:
125,294,150559,1,0,0:0:0:0:
208,264,150749,2,0,L|296:296,1,88.000002685547,2|0,0:0|0:0,0:0:0:0:
112,384,151129,2,0,L|24:352,1,88.000002685547,8|0,0:0|0:0,0:0:0:0:
136,205,151509,1,2,0:0:0:0:
