osu file format v14

[General]
AudioFilename: audio.mp3
AudioLeadIn: 0
PreviewTime: 36825
Countdown: 0
SampleSet: Soft
StackLeniency: 0.7
Mode: 0
LetterboxInBreaks: 0
WidescreenStoryboard: 1

[Editor]
DistanceSpacing: 1.2
BeatDivisor: 4
GridSize: 8
TimelineZoom: 1

[Metadata]
Title:Bubblegum Bitch
TitleUnicode:Bubblegum Bitch
Artist:Marina and the Diamonds
ArtistUnicode:Marina and the Diamonds
Creator:StarCastler
Version:Larto's Insane
Source:
Tags:ReFaller MkGuh Larto & electra heart marina lambrini diamandis Μαρίνα Λαμπρινή Διαμαντή electro synthie synthpop synth english pop dance electro-pop dance-pop
BeatmapID:2478300
BeatmapSetID:1189331

[Difficulty]
HPDrainRate:7
CircleSize:4
OverallDifficulty:8
ApproachRate:8
SliderMultiplier:2.4
SliderTickRate:2

[Events]
//Background and Video events
0,0,"tumblr_lxjn0an2j41qf4gzoo1_1280.jpg",0,0
//Break Periods
2,52009,57341
2,109937,115063
//Storyboard Layer 0 (Background)
//Storyboard Layer 1 (Fail)
//Storyboard Layer 2 (Pass)
//Storyboard Layer 3 (Foreground)
//Storyboard Layer 4 (Overlay)
//Storyboard Sound Samples

[TimingPoints]
370,379.746835443038,4,2,0,70,1,0
35971,-89.2857142857143,4,1,0,30,0,0
36161,-89.2857142857143,4,2,0,70,0,0
36445,-89.2857142857143,4,1,0,40,0,0
36541,-89.2857142857143,4,2,0,70,0,0
36825,-89.2857142857143,4,1,0,70,0,1
36920,-89.2857142857143,4,1,0,50,0,1
52015,-100,4,2,0,70,0,0
81540,-100,4,1,0,40,0,0
81730,-100,4,2,0,70,0,0
81921,-100,4,1,0,50,0,0
82110,-100,4,2,0,70,0,0
82395,-100,4,1,0,70,0,1
82490,-100,4,1,0,50,0,1
97585,-100,4,1,0,50,0,0
121888,-100,4,1,0,70,0,1
121983,-100,4,1,0,55,0,1
136983,-100,4,1,0,55,0,0
137078,-100,4,1,0,70,0,1
137173,-100,4,1,0,65,0,1
151414,-100,4,1,0,65,0,0
151509,-100,4,1,0,65,0,1
151604,-100,4,1,0,65,0,0

[Colours]
Combo1 : 243,131,201
Combo2 : 231,207,184
Combo3 : 224,150,197
Combo4 : 247,207,168

[HitObjects]
0,72,12142,6,0,B|92:159,1,120,8|0,0:0|0:0,0:0:0:0:
176,244,12521,1,4,0:0:0:0:
176,244,12711,1,0,0:0:0:0:
336,72,12901,2,0,B|428:159,1,120,8|0,0:0|0:0,0:0:0:0:
512,244,13281,1,2,0:0:0:0:
512,244,13471,1,0,0:0:0:0:
306,336,13661,2,0,B|280:376|232:376|205:336,1,120,8|0,0:0|0:0,0:0:0:0:
120,240,14040,1,4,0:0:0:0:
184,128,14230,1,0,0:0:0:0:
328,128,14420,1,8,0:0:0:0:
392,240,14610,1,0,0:0:0:0:
256,224,14800,2,0,B|256:104,1,120,2|8,0:0|0:0,0:0:0:0:
256,0,15180,1,8,0:0:0:0:
456,184,15559,6,0,B|488:240|456:304,1,120,4|0,0:0|0:0,0:0:0:0:
360,368,15939,2,0,B|295:367|256:308,1,120,8|0,0:0|0:0,0:0:0:0:
320,216,16319,1,2,0:0:0:0:
192,216,16509,1,0,0:0:0:0:
176,112,16699,2,0,B|176:64|256:-24|336:64|336:112,1,240,8|4,0:0|0:0,0:0:0:0:
400,224,17268,2,0,B|392:288|320:304,1,120,0|8,0:0|0:0,0:0:0:0:
192,304,17648,2,0,B|120:288|112:224,1,120,0|2,0:0|0:0,0:0:0:0:
256,160,18028,1,8,0:0:0:0:
256,160,18218,1,8,0:0:0:0:
488,152,18597,5,4,0:0:0:0:
456,40,18787,1,0,0:0:0:0:
376,112,18977,2,0,B|128:112,1,240,8|2,0:0|0:0,0:0:0:0:
56,40,19547,1,0,0:0:0:0:
24,152,19737,1,8,0:0:0:0:
200,288,20116,2,0,B|256:328|312:288,1,120,4|0,0:0|0:0,0:0:0:0:
387,180,20496,2,0,B|394:112|331:83,1,120,8|0,0:0|0:0,0:0:0:0:
180,83,20876,2,0,B|117:112|124:180,1,120,2|8,0:0|0:0,0:0:0:0:
200,288,21256,1,8,0:0:0:0:
384,352,21635,6,0,B|464:240|384:128,1,240,4|8,0:0|0:0,0:0:0:0:
256,176,22205,1,0,0:0:0:0:
128,128,22395,2,0,B|48:240|128:352,1,240,2|8,0:0|0:0,0:0:0:0:
256,312,22964,1,0,0:0:0:0:
360,232,23154,2,4,B|424:144|368:32|288:24,1,240,4|8,0:0|0:0,0:0:0:0:
184,72,23724,1,0,0:0:0:0:
304,120,23914,1,2,0:0:0:0:
200,208,24104,1,8,0:0:0:0:
96,296,24294,1,8,0:0:0:0:
96,296,24673,6,0,B|112:224|72:184,1,120,4|0,0:0|0:0,0:0:0:0:
0,88,25053,1,8,0:0:0:0:
72,184,25243,1,0,0:0:0:0:
192,232,25433,2,2,B|288:256|344:200|352:104,1,240,2|8,0:0|0:0,0:0:0:0:
464,32,26002,1,0,0:0:0:0:
464,168,26192,1,4,0:0:0:0:
368,256,26382,1,0,0:0:0:0:
224,192,26572,2,0,B|288:232|256:304,1,120,8|0,0:0|0:0,0:0:0:0:
104,272,26952,2,2,B|-15:197|44:63,2,240,2|8|4,0:0|0:0|0:0,0:0:0:0:
240,312,27901,5,0,0:0:0:0:
344,216,28091,2,0,B|344:144|432:120,1,120,8|0,0:0|0:0,0:0:0:0:
344,216,28471,2,2,B|288:256|240:216|200:128|112:192,2,240,2|8|4,0:0|0:0|0:0,0:0:0:0:
400,80,29420,1,0,0:0:0:0:
256,32,29610,1,8,0:0:0:0:
112,80,29800,1,0,0:0:0:0:
168,208,29990,2,2,B|192:280|256:296|328:280|344:208,1,240,2|8,0:0|0:0,0:0:0:0:
168,120,30559,1,10,0:0:0:0:
344,120,30749,5,12,0:0:0:0:
440,224,30939,1,0,0:0:0:0:
304,264,31129,2,0,B|280:328|192:320,1,120,8|0,0:0|0:0,0:0:0:0:
80,256,31509,2,2,B|152:200|144:112|104:72|64:56,1,240,2|8,0:0|0:0,0:0:0:0:
32,200,32078,1,0,0:0:0:0:
136,304,32268,1,4,0:0:0:0:
256,224,32458,1,0,0:0:0:0:
376,304,32648,1,8,0:0:0:0:
480,200,32838,1,0,0:0:0:0:
368,88,33028,2,2,B|256:8|144:88,2,240,2|8|4,0:0|0:0|0:0,0:0:0:0:
368,88,34167,5,8,0:0:0:0:
256,192,34357,1,0,0:0:0:0:
144,296,34547,2,2,B|256:376|368:296,2,240,2|8|4,0:0|0:0|0:0,0:0:0:0:
168,152,35496,1,0,0:0:0:0:
344,152,35686,1,8,0:0:0:0:
123,27,36066,2,6,B|390:27,2,268.800002563477
64,144,37015,5,0,0:0:0:0:
192,104,37205,2,0,B|272:96|304:160,1,134.400001281738,8|0,0:0|0:0,0:0:0:0:
336,288,37585,1,2,0:0:0:0:
224,224,37775,1,0,0:0:0:0:
360,216,37964,2,0,B|440:208|472:272,1,134.400001281738,8|0,0:0|0:0,0:0:0:0:
488,136,38344,2,0,B|368:56,1,134.400001281738,2|8,0:0|0:0,0:0:0:0:
135,61,38724,2,0,B|24:136,1,134.400001281738,8|8,0:0|0:0,0:0:0:0:
256,160,39104,1,6,0:0:0:0:
256,168,39483,1,8,0:0:0:0:
256,176,39863,6,0,B|344:184|328:288,1,134.400001281738,2|0,0:0|0:0,0:0:0:0:
464,328,40243,1,8,0:0:0:0:
416,176,40433,1,0,0:0:0:0:
256,176,40623,2,0,B|184:152|112:232|208:256|128:336|56:288,2,268.800002563477,2|8|2,0:0|0:0|0:0,0:0:0:0:
344,80,41572,1,0,0:0:0:0:
168,80,41762,1,8,0:0:0:0:
256,256,41952,1,8,0:0:0:0:
256,152,42142,1,6,0:0:0:0:
256,144,42521,1,8,0:0:0:0:
256,136,42901,6,0,B|192:96|128:136|104:208|176:272|240:240,1,268.800002563477,6|8,0:0|0:0,0:0:0:0:
344,312,43471,1,0,0:0:0:0:
456,240,43661,2,0,B|448:152|352:128,1,134.400001281738,2|0,0:0|0:0,0:0:0:0:
240,80,44040,2,0,B|248:168|344:192,1,134.400001281738,8|0,0:0|0:0,0:0:0:0:
344,56,44420,1,2,0:0:0:0:
344,56,44610,1,8,0:0:0:0:
168,56,44800,1,8,0:0:0:0:
168,56,44990,1,8,0:0:0:0:
256,176,45180,1,6,0:0:0:0:
256,184,45559,1,8,0:0:0:0:
256,192,45939,6,2,B|200:248|120:240|64:192|72:104,1,268.800002563477,6|8,0:0|0:0,0:0:0:0:
176,16,46509,1,0,0:0:0:0:
256,96,46699,2,2,B|312:40|392:48|448:96|440:184,1,268.800002563477,2|8,0:0|0:0,0:0:0:0:
408,312,47268,1,0,0:0:0:0:
256,296,47458,2,0,B|120:256,1,134.400001281738,6|0,0:0|0:0,0:0:0:0:
8,208,47838,2,0,B|110:110,1,134.400001281738,8|0,0:0|0:0,0:0:0:0:
208,32,48218,2,0,B|241:169,1,134.400001281738,2|8,0:0|0:0,0:0:0:0:
256,296,48597,1,8,0:0:0:0:
256,296,48977,6,2,B|312:352|392:344|448:296|440:208,1,268.800002563477,6|8,0:0|0:0,0:0:0:0:
336,120,49547,1,0,0:0:0:0:
256,200,49737,2,2,B|200:144|120:152|64:200|72:288,1,268.800002563477,2|8,0:0|0:0,0:0:0:0:
176,368,50306,1,0,0:0:0:0:
320,312,50496,2,0,B|416:192,1,134.400001281738,2|0,0:0|0:0,0:0:0:0:
152,256,50876,2,0,B|56:136,1,134.400001281738,8|0,0:0|0:0,0:0:0:0:
256,56,51256,1,6,0:0:0:0:
336,160,51445,1,8,0:0:0:0:
176,160,51635,1,8,0:0:0:0:
328,288,58091,54,0,B|256:336|176:312|136:256|128:208,1,240,4|8,0:0|0:0,0:0:0:0:
56,88,58661,1,0,0:0:0:0:
184,112,58851,2,0,B|256:160|336:136|376:80|384:32,1,240,2|8,0:0|0:0,0:0:0:0:
256,32,59420,1,0,0:0:0:0:
184,112,59610,2,0,B|112:136|96:224,1,120,6|0,0:0|0:0,0:0:0:0:
222,294,59990,2,0,B|279:344|363:314,1,120,8|0,0:0|0:0,0:0:0:0:
361,169,60370,2,0,B|376:95|308:37,1,120,2|8,0:0|0:0,0:0:0:0:
256,192,60749,1,8,0:0:0:0:
48,200,61129,6,0,B|48:328,2,120,4|0|8,0:0|0:0|0:0,0:0:0:0:
152,64,61699,1,0,0:0:0:0:
256,200,61888,2,0,B|256:328,2,120,2|0|8,0:0|0:0|0:0,0:0:0:0:
336,64,62458,1,0,0:0:0:0:
464,200,62648,2,0,B|464:328,1,120,4|0,0:0|0:0,0:0:0:0:
400,136,63028,2,0,B|280:136,1,120,8|0,0:0|0:0,0:0:0:0:
176,248,63407,1,2,0:0:0:0:
256,384,63597,1,8,0:0:0:0:
336,248,63787,1,8,0:0:0:0:
120,24,64167,5,4,0:0:0:0:
24,144,64357,1,0,0:0:0:0:
184,144,64547,2,0,B|256:160|336:72,1,120,8|0,0:0|0:0,0:0:0:0:
384,224,64926,1,2,0:0:0:0:
480,344,65116,1,0,0:0:0:0:
320,344,65306,2,0,B|248:360|168:272,1,120,8|0,0:0|0:0,0:0:0:0:
104,192,65686,1,6,0:0:0:0:
209,47,65876,1,0,0:0:0:0:
378,102,66066,1,8,0:0:0:0:
378,281,66256,1,0,0:0:0:0:
209,336,66445,2,0,B|184:264|240:208,1,120,2|8,0:0|0:0,0:0:0:0:
312,136,66825,1,8,0:0:0:0:
480,384,67205,6,0,B|392:392|352:344|304:296|304:224,1,240,4|8,0:0|0:0,0:0:0:0:
32,0,67964,2,0,B|120:-8|160:40|208:88|208:160,1,240,2|8,0:0|0:0,0:0:0:0:
187,328,68724,2,2,B|166:290|168:268|185:210|209:153|256:192|302:230|326:173|343:115|345:93|324:55,1,360,2|0,0:0|0:0,0:0:0:0:
168,128,69483,1,0,0:0:0:0:
344,256,69673,1,8,0:0:0:0:
256,104,69863,1,8,0:0:0:0:
0,88,70243,5,4,0:0:0:0:
80,192,70433,1,0,0:0:0:0:
208,168,70623,2,0,B|168:232|256:312|344:232|304:168,1,240,8|2,0:0|0:0,0:0:0:0:
256,16,71192,1,0,0:0:0:0:
256,16,71382,1,8,0:0:0:0:
48,224,71762,2,0,B|72:296|152:320,1,120,4|0,0:0|0:0,0:0:0:0:
256,336,72142,1,8,0:0:0:0:
385,310,72332,1,0,0:0:0:0:
464,224,72521,2,2,B|488:160|464:64|408:48|360:32,1,240,2|8,0:0|0:0,0:0:0:0:
256,112,73091,1,0,0:0:0:0:
176,224,73281,5,4,0:0:0:0:
346,228,73471,1,0,0:0:0:0:
490,192,73661,1,8,0:0:0:0:
454,47,73851,1,0,0:0:0:0:
312,88,74040,2,0,B|344:152|256:232|168:152|200:88,1,240,2|8,0:0|0:0,0:0:0:0:
256,248,74610,1,0,0:0:0:0:
256,248,74800,1,4,0:0:0:0:
136,304,74990,1,0,0:0:0:0:
288,344,75180,1,8,0:0:0:0:
136,384,75370,1,0,0:0:0:0:
48,256,75559,2,2,B|16:152|88:80|176:96,1,240,2|8,0:0|0:0,0:0:0:0:
288,16,76129,1,8,0:0:0:0:
400,80,76319,5,4,0:0:0:0:
424,216,76509,1,0,0:0:0:0:
304,152,76699,2,0,B|344:216|256:296|168:216|208:152,1,240,8|2,0:0|0:0,0:0:0:0:
256,16,77268,1,0,0:0:0:0:
256,16,77458,1,8,0:0:0:0:
256,248,77838,1,4,0:0:0:0:
376,304,78028,1,0,0:0:0:0:
224,344,78218,1,8,0:0:0:0:
376,384,78407,1,8,0:0:0:0:
464,256,78597,2,2,B|496:152|424:80|336:96,2,240,2|8|6,0:0|0:0|0:0,0:0:0:0:
336,168,79547,5,0,0:0:0:0:
256,304,79737,1,8,0:0:0:0:
176,168,79926,1,0,0:0:0:0:
352,256,80116,1,2,0:0:0:0:
256,24,80496,1,8,0:0:0:0:
160,256,80876,2,0,B|32:256,1,120,4|0,0:0|0:0,0:0:0:0:
256,200,81256,2,0,B|256:328,1,120,8|8,0:0|0:0,0:0:0:0:
352,256,81635,2,0,B|480:256,1,120,6|0,0:0|0:0,0:0:0:0:
256,112,82015,2,0,B|256:240,1,120,6|0,0:0|0:0,0:0:0:0:
256,112,82395,6,0,B|192:64|112:80|56:144|48:208,1,240,6|8,0:0|0:0,0:0:0:0:
48,328,82964,1,0,0:0:0:0:
57,173,83154,2,0,B|168:232,1,120,2|0,0:0|0:0,0:0:0:0:
312,288,83534,2,0,B|418:231,1,120,8|0,0:0|0:0,0:0:0:0:
384,80,83914,1,2,0:0:0:0:
296,208,84104,1,8,0:0:0:0:
128,80,84294,1,8,0:0:0:0:
216,208,84483,1,8,0:0:0:0:
256,40,84673,1,6,0:0:0:0:
256,32,85053,1,8,0:0:0:0:
256,24,85433,6,0,B|320:8|368:88,1,120,6|0,0:0|0:0,0:0:0:0:
424,192,85813,1,8,0:0:0:0:
416,320,86002,1,0,0:0:0:0:
424,192,86192,2,2,B|360:240|248:224|200:152,1,240,2|8,0:0|0:0,0:0:0:0:
80,192,86762,1,0,0:0:0:0:
200,80,86952,1,6,0:0:0:0:
368,136,87142,1,0,0:0:0:0:
312,304,87332,1,8,0:0:0:0:
144,248,87521,1,8,0:0:0:0:
256,152,87711,1,2,0:0:0:0:
256,160,88091,1,8,0:0:0:0:
256,168,88471,6,0,B|328:224|448:200|480:112,1,240,6|8,0:0|0:0,0:0:0:0:
360,64,89040,1,0,0:0:0:0:
232,80,89230,2,0,B|96:120,1,120,2|0,0:0|0:0,0:0:0:0:
176,232,89610,2,0,B|40:272,1,120,8|0,0:0|0:0,0:0:0:0:
176,368,89990,1,6,0:0:0:0:
336,368,90180,1,8,0:0:0:0:
176,368,90370,1,8,0:0:0:0:
336,368,90559,1,8,0:0:0:0:
256,240,90749,1,6,0:0:0:0:
256,232,91129,1,8,0:0:0:0:
256,224,91509,6,2,B|176:256|104:208|104:128|128:88,1,240,6|8,0:0|0:0,0:0:0:0:
256,40,92078,1,0,0:0:0:0:
336,152,92268,2,2,B|416:120|488:168|488:248|464:288,1,240,2|8,0:0|0:0,0:0:0:0:
328,328,92838,1,0,0:0:0:0:
184,320,93028,2,0,B|56:288,1,120,6|0,0:0|0:0,0:0:0:0:
152,208,93407,2,0,B|188:334,1,120,8|0,0:0|0:0,0:0:0:0:
72,296,93787,2,0,B|163:201,1,120,6|8,0:0|0:0,0:0:0:0:
176,80,94167,1,8,0:0:0:0:
328,248,94547,6,2,B|408:280|480:232|480:152|456:112,1,240,6|8,0:0|0:0,0:0:0:0:
328,64,95116,1,0,0:0:0:0:
248,176,95306,2,2,B|168:144|96:192|96:272|120:312,1,240,2|8,0:0|0:0,0:0:0:0:
256,352,95876,1,0,0:0:0:0:
336,224,96066,2,0,B|360:160|432:160,1,120,6|0,0:0|0:0,0:0:0:0:
176,40,96445,2,0,B|152:104|80:104,1,120,8|0,0:0|0:0,0:0:0:0:
256,144,96825,5,6,0:0:0:0:
152,248,97015,1,8,0:0:0:0:
256,144,97205,21,8,0:0:0:0:
360,248,97395,1,0,0:0:0:0:
256,144,97585,6,0,B|192:152|160:80,1,120,4|0,0:0|0:0,0:0:0:0:
32,144,97964,2,0,B|96:136|128:208,1,120,8|0,0:0|0:0,0:0:0:0:
304,272,98344,2,0,B|240:280|208:208,1,120,2|0,0:0|0:0,0:0:0:0:
80,272,98724,2,0,B|144:264|176:336,1,120,8|0,0:0|0:0,0:0:0:0:
256,144,99104,2,0,B|320:152|352:80,1,120,4|0,0:0|0:0,0:0:0:0:
480,144,99483,2,0,B|416:136|384:208,1,120,8|0,0:0|0:0,0:0:0:0:
208,272,99863,2,0,B|272:280|304:208,1,120,2|0,0:0|0:0,0:0:0:0:
432,272,100243,2,0,B|368:264|336:336,1,120,8|0,0:0|0:0,0:0:0:0:
504,216,100623,6,0,B|504:128|432:56|344:40,1,240,4|8,0:0|0:0,0:0:0:0:
256,104,101192,1,0,0:0:0:0:
150,43,101382,2,0,B|80:64|8:128|8:216,1,240,0|8,0:0|0:0,0:0:0:0:
80,344,101952,1,0,0:0:0:0:
184,248,102142,2,0,B|207:200|278:206|284:236|290:265|360:271|396:230,1,240,6|8,0:0|0:0,0:0:0:0:
296,128,102711,2,0,B|319:80|390:86|396:116|402:145|472:151|508:110,1,240,2|0,0:0|0:0,0:0:0:0:
400,16,103281,1,8,0:0:0:0:
256,48,103471,1,8,0:0:0:0:
216,192,103661,6,0,B|152:216|152:288,1,120,4|0,0:0|0:0,0:0:0:0:
8,272,104040,2,0,B|72:248|72:176,1,120,8|0,0:0|0:0,0:0:0:0:
280,100,104420,2,6,B|216:124|216:196,1,120,6|0,0:0|0:0,0:0:0:0:
72,180,104800,2,0,B|136:156|136:84,1,120,8|0,0:0|0:0,0:0:0:0:
296,192,105180,2,0,B|360:216|360:288,1,120,4|0,0:0|0:0,0:0:0:0:
504,272,105559,2,0,B|440:248|440:176,1,120,8|0,0:0|0:0,0:0:0:0:
232,100,105939,2,6,B|296:124|296:196,1,120,6|0,0:0|0:0,0:0:0:0:
440,180,106319,2,0,B|376:156|376:84,1,120,8|0,0:0|0:0,0:0:0:0:
424,272,106699,6,0,B|400:328|328:360|256:328|232:272,1,240,4|8,0:0|0:0,0:0:0:0:
72,272,107268,1,0,0:0:0:0:
88,80,107458,2,0,B|112:136|184:168|256:136|280:80,1,240,4|8,0:0|0:0,0:0:0:0:
440,80,108028,1,0,0:0:0:0:
184,21,108218,2,0,B|184:149,1,120,6|0,0:0|0:0,0:0:0:0:
344,192,108597,2,0,B|344:64,1,120,8|0,0:0|0:0,0:0:0:0:
184,243,108977,2,0,B|184:363,1,120,6|8,0:0|0:0,0:0:0:0:
344,312,109357,2,0,B|344:192,1,120,8|0,0:0|0:0,0:0:0:0:
256,96,109737,1,6,0:0:0:0:
368,320,115813,6,0,B|350:235|228:272|413:418|186:440|254:320|322:199|96:221|281:368|159:405|141:320,1,360,6|0,0:0|0:0,0:0:0:0:
104,216,116572,2,0,B|144:152|256:80|368:152|408:216,1,360,6|0,0:0|0:0,0:0:0:0:
512,175,117332,2,0,B|444:67|256:-54|67:67|0:175,1,600,6|0,0:0|0:0,0:0:0:0:
160,192,118471,1,8,0:0:0:0:
352,192,118661,1,0,0:0:0:0:
488,248,118851,6,0,B|480:336|384:376|304:336,1,240,4|8,0:0|0:0,0:0:0:0:
256,192,119420,1,0,0:0:0:0:
208,336,119610,2,0,B|128:376|32:336|24:248,1,240,6|8,0:0|0:0,0:0:0:0:
99,124,120180,1,8,0:0:0:0:
191,36,120370,2,0,B|265:82|246:164,1,120,4|0,0:0|0:0,0:0:0:0:
411,127,120749,2,0,B|365:201|283:182,1,120,8|0,0:0|0:0,0:0:0:0:
320,347,121129,2,0,B|246:301|265:219,1,120,4|8,0:0|0:0,0:0:0:0:
100,256,121509,2,0,B|146:182|228:201,1,120,8|8,0:0|0:0,0:0:0:0:
456,280,121888,38,0,B|512:216|504:104|456:48,1,240,6|8,0:0|0:0,0:0:0:0:
320,32,122458,1,0,0:0:0:0:
184,64,122648,2,0,B|48:64,1,120,2|0,0:0|0:0,0:0:0:0:
192,176,123028,2,0,B|328:176,1,120,8|0,0:0|0:0,0:0:0:0:
408,104,123407,1,2,0:0:0:0:
256,32,123597,1,8,0:0:0:0:
104,104,123787,1,8,0:0:0:0:
256,176,123977,1,8,0:0:0:0:
408,104,124167,1,6,0:0:0:0:
416,104,124547,1,8,0:0:0:0:
424,104,124926,6,0,B|456:168|400:216,1,120,2|0,0:0|0:0,0:0:0:0:
280,288,125306,2,0,B|248:224|304:176,1,120,8|0,0:0|0:0,0:0:0:0:
280,288,125686,2,0,B|176:328|104:264|96:176,2,240,2|8|2,0:0|0:0|0:0,0:0:0:0:
328,152,126635,1,0,0:0:0:0:
184,120,126825,1,8,0:0:0:0:
328,56,127015,1,8,0:0:0:0:
184,24,127205,1,6,0:0:0:0:
176,24,127585,1,8,0:0:0:0:
168,24,127964,6,0,B|96:80|96:160|144:224|200:240,1,240,6|8,0:0|0:0,0:0:0:0:
280,320,128534,1,0,0:0:0:0:
336,184,128724,2,0,B|384:224|448:208|472:176,1,120,2|0,0:0|0:0,0:0:0:0:
360,80,129104,2,0,B|312:40|248:56|224:88,1,120,8|0,0:0|0:0,0:0:0:0:
160,184,129483,1,2,0:0:0:0:
352,200,129673,1,8,0:0:0:0:
200,113,129863,1,8,0:0:0:0:
311,270,130053,1,8,0:0:0:0:
256,56,130243,1,6,0:0:0:0:
256,48,130623,1,8,0:0:0:0:
256,40,131002,6,2,B|144:48|96:104|72:176,1,240,6|8,0:0|0:0,0:0:0:0:
120,304,131572,1,0,0:0:0:0:
256,344,131762,2,2,B|368:336|416:280|440:208,1,240,6|8,0:0|0:0,0:0:0:0:
392,80,132332,1,0,0:0:0:0:
336,224,132521,2,0,B|256:136,1,120,6|0,0:0|0:0,0:0:0:0:
176,224,132901,2,0,B|256:136,1,120,8|0,0:0|0:0,0:0:0:0:
256,256,133281,2,0,B|256:128,1,120,2|8,0:0|0:0,0:0:0:0:
256,136,133661,2,0,B|256:16,1,120,8|0,0:0|0:0,0:0:0:0:
400,24,134040,6,2,B|480:112|424:224|328:232,1,240,6|8,0:0|0:0,0:0:0:0:
256,320,134610,1,0,0:0:0:0:
147,223,134800,2,2,B|96:200|29:129|112:24,1,240,6|8,0:0|0:0,0:0:0:0:
200,112,135370,1,0,0:0:0:0:
427,155,135559,2,0,B|309:130,1,120,6|0,0:0|0:0,0:0:0:0:
215,317,135939,2,0,B|239:199,1,120,8|0,0:0|0:0,0:0:0:0:
82,87,136319,2,0,B|199:111,1,120,6|8,0:0|0:0,0:0:0:0:
384,24,136699,5,8,0:0:0:0:
384,192,136888,21,8,0:0:0:0:
384,360,137078,6,0,B|288:360|208:304|184:240,1,240,6|8,0:0|0:0,0:0:0:0:
256,120,137648,1,0,0:0:0:0:
120,172,137838,2,0,B|-4:172,1,120,2|0,0:0|0:0,0:0:0:0:
88,56,138218,2,0,B|212:56,1,120,8|0,0:0|0:0,0:0:0:0:
344,108,138597,1,2,0:0:0:0:
354,291,138787,1,8,0:0:0:0:
237,149,138977,1,8,0:0:0:0:
414,196,139167,1,8,0:0:0:0:
243,262,139357,1,6,0:0:0:0:
236,272,139737,1,8,0:0:0:0:
228,280,140116,6,0,B|160:300|116:244,1,120,6|0,0:0|0:0,0:0:0:0:
24,140,140496,1,8,0:0:0:0:
168,152,140686,1,0,0:0:0:0:
148,8,140876,2,0,B|256:104|364:8,2,240,6|8|2,0:0|0:0|0:0,0:0:0:0:
92,140,141825,1,0,0:0:0:0:
184,248,142015,1,8,0:0:0:0:
328,248,142205,1,8,0:0:0:0:
420,140,142395,1,6,0:0:0:0:
428,148,142775,1,8,0:0:0:0:
436,156,143154,6,0,B|468:288|336:368,1,240,6|8,0:0|0:0,0:0:0:0:
204,360,143724,1,0,0:0:0:0:
132,236,143914,2,0,B|204:196|176:108,1,120,2|0,0:0|0:0,0:0:0:0:
320,92,144294,2,0,B|248:132|276:220,1,120,8|0,0:0|0:0,0:0:0:0:
392,268,144673,1,2,0:0:0:0:
248,268,144863,1,8,0:0:0:0:
120,180,145053,1,8,0:0:0:0:
264,180,145243,1,8,0:0:0:0:
256,40,145433,1,6,0:0:0:0:
256,48,145813,1,8,0:0:0:0:
256,56,146192,1,6,0:0:0:0:
256,192,146287,12,4,148471,0:0:0:0:
0,296,149230,22,2,B|112:376|224:296,1,240,6|8,0:0|0:0,0:0:0:0:
112,192,149800,1,0,0:0:0:0:
288,192,149990,2,2,B|400:272|512:192,1,240,6|8,0:0|0:0,0:0:0:0:
400,88,150559,1,0,0:0:0:0:
256,312,150749,2,0,B|384:280,1,120,6|0,0:0|0:0,0:0:0:0:
256,192,151129,2,0,B|128:160,1,120,8|0,0:0|0:0,0:0:0:0:
256,72,151509,1,2,0:0:0:0:
