osu file format v14

[General]
AudioFilename: audio.mp3
AudioLeadIn: 0
PreviewTime: 36825
Countdown: 0
SampleSet: Soft
StackLeniency: 0.7
Mode: 0
LetterboxInBreaks: 0
WidescreenStoryboard: 1

[Editor]
Bookmarks: 370,12521,24673,36825,52015,58091,70243,82395,97585,103661,109737,121888,137078,151509
DistanceSpacing: 1
BeatDivisor: 4
GridSize: 8
TimelineZoom: 1

[Metadata]
Title:Bubblegum Bitch
TitleUnicode:Bubblegum Bitch
Artist:Marina and the Diamonds
ArtistUnicode:Marina and the Diamonds
Creator:StarCastler
Version:Easy
Source:
Tags:ReFaller MkGuh Larto & electra heart marina lambrini diamandis Μαρίνα Λαμπρινή Διαμαντή electro synthie synthpop synth english pop dance electro-pop dance-pop
BeatmapID:2478298
BeatmapSetID:1189331

[Difficulty]
HPDrainRate:2
CircleSize:2
OverallDifficulty:3
ApproachRate:4
SliderMultiplier:1
SliderTickRate:1

[Events]
//Background and Video events
0,6,"tumblr_lxjn0an2j41qf4gzoo1_1280.jpg",0,0
//Break Periods
2,52009,56771
2,97579,102341
//Storyboard Layer 0 (Background)
//Storyboard Layer 1 (Fail)
//Storyboard Layer 2 (Pass)
//Storyboard Layer 3 (Foreground)
//Storyboard Layer 4 (Overlay)
//Storyboard Sound Samples

[TimingPoints]
370,379.746835443038,4,2,0,70,1,0
35971,-100,4,1,0,30,0,0
36161,-100,4,2,0,70,0,0
36445,-100,4,1,0,40,0,0
36825,-100,4,1,0,70,0,1
36920,-100,4,1,0,50,0,1
52015,-100,4,2,0,70,0,0
81540,-100,4,1,0,40,0,0
81730,-100,4,2,0,70,0,0
82015,-100,4,1,0,50,0,0
82395,-100,4,1,0,70,0,1
82490,-100,4,1,0,50,0,1
97585,-100,4,1,0,50,0,0
121888,-100,4,1,0,70,0,1
121983,-100,4,1,0,55,0,1
136983,-100,4,1,0,55,0,0
137078,-100,4,1,0,70,0,1
137173,-100,4,1,0,65,0,1
151414,-100,4,1,0,65,0,0
151509,-100,4,1,0,65,0,1
151604,-100,4,1,0,65,0,0

[Colours]
Combo1 : 243,131,201
Combo2 : 231,207,184
Combo3 : 224,150,197
Combo4 : 247,207,168

[HitObjects]
352,192,12142,5,8,0:0:0:0:
352,288,12521,2,0,B|256:336|160:288,1,200,4|2,0:0|0:0,0:0:0:0:
160,96,14040,1,2,0:0:0:0:
256,72,14420,1,8,0:0:0:0:
352,96,14800,1,4,0:0:0:0:
472,264,15559,6,0,B|480:320|440:360|368:360|336:312,1,200,4|2,0:0|0:0,0:0:0:0:
256,256,16699,1,8,0:0:0:0:
176,312,17078,2,0,L|72:312,2,100,2|8|4,0:0|0:0|0:0,0:0:0:0:
160,96,18597,6,0,B|256:48|352:96,1,200,4|2,0:0|0:0,0:0:0:0:
256,288,20116,1,2,0:0:0:0:
256,192,20496,1,8,0:0:0:0:
256,88,20876,1,4,0:0:0:0:
65,96,21635,6,0,B|153:96|200:192|153:288|65:288,1,300,4|8,0:0|0:0,0:0:0:0:
64,192,23154,1,4,0:0:0:0:
256,192,23914,1,2,0:0:0:0:
256,0,24673,5,4,0:0:0:0:
352,0,25053,2,0,B|424:0|464:96|400:144,1,200,10|8,0:0|0:0,0:0:0:0:
312,192,26192,1,4,0:0:0:0:
400,240,26572,1,8,0:0:0:0:
448,328,26952,1,4,0:0:0:0:
256,328,27711,6,0,B|144:344|48:264|56:160,1,300,4|8,0:0|0:0,0:0:0:0:
56,64,29230,1,4,0:0:0:0:
128,8,29610,1,8,0:0:0:0:
200,64,29990,1,4,0:0:0:0:
256,272,30749,5,4,0:0:0:0:
312,64,31509,1,2,0:0:0:0:
384,8,31888,1,8,0:0:0:0:
456,64,32268,2,0,B|503:97|495:153,1,100,4|8,0:0|0:0,0:0:0:0:
400,200,33028,2,0,B|353:233|361:289,1,100,2|8,0:0|0:0,0:0:0:0:
360,376,33787,5,4,0:0:0:0:
152,376,34547,1,4,0:0:0:0:
208,192,35306,1,4,0:0:0:0:
304,192,35686,1,8,0:0:0:0:
256,104,36066,2,2,L|256:0,1,100,14|14,0:0|0:0,0:0:0:0:
160,0,36825,5,6,0:0:0:0:
64,16,37205,1,8,0:0:0:0:
24,104,37585,1,2,0:0:0:0:
64,288,38344,2,2,B|112:320|160:288|208:256|256:288,1,200,2|6,0:0|0:0,0:0:0:0:
352,320,39483,1,8,0:0:0:0:
448,288,39863,5,2,0:0:0:0:
480,192,40243,1,8,0:0:0:0:
448,96,40623,1,2,0:0:0:0:
256,96,41382,2,2,B|224:144|256:192|288:240|256:288,1,200,2|6,0:0|0:0,0:0:0:0:
64,320,42901,5,6,0:0:0:0:
88,224,43281,1,8,0:0:0:0:
184,192,43661,1,2,0:0:0:0:
352,336,44420,2,2,B|344:240|456:272|448:176,1,200,2|6,0:0|0:0,0:0:0:0:
448,80,45559,1,8,0:0:0:0:
344,80,45939,5,2,0:0:0:0:
256,48,46319,1,8,0:0:0:0:
168,80,46699,1,2,0:0:0:0:
168,304,47458,2,2,B|216:288|256:336|256:336|296:288|344:304,1,200,2|6,0:0|0:0,0:0:0:0:
352,96,48977,5,6,0:0:0:0:
256,96,49357,1,8,0:0:0:0:
160,96,49737,1,2,0:0:0:0:
160,288,50496,1,2,0:0:0:0:
256,288,50876,1,8,0:0:0:0:
352,288,51256,1,6,0:0:0:0:
112,336,58091,6,0,B|160:360|208:336,1,100,4|8,0:0|0:0,0:0:0:0:
304,336,58851,2,0,B|352:360|400:336,1,100,2|8,0:0|0:0,0:0:0:0:
496,336,59610,1,2,0:0:0:0:
496,144,60370,1,4,0:0:0:0:
336,240,61129,6,0,B|312:288|256:312|200:288|176:240,1,200,4|2,0:0|0:0,0:0:0:0:
256,192,62268,1,8,0:0:0:0:
336,144,62648,2,0,B|312:96|256:72|200:96|176:144,1,200,2|6,0:0|0:0,0:0:0:0:
64,336,64167,5,4,0:0:0:0:
160,336,64547,2,0,B|240:336|280:240|256:192,1,200,10|8,0:0|0:0,0:0:0:0:
256,96,65686,2,0,L|152:96,2,100,2|8|4,0:0|0:0|0:0,0:0:0:0:
448,96,67205,6,0,B|360:96|312:192|360:288|448:288,1,300,4|8,0:0|0:0,0:0:0:0:
448,192,68724,1,4,0:0:0:0:
256,192,69483,1,2,0:0:0:0:
256,376,70243,5,4,0:0:0:0:
352,376,70623,2,0,B|400:352|424:296|400:240|352:216,1,200,10|8,0:0|0:0,0:0:0:0:
256,216,71762,1,4,0:0:0:0:
160,216,72142,2,0,B|112:240|88:296|112:352|160:376,1,200,10|8,0:0|0:0,0:0:0:0:
208,296,73281,5,4,0:0:0:0:
208,104,74040,1,2,0:0:0:0:
304,104,74420,1,8,0:0:0:0:
352,192,74800,1,4,0:0:0:0:
160,192,75559,1,4,0:0:0:0:
112,8,76319,5,4,0:0:0:0:
17,8,76699,1,10,0:0:0:0:
64,192,77458,1,8,0:0:0:0:
112,280,77838,2,0,B|184:328|256:280|328:232|400:280,1,300,4|8,0:0|0:0,0:0:0:0:
448,368,79357,5,4,0:0:0:0:
256,368,80116,1,4,0:0:0:0:
208,192,80876,1,4,0:0:0:0:
304,192,81256,1,8,0:0:0:0:
256,104,81635,2,2,L|256:0,1,100,6|14,0:0|0:0,0:0:0:0:
352,0,82395,5,6,0:0:0:0:
448,16,82775,1,8,0:0:0:0:
488,104,83154,1,2,0:0:0:0:
448,288,83914,2,2,B|400:320|352:288|304:256|256:288,1,200,2|6,0:0|0:0,0:0:0:0:
168,328,85053,1,8,0:0:0:0:
72,328,85433,5,2,0:0:0:0:
24,240,85813,1,8,0:0:0:0:
72,152,86192,1,2,0:0:0:0:
256,96,86952,2,2,B|288:144|256:192|224:240|256:288,1,200,2|6,0:0|0:0,0:0:0:0:
424,376,88471,5,6,0:0:0:0:
472,288,88851,1,8,0:0:0:0:
448,192,89230,1,2,0:0:0:0:
448,0,89990,2,2,B|352:-8|384:104|288:96,1,200,2|6,0:0|0:0,0:0:0:0:
120,8,91509,5,2,0:0:0:0:
24,32,91888,1,8,0:0:0:0:
0,128,92268,1,2,0:0:0:0:
160,240,93028,2,2,B|256:288|352:240,1,200,2|6,0:0|0:0,0:0:0:0:
512,144,94547,5,6,0:0:0:0:
432,88,94926,1,8,0:0:0:0:
352,144,95306,1,2,0:0:0:0:
160,144,96066,1,2,0:0:0:0:
80,88,96445,1,8,0:0:0:0:
0,144,96825,1,6,0:0:0:0:
256,264,103661,5,4,0:0:0:0:
336,312,104040,2,0,B|312:360|256:384|200:360|176:312,1,200,10|8,0:0|0:0,0:0:0:0:
160,120,105559,1,8,0:0:0:0:
256,120,105939,1,2,0:0:0:0:
352,120,106319,1,8,0:0:0:0:
256,192,106699,12,4,108218,0:0:0:0:
32,32,109737,5,6,0:0:0:0:
144,192,110496,1,2,0:0:0:0:
256,32,111256,2,2,B|328:-8|424:0|472:88|448:160,1,300,6|8,0:0|0:0,0:0:0:0:
352,192,112775,5,6,0:0:0:0:
160,192,113534,1,2,0:0:0:0:
112,376,114294,2,2,B|256:304|400:376,1,300,6|10,0:0|0:0,0:0:0:0:
496,376,115813,5,6,0:0:0:0:
512,192,116572,1,2,0:0:0:0:
384,72,117332,2,2,B|344:8|256:-16|168:8|128:72,1,300,6|8,0:0|0:0,0:0:0:0:
160,168,118851,6,0,B|112:264|160:360,1,200,6|2,0:0|0:0,0:0:0:0:
351,359,120370,2,0,B|400:264|351:167,1,200,6|2,0:0|0:0,0:0:0:0:
496,296,121888,5,6,0:0:0:0:
440,376,122268,1,8,0:0:0:0:
352,336,122648,1,2,0:0:0:0:
160,336,123407,2,2,L|56:336,2,100,2|8|6,0:0|0:0|0:0,0:0:0:0:
256,336,124547,1,8,0:0:0:0:
328,264,124926,5,2,0:0:0:0:
304,72,125686,1,2,0:0:0:0:
208,72,126066,1,8,0:0:0:0:
160,160,126445,2,2,B|144:208|176:256,2,100,2|8|6,0:0|0:0|0:0,0:0:0:0:
352,88,127964,5,6,0:0:0:0:
256,56,128344,1,8,0:0:0:0:
160,88,128724,1,2,0:0:0:0:
160,280,129483,2,2,B|208:312|256:280|304:248|352:280,1,200,2|6,0:0|0:0,0:0:0:0:
448,312,130623,1,8,0:0:0:0:
448,216,131002,6,2,B|440:104|344:56,1,200
256,104,132142,1,8,0:0:0:0:
168,56,132521,2,2,B|72:104|64:216,1,200,2|6,0:0|0:0,0:0:0:0:
160,368,134040,5,6,0:0:0:0:
256,368,134420,1,8,0:0:0:0:
352,368,134800,1,2,0:0:0:0:
256,192,135559,1,2,0:0:0:0:
256,96,135939,1,8,0:0:0:0:
256,0,136319,1,6,0:0:0:0:
160,192,137078,6,0,L|208:280,1,100,6|8,0:0|0:0,0:0:0:0:
304,280,137838,2,0,L|352:192,1,100,2|8,0:0|0:0,0:0:0:0:
352,96,138597,1,2,0:0:0:0:
256,96,138977,1,8,0:0:0:0:
160,96,139357,1,6,0:0:0:0:
256,288,140116,5,2,0:0:0:0:
208,96,140876,1,2,0:0:0:0:
304,96,141256,1,8,0:0:0:0:
352,192,141635,2,2,B|256:240|160:192,1,200,2|6,0:0|0:0,0:0:0:0:
120,8,143154,6,0,L|208:56,1,100,6|8,0:0|0:0,0:0:0:0:
304,56,143914,2,0,L|392:8,1,100,2|8,0:0|0:0,0:0:0:0:
488,8,144673,1,2,0:0:0:0:
512,104,145053,1,8,0:0:0:0:
488,200,145433,1,6,0:0:0:0:
336,96,146192,6,2,B|312:48|256:24|200:48|176:96,1,200
176,288,147711,1,2,0:0:0:0:
256,344,148091,1,8,0:0:0:0:
336,288,148471,1,6,0:0:0:0:
256,192,149230,12,2,151509,0:0:0:0:
