osu file format v14

[General]
AudioFilename: audio.mp3
AudioLeadIn: 0
PreviewTime: 38775
Countdown: 0
SampleSet: None
StackLeniency: 0.7
Mode: 0
LetterboxInBreaks: 0
WidescreenStoryboard: 1

[Editor]
Bookmarks: 14566,38870,54060,60136,84440,99630
DistanceSpacing: 1.2
BeatDivisor: 4
GridSize: 4
TimelineZoom: 1

[Metadata]
Title:Bubblegum Bitch
TitleUnicode:Bubblegum Bitch
Artist:Marina and the Diamonds
ArtistUnicode:Marina and the Diamonds
Creator:Bakari
Version:Simple
Source:
Tags:& Liuth electra heart marina lambrini diamandis Μαρίνα Λαμπρινή Διαμαντή electro synthie synthpop synth
BeatmapID:1410983
BeatmapSetID:666700

[Difficulty]
HPDrainRate:2
CircleSize:3
OverallDifficulty:2
ApproachRate:3
SliderMultiplier:0.8
SliderTickRate:1

[Events]
//Background and Video events
0,0,"bf6dee17bf8657f1058464d0f9035f73.jpg",0,0
//Break Periods
2,54060,58696
2,111602,117937
//Storyboard Layer 0 (Background)
//Storyboard Layer 1 (Fail)
//Storyboard Layer 2 (Pass)
//Storyboard Layer 3 (Foreground)
//Storyboard Sound Samples

[TimingPoints]
2415,379.746835443038,4,3,0,52,1,0
38870,-100,4,1,0,69,0,1
44566,-100,4,1,0,69,0,0
44946,-100,4,1,0,69,0,1
54060,-100,4,3,0,52,0,0
84440,-100,4,1,0,69,0,1
90136,-100,4,1,0,69,0,0
90516,-100,4,1,0,69,0,1
99630,-100,4,3,0,52,0,0
123933,-100,4,1,0,69,0,1
129630,-100,4,1,0,69,0,0
130009,-100,4,1,0,69,0,1
138744,-100,4,1,0,69,0,0
139123,-100,4,1,0,69,0,1
144820,-100,4,1,0,69,0,0
145199,-100,4,1,0,69,0,1
153554,-100,4,1,0,69,0,0

[Colours]
Combo1 : 255,192,0
Combo2 : 198,113,113
Combo3 : 169,159,75
Combo4 : 209,39,69
SliderBorder : 252,192,0
SliderTrackOverride : 45,45,45

[HitObjects]
56,268,14187,5,8,0:0:0:0:
120,196,14566,2,0,L|112:108,2,80,0|8|0,0:0|0:0|0:0,0:0:0:0:
208,236,15706,1,8,0:0:0:0:
300,268,16085,2,0,L|308:356,2,80,0|8|0,0:0|0:0|0:0,0:0:0:0:
424,124,17604,6,0,P|456:164|472:284,1,160,0|0,0:0|0:0,0:0:0:0:
424,348,18744,1,8,0:0:0:0:
344,296,19123,2,0,L|356:212,2,80,0|8|0,0:0|0:0|0:0,0:0:0:0:
160,344,20642,6,0,P|128:328|72:316,1,80,0|8,0:0|0:0,0:0:0:0:
48,228,21402,2,0,P|92:216|128:196,1,80,0|8,0:0|0:0,0:0:0:0:
168,116,22161,2,0,L|160:24,2,80,0|8|0,0:0|0:0|0:0,0:0:0:0:
260,284,23680,5,0,0:0:0:0:
344,236,24060,1,8,0:0:0:0:
432,196,24440,2,0,L|424:116,1,80,0|8,0:0|0:0,0:0:0:0:
344,64,25199,2,0,L|336:156,1,80,0|8,0:0|0:0,0:0:0:0:
256,196,25959,1,0,0:0:0:0:
132,48,26718,5,0,0:0:0:0:
44,88,27098,2,0,P|24:116|8:176,1,80,8|0,0:0|0:0,0:0:0:0:
16,256,27858,1,8,0:0:0:0:
208,276,28617,2,0,L|204:192,2,80,8|0|8,0:0|0:0|0:0,0:0:0:0:
304,256,29756,5,0,0:0:0:0:
396,232,30136,2,0,L|400:316,2,80,8|0|8,0:0|0:0|0:0,0:0:0:0:
492,68,31655,2,0,P|456:80|344:24,1,160,8|8,0:0|0:0,0:0:0:0:
160,60,33174,6,0,L|76:48,2,80,8|0|8,0:0|0:0|0:0,0:0:0:0:
216,136,34313,1,0,0:0:0:0:
136,188,34693,2,0,P|112:164|72:144,2,80,8|0|8,0:0|0:0|0:0,0:0:0:0:
144,284,35832,5,0,0:0:0:0:
228,240,36212,1,8,0:0:0:0:
324,224,36592,1,0,0:0:0:0:
416,256,36971,1,8,0:0:0:0:
504,220,37351,2,0,L|496:136,1,80,0|8,0:0|0:0,0:0:0:0:
400,140,38111,2,0,L|392:60,1,80,0|8,0:0|0:0,0:0:0:0:
300,36,38870,6,2,P|272:60|140:68,1,160,6|2,0:0|0:0,0:0:0:0:
86,5,40009,1,8,0:0:0:0:
18,72,40389,1,2,0:0:0:0:
85,139,40769,1,8,0:0:0:0:
17,206,41149,1,2,0:0:0:0:
152,340,41908,6,0,P|228:320|316:320,1,160,2|2,0:0|0:0,0:0:0:0:
404,340,43047,1,8,0:0:0:0:
480,288,43427,2,2,P|492:248|496:208,1,80,2|8,0:0|0:0,0:0:0:0:
464,120,44187,1,2,0:0:0:0:
284,52,44946,6,2,L|120:64,1,160,6|2,0:0|0:0,0:0:0:0:
36,24,46085,1,8,0:0:0:0:
8,116,46465,1,2,0:0:0:0:
80,180,46845,1,8,0:0:0:0:
36,264,47225,1,2,0:0:0:0:
200,360,47984,6,0,P|224:324|236:284,1,80,2|8,0:0|0:0,0:0:0:0:
332,280,48744,2,2,P|320:240|316:192,1,80,2|8,0:0|0:0,0:0:0:0:
324,108,49503,1,2,0:0:0:0:
256,40,49883,1,8,0:0:0:0:
188,107,50263,1,2,0:0:0:0:
76,252,51022,6,0,P|88:284|96:336,1,80,2|8,0:0|0:0,0:0:0:0:
188,360,51782,2,2,P|200:316|220:280,1,80,2|8,0:0|0:0,0:0:0:0:
260,200,52541,1,2,0:0:0:0:
356,196,52921,1,8,0:0:0:0:
416,272,53301,1,6,0:0:0:0:
76,148,60136,6,0,P|76:112|88:64,1,80,0|8,0:0|0:0,0:0:0:0:
180,40,60896,2,0,P|180:76|168:124,1,80,0|8,0:0|0:0,0:0:0:0:
232,192,61655,2,0,L|320:180,2,80,0|8|0,0:0|0:0|0:0,0:0:0:0:
372,324,63174,6,0,L|460:312,2,80,0|8|0,0:0|0:0|0:0,0:0:0:0:
292,272,64313,1,8,0:0:0:0:
196,288,64693,1,0,0:0:0:0:
120,344,65073,2,0,P|56:320|12:236,1,160,8|8,0:0|0:0,0:0:0:0:
52,156,66212,6,0,L|144:148,1,80,0|8,0:0|0:0,0:0:0:0:
224,180,66971,2,0,L|316:172,1,80,0|8,0:0|0:0,0:0:0:0:
360,96,67731,1,0,0:0:0:0:
416,176,68111,2,0,P|396:224|380:348,1,160,8|8,0:0|0:0,0:0:0:0:
284,344,69250,6,0,L|28:328,1,240,0|8,0:0|0:0,0:0:0:0:
20,236,70769,2,0,L|265:253,1,240,0|8,0:0|0:0,0:0:0:0:
336,192,72288,5,0,0:0:0:0:
384,276,72668,2,0,P|368:308|360:360,2,80,8|0|8,0:0|0:0|0:0,0:0:0:0:
492,116,74187,2,0,P|428:96|376:12,1,160,8|8,0:0|0:0,0:0:0:0:
292,64,75326,5,0,0:0:0:0:
200,32,75706,2,0,L|116:24,2,80,8|0|8,0:0|0:0|0:0,0:0:0:0:
268,212,77225,1,8,0:0:0:0:
188,268,77604,2,0,L|104:260,1,80,0|8,0:0|0:0,0:0:0:0:
60,176,78364,5,0,0:0:0:0:
132,112,78744,2,0,P|144:80|152:20,2,80,8|0|8,0:0|0:0|0:0,0:0:0:0:
300,208,80263,2,0,P|320:244|344:368,1,160,8|8,0:0|0:0,0:0:0:0:
256,324,81402,5,0,0:0:0:0:
176,376,81782,1,8,0:0:0:0:
96,324,82161,1,0,0:0:0:0:
8,364,82541,1,8,0:0:0:0:
60,180,83301,1,8,0:0:0:0:
136,236,83680,2,0,L|216:232,1,80,0|8,0:0|0:0,0:0:0:0:
308,264,84440,6,2,P|312:216|348:96,1,160,6|2,0:0|0:0,0:0:0:0:
404,36,85579,1,8,0:0:0:0:
480,92,85959,1,2,0:0:0:0:
420,168,86339,1,8,0:0:0:0:
488,232,86718,1,2,0:0:0:0:
328,340,87478,6,2,L|156:328,1,160,2|2,0:0|0:0,0:0:0:0:
116,248,88617,1,8,0:0:0:0:
184,180,88997,2,2,P|196:144|204:96,1,80,2|10,0:0|0:0,0:0:0:0:
144,28,89756,1,2,0:0:0:0:
16,168,90516,6,2,L|4:344,1,160,6|2,0:0|0:0,0:0:0:0:
92,368,91655,1,8,0:0:0:0:
152,292,92035,1,2,0:0:0:0:
100,212,92415,1,8,0:0:0:0:
172,148,92794,1,2,0:0:0:0:
351,79,93554,6,2,L|449:86,1,80,2|8,0:0|0:0,0:0:0:0:
463,174,94313,2,2,L|365:167,1,80,0|8,0:0|0:0,0:0:0:0:
298,213,95073,1,2,0:0:0:0:
327,304,95452,1,8,0:0:0:0:
246,356,95832,1,2,0:0:0:0:
136,205,96592,6,0,P|92:221|16:321,1,160,2|2,0:0|0:0,0:0:0:0:
98,361,97731,1,8,0:0:0:0:
193,368,98111,1,2,0:0:0:0:
263,303,98490,1,8,0:0:0:0:
208,382,98870,1,2,0:0:0:0:
104,104,99630,6,0,P|76:136|44:256,1,160,2|0,0:0|0:0,0:0:0:0:
92,332,100769,1,8,0:0:0:0:
208,180,101528,1,8,0:0:0:0:
288,232,101908,2,0,L|279:330,1,80,0|8,0:0|0:0,0:0:0:0:
360,368,102668,5,0,0:0:0:0:
444,320,103047,2,0,L|453:144,1,160,8|8,0:0|0:0,0:0:0:0:
364,120,104187,2,0,L|359:202,1,80,0|8,0:0|0:0,0:0:0:0:
280,256,104946,1,0,0:0:0:0:
204,196,105326,1,8,0:0:0:0:
60,72,106085,6,0,P|36:84|-4:128,2,80,8|0|8,0:0|0:0|0:0,0:0:0:0:
252,80,107604,2,0,P|276:68|316:24,2,80,8|0|8,0:0|0:0|0:0,0:0:0:0:
160,104,108744,5,0,0:0:0:0:
212,184,109123,2,0,L|200:352,1,160,8|0,0:0|0:0,0:0:0:0:
296,336,110263,2,0,L|304:208,2,120
256,192,119377,12,0,122415,0:0:0:0:
212,36,123933,6,2,P|240:60|372:68,1,160,6|2,0:0|0:0,0:0:0:0:
426,5,125072,1,8,0:0:0:0:
494,72,125452,1,2,0:0:0:0:
427,139,125832,1,8,0:0:0:0:
495,206,126212,1,2,0:0:0:0:
360,340,126971,6,2,P|284:320|196:320,1,160,2|2,0:0|0:0,0:0:0:0:
108,340,128110,1,8,0:0:0:0:
32,288,128490,2,0,P|20:248|16:208,1,80,2|8,0:0|0:0,0:0:0:0:
48,120,129250,1,2,0:0:0:0:
228,52,130009,6,2,L|392:64,1,160,6|2,0:0|0:0,0:0:0:0:
476,24,131148,1,8,0:0:0:0:
504,116,131528,1,2,0:0:0:0:
432,180,131908,1,8,0:0:0:0:
476,264,132288,1,2,0:0:0:0:
312,360,133047,6,2,P|288:324|276:284,1,80,2|8,0:0|0:0,0:0:0:0:
180,280,133807,2,0,P|192:240|196:192,1,80,2|8,0:0|0:0,0:0:0:0:
188,108,134566,1,2,0:0:0:0:
256,40,134946,1,8,0:0:0:0:
324,107,135326,1,2,0:0:0:0:
436,252,136085,6,2,P|424:284|416:336,1,80,2|8,0:0|0:0,0:0:0:0:
324,360,136845,2,0,P|312:316|292:280,1,80,2|8,0:0|0:0,0:0:0:0:
252,200,137604,1,2,0:0:0:0:
156,196,137984,5,8,0:0:0:0:
96,272,138364,1,2,0:0:0:0:
287,263,139123,6,2,P|291:215|327:95,1,160,6|2,0:0|0:0,0:0:0:0:
395,46,140262,1,8,0:0:0:0:
480,92,140642,1,2,0:0:0:0:
420,168,141022,1,8,0:0:0:0:
488,232,141401,1,2,0:0:0:0:
328,340,142161,6,2,L|156:328,1,160,2|2,0:0|0:0,0:0:0:0:
116,248,143300,1,8,0:0:0:0:
184,180,143680,2,2,P|196:144|204:96,1,80,2|10,0:0|0:0,0:0:0:0:
144,28,144439,1,2,0:0:0:0:
16,168,145199,6,2,L|4:344,1,160,6|2,0:0|0:0,0:0:0:0:
92,368,146338,1,8,0:0:0:0:
152,292,146718,1,2,0:0:0:0:
100,212,147098,1,8,0:0:0:0:
172,148,147477,1,2,0:0:0:0:
351,79,148237,6,2,L|449:86,1,80,2|8,0:0|0:0,0:0:0:0:
463,174,148996,2,2,L|365:167,1,80,0|8,0:0|0:0,0:0:0:0:
298,213,149756,1,2,0:0:0:0:
327,304,150135,1,8,0:0:0:0:
246,356,150515,1,2,0:0:0:0:
136,205,151275,6,0,P|92:221|16:321,1,160,2|2,0:0|0:0,0:0:0:0:
98,361,152414,1,8,0:0:0:0:
193,368,152794,1,2,0:0:0:0:
263,303,153173,1,8,0:0:0:0:
208,382,153553,1,2,0:0:0:0:
