osu file format v14

[General]
AudioFilename: audio.mp3
AudioLeadIn: 0
PreviewTime: 38775
Countdown: 0
SampleSet: Normal
StackLeniency: 0.7
Mode: 0
LetterboxInBreaks: 0
WidescreenStoryboard: 0

[Editor]
Bookmarks: 14566,38870,54060,60136,84440,99630
DistanceSpacing: 1.35
BeatDivisor: 2
GridSize: 4
TimelineZoom: 1

[Metadata]
Title:Bubblegum Bitch
TitleUnicode:Bubblegum Bitch
Artist:Marina and the Diamonds
ArtistUnicode:Marina and the Diamonds
Creator:Bakari
Version:Queen
Source:
Tags:& Liuth electra heart marina lambrini diamandis Μαρίνα Λαμπρινή Διαμαντή electro synthie synthpop synth
BeatmapID:1410938
BeatmapSetID:666700

[Difficulty]
HPDrainRate:6
CircleSize:4
OverallDifficulty:7
ApproachRate:8
SliderMultiplier:1.7
SliderTickRate:2

[Events]
//Background and Video events
0,0,"bf6dee17bf8657f1058464d0f9035f73.jpg",0,0
//Break Periods
//Storyboard Layer 0 (Background)
//Storyboard Layer 1 (Fail)
//Storyboard Layer 2 (Pass)
//Storyboard Layer 3 (Foreground)
//Storyboard Sound Samples

[TimingPoints]
2415,379.746835443038,4,3,0,52,1,0
38870,-100,4,1,0,76,0,1
44566,-100,4,1,0,69,0,0
44946,-100,4,1,0,76,0,1
54060,-100,4,3,0,52,0,0
84440,-100,4,1,0,76,0,1
90136,-100,4,1,0,76,0,0
90516,-100,4,1,0,76,0,1
99630,-100,4,3,0,52,0,0
123933,-100,4,1,0,76,0,1
129630,-100,4,1,0,76,0,0
130009,-100,4,1,0,76,0,1
138744,-100,4,1,0,76,0,0
139123,-100,4,1,0,76,0,1
144820,-100,4,1,0,76,0,0
145199,-100,4,1,0,76,0,1
153554,-100,4,1,0,76,0,0

[Colours]
Combo1 : 255,192,0
Combo2 : 198,113,113
Combo3 : 169,159,75
Combo4 : 209,39,69
SliderBorder : 252,192,0
SliderTrackOverride : 45,45,45

[HitObjects]
360,99,14187,6,0,P|352:60|348:8,1,85,8|0,0:0|0:0,0:0:0:0:
437,173,14566,5,0,0:0:0:0:
445,164,14756,1,0,0:0:0:0:
335,196,14946,1,8,0:0:0:0:
343,187,15136,1,0,0:0:0:0:
230,207,15326,1,0,0:0:0:0:
238,198,15516,1,0,0:0:0:0:
270,47,15706,2,0,P|284:104|286:152,1,85,8|0,0:0|0:0,0:0:0:0:
276,338,16085,6,0,P|280:295|292:254,1,85
138,205,16465,2,0,L|226:194,1,85,8|0,0:0|0:0,0:0:0:0:
391,200,16845,2,0,L|201:186,1,170,0|8,0:0|0:0,0:0:0:0:
34,45,17604,5,0,0:0:0:0:
38,56,17794,1,0,0:0:0:0:
154,54,17984,1,8,0:0:0:0:
158,65,18174,1,0,0:0:0:0:
273,55,18364,1,0,0:0:0:0:
277,66,18554,1,0,0:0:0:0:
224,211,18744,2,0,P|212:160|212:107,1,85,8|0,0:0|0:0,0:0:0:0:
303,249,19123,5,0,0:0:0:0:
216,304,19313,1,0,0:0:0:0:
315,361,19503,2,0,L|325:249,1,85,8|0,0:0|0:0,0:0:0:0:
389,165,19883,1,0,0:0:0:0:
448,252,20073,1,8,0:0:0:0:
389,165,20263,2,0,L|398:68,1,85,8|0,0:0|0:0,0:0:0:0:
307,247,20642,6,0,P|318:290|320:335,1,85,0|0,0:0|0:0,0:0:0:0:
227,186,21022,1,8,0:0:0:0:
348,16,21402,1,0,0:0:0:0:
380,116,21592,1,0,0:0:0:0:
227,186,21782,2,0,P|225:142|234:100,1,85,8|0,0:0|0:0,0:0:0:0:
186,300,22161,5,0,0:0:0:0:
80,292,22351,1,0,0:0:0:0:
56,180,22541,1,8,0:0:0:0:
168,192,22731,1,0,0:0:0:0:
291,259,22921,2,0,P|280:311|280:352,1,85,0|0,0:0|0:0,0:0:0:0:
268,132,23301,2,0,P|279:80|279:39,1,85,8|0,0:0|0:0,0:0:0:0:
431,179,23680,6,0,L|336:188,1,85,0|0,0:0|0:0,0:0:0:0:
186,199,24060,2,0,L|91:208,1,85,8|0,0:0|0:0,0:0:0:0:
410,174,24440,2,0,L|315:183,1,85,0|0,0:0|0:0,0:0:0:0:
162,185,24820,2,0,L|67:194,1,85,8|0,0:0|0:0,0:0:0:0:
294,50,25199,6,0,P|248:96|224:23,1,170,0|8,0:0|0:0,0:0:0:0:
264,350,25959,1,0,0:0:0:0:
251,198,26149,1,8,0:0:0:0:
269,359,26339,2,0,L|275:268,1,85,8|0,0:0|0:0,0:0:0:0:
214,25,26718,6,0,L|205:131,1,85,0|0,0:0|0:0,0:0:0:0:
280,265,27098,1,8,0:0:0:0:
312,164,27288,1,0,0:0:0:0:
203,197,27478,2,0,P|161:207|119:205,1,85,0|0,0:0|0:0,0:0:0:0:
304,160,27858,2,0,P|346:150|388:152,1,85,8|0,0:0|0:0,0:0:0:0:
266,342,28237,6,0,L|275:251,1,85,0|0,0:0|0:0,0:0:0:0:
222,95,28617,1,8,0:0:0:0:
308,152,28807,1,0,0:0:0:0:
184,196,28997,2,0,L|80:183,1,85,0|0,0:0|0:0,0:0:0:0:
354,256,29377,2,0,L|250:243,1,85,8|0,0:0|0:0,0:0:0:0:
457,227,29756,5,0,0:0:0:0:
412,320,29946,1,0,0:0:0:0:
381,169,30136,1,8,0:0:0:0:
381,169,30326,1,0,0:0:0:0:
381,169,30516,1,0,0:0:0:0:
74,330,30896,2,0,P|56:284|51:241,1,85,8|0,0:0|0:0,0:0:0:0:
104,86,31275,5,0,0:0:0:0:
24,172,31465,1,0,0:0:0:0:
118,94,31655,2,0,L|108:5,1,85,8|0,0:0|0:0,0:0:0:0:
154,219,32035,1,0,0:0:0:0:
224,140,32225,1,0,0:0:0:0:
138,231,32415,1,8,0:0:0:0:
244,240,32604,1,0,0:0:0:0:
126,120,32794,5,0,0:0:0:0:
236,134,32984,1,0,0:0:0:0:
126,120,33174,2,0,L|114:24,1,85,8|0,0:0|0:0,0:0:0:0:
125,248,33554,2,0,L|137:344,1,85,0|0,0:0|0:0,0:0:0:0:
26,189,33933,1,8,0:0:0:0:
100,112,34123,1,0,0:0:0:0:
135,267,34313,6,0,L|122:367,1,85,0|0,0:0|0:0,0:0:0:0:
25,207,34693,1,8,0:0:0:0:
88,94,34883,1,0,0:0:0:0:
178,218,35073,2,0,P|147:248|105:371,1,170,0|8,0:0|0:0,0:0:0:0:
289,126,35832,6,0,P|270:71|264:32,1,85,0|0,0:0|0:0,0:0:0:0:
275,218,36212,2,0,L|265:314,1,85,8|0,0:0|0:0,0:0:0:0:
313,120,36592,1,0,0:0:0:0:
229,372,36971,1,8,0:0:0:0:
242,31,37351,5,0,0:0:0:0:
388,52,37541,1,0,0:0:0:0:
242,31,37731,1,8,0:0:0:0:
326,157,38111,2,0,P|313:104|310:62,1,85
275,241,38490,2,0,P|267:290|264:336,1,85,8|0,0:0|0:0,0:0:0:0:
117,213,38870,6,2,P|111:168|33:60,1,170,6|8,0:0|0:0,0:0:0:0:
0,345,39630,2,2,P|43:332|97:327,1,85,2|0,0:0|0:0,0:0:0:0:
251,342,40009,2,2,P|208:355|154:360,1,85,8|0,0:0|0:0,0:0:0:0:
157,160,40389,5,2,0:0:0:0:
132,272,40579,1,0,0:0:0:0:
184,48,40769,1,8,0:0:0:0:
157,160,40959,1,0,0:0:0:0:
53,358,41149,2,2,P|127:355|236:374,1,170,2|8,0:0|0:0,0:0:0:0:
34,110,41908,6,0,P|26:65|24:20,1,85,2|0,0:0|0:0,0:0:0:0:
83,189,42288,2,0,P|76:246|60:295,1,85,8|0,0:0|0:0,0:0:0:0:
152,100,42668,1,2,0:0:0:0:
13,358,43047,1,8,0:0:0:0:
64,18,43427,5,2,0:0:0:0:
2,112,43617,1,0,0:0:0:0:
69,25,43807,2,2,P|75:70|75:130,1,85,8|0,0:0|0:0,0:0:0:0:
35,372,44187,2,2,P|28:318|32:198,1,170,2|8,0:0|0:0,0:0:0:0:
385,59,44946,6,2,P|392:113|388:233,1,170,6|8,0:0|0:0,0:0:0:0:
24,365,45706,2,2,L|33:268,1,85,2|0,0:0|0:0,0:0:0:0:
172,164,46085,2,2,L|162:284,1,85,8|0,0:0|0:0,0:0:0:0:
272,359,46465,5,2,0:0:0:0:
156,256,46655,1,0,0:0:0:0:
272,359,46845,1,8,0:0:0:0:
248,144,47035,1,0,0:0:0:0:
23,268,47225,2,2,P|8:224|8:88,1,170,2|8,0:0|0:0,0:0:0:0:
353,235,47984,6,0,P|367:284|371:344,1,85,2|0,0:0|0:0,0:0:0:0:
265,178,48364,1,8,0:0:0:0:
328,80,48554,1,0,0:0:0:0:
387,219,48744,2,2,L|379:312,1,85,2|0,0:0|0:0,0:0:0:0:
274,165,49123,1,8,0:0:0:0:
267,153,49503,5,2,0:0:0:0:
152,108,49693,1,0,0:0:0:0:
176,307,49883,2,2,L|183:222,1,85,8|0,0:0|0:0,0:0:0:0:
379,85,50263,2,2,L|365:286,1,170,2|8,0:0|0:0,0:0:0:0:
46,258,51022,5,2,0:0:0:0:
335,354,51402,1,8,0:0:0:0:
272,256,51592,1,0,0:0:0:0:
208,352,51782,1,2,0:0:0:0:
139,16,52161,1,8,0:0:0:0:
373,216,52541,5,2,0:0:0:0:
486,193,52731,1,0,0:0:0:0:
404,112,52921,1,8,0:0:0:0:
192,307,53301,1,10,0:0:0:0:
168,183,53491,1,8,0:0:0:0:
145,60,53680,1,2,0:0:0:0:
426,197,54060,6,0,P|477:238|494:362,1,170,2|8,0:0|0:0,0:0:0:0:
322,211,54820,2,0,L|334:115,1,85,0|0,0:0|0:0,0:0:0:0:
350,19,55199,1,8,0:0:0:0:
190,173,55579,6,0,L|178:269,1,85,0|0,0:0|0:0,0:0:0:0:
162,365,55958,1,8,0:0:0:0:
322,211,56339,2,0,L|334:115,1,85,0|0,0:0|0:0,0:0:0:0:
350,19,56718,1,8,0:0:0:0:
450,218,57098,5,0,0:0:0:0:
250,315,57478,1,8,0:0:0:0:
153,115,57858,1,0,0:0:0:0:
350,19,58237,1,8,0:0:0:0:
152,239,58617,6,0,P|107:228|54:228,1,85,0|0,0:0|0:0,0:0:0:0:
265,245,58997,2,0,P|234:294|224:330,1,85,8|0,0:0|0:0,0:0:0:0:
356,166,59377,2,0,P|375:213|500:277,1,170,0|8,0:0|0:0,0:0:0:0:
149,239,60136,6,0,P|106:227|68:205,1,85,0|0,0:0|0:0,0:0:0:0:
24,108,60516,1,8,0:0:0:0:
56,328,60896,1,0,0:0:0:0:
24,108,61275,1,8,0:0:0:0:
56,328,61655,6,0,P|68:284|88:244,1,85,0|0,0:0|0:0,0:0:0:0:
221,231,62035,2,0,P|209:275|189:315,1,85,8|0,0:0|0:0,0:0:0:0:
150,141,62415,2,0,P|171:85|259:13,1,170,0|8,0:0|0:0,0:0:0:0:
512,197,63174,6,0,P|475:179|421:166,1,85,0|0,0:0|0:0,0:0:0:0:
333,256,63554,1,8,0:0:0:0:
339,242,63744,1,0,0:0:0:0:
288,365,63933,2,0,P|252:356|188:352,1,85,0|0,0:0|0:0,0:0:0:0:
108,252,64313,2,0,P|165:238|220:234,1,85,8|0,0:0|0:0,0:0:0:0:
347,257,64693,5,0,0:0:0:0:
341,234,64883,1,0,0:0:0:0:
281,108,65073,1,8,0:0:0:0:
278,130,65263,1,0,0:0:0:0:
430,30,65452,5,0,0:0:0:0:
384,136,65642,1,8,0:0:0:0:
494,208,65832,2,0,P|488:250|477:291,1,85,8|0,0:0|0:0,0:0:0:0:
293,354,66212,6,0,L|393:344,1,85,0|0,0:0|0:0,0:0:0:0:
183,302,66592,1,8,0:0:0:0:
408,357,66971,2,0,L|508:347,1,85,0|0,0:0|0:0,0:0:0:0:
305,244,67351,1,8,0:0:0:0:
21,364,67731,6,0,P|32:318|31:268,1,85,0|0,0:0|0:0,0:0:0:0:
17,118,68111,2,0,P|6:164|7:214,1,85,8|0,0:0|0:0,0:0:0:0:
137,243,68490,2,0,P|196:229|317:226,1,170,0|8,0:0|0:0,0:0:0:0:
474,348,69250,6,0,L|466:240,1,85,0|0,0:0|0:0,0:0:0:0:
408,109,69630,2,0,L|415:208,1,85,8|0,0:0|0:0,0:0:0:0:
363,361,70009,2,0,L|355:253,1,85,0|0,0:0|0:0,0:0:0:0:
289,91,70389,2,0,L|296:190,1,85,8|0,0:0|0:0,0:0:0:0:
101,232,70769,6,0,P|176:256|268:258,1,170,0|8,0:0|0:0,0:0:0:0:
5,164,71528,1,0,0:0:0:0:
38,316,71718,1,8,0:0:0:0:
57,113,71908,1,8,0:0:0:0:
307,228,72288,6,0,P|249:242|200:244,1,85
136,172,72668,1,8,0:0:0:0:
22,370,73047,2,0,L|40:279,1,85,0|0,0:0|0:0,0:0:0:0:
9,120,73427,2,0,L|27:29,1,85,8|0,0:0|0:0,0:0:0:0:
21,25,73807,5,0,0:0:0:0:
30,289,74187,2,0,L|11:195,1,85,8|0,0:0|0:0,0:0:0:0:
174,325,74566,2,0,L|155:231,1,85,0|0,0:0|0:0,0:0:0:0:
322,349,74946,2,0,L|300:249,1,85,8|0,0:0|0:0,0:0:0:0:
309,255,75326,5,0,0:0:0:0:
80,260,75706,1,8,0:0:0:0:
116,152,75896,1,0,0:0:0:0:
68,60,76085,2,0,P|123:41|165:39,1,85
95,164,76465,2,0,L|3:156,1,85,8|0,0:0|0:0,0:0:0:0:
183,258,76845,5,0,0:0:0:0:
248,168,77035,1,0,0:0:0:0:
264,319,77225,1,8,0:0:0:0:
171,266,77415,1,0,0:0:0:0:
265,154,77604,2,0,L|258:65,1,85,0|0,0:0|0:0,0:0:0:0:
250,58,77984,1,8,0:0:0:0:
490,276,78364,6,0,P|478:319|473:368,1,85
477,364,78744,1,8,0:0:0:0:
386,85,79123,2,0,L|380:174,1,85,0|0,0:0|0:0,0:0:0:0:
237,279,79503,2,0,L|231:368,1,85,8|0,0:0|0:0,0:0:0:0:
153,196,79883,5,0,0:0:0:0:
232,116,80073,1,0,0:0:0:0:
92,118,80263,2,0,P|77:76|74:33,1,85,8|0,0:0|0:0,0:0:0:0:
0,216,80642,2,0,P|14:176|18:133,1,85,0|0,0:0|0:0,0:0:0:0:
112,292,81022,2,0,P|97:250|94:207,1,85,8|0,0:0|0:0,0:0:0:0:
21,372,81402,5,0,0:0:0:0:
28,260,81592,1,0,0:0:0:0:
37,381,81782,1,8,0:0:0:0:
41,269,81971,1,0,0:0:0:0:
193,320,82161,2,0,L|101:328,1,85
265,246,82541,2,0,P|289:292|296:345,1,85,8|0,0:0|0:0,0:0:0:0:
405,230,82921,5,0,0:0:0:0:
304,341,83111,1,0,0:0:0:0:
505,328,83301,2,0,L|395:322,1,85,8|0,0:0|0:0,0:0:0:0:
274,169,83680,1,0,0:0:0:0:
298,330,83870,1,0,0:0:0:0:
93,250,84060,2,0,L|203:256,1,85,8|0,0:0|0:0,0:0:0:0:
359,259,84440,6,2,P|283:244|180:262,1,170,6|8,0:0|0:0,0:0:0:0:
496,155,85199,2,2,P|500:200|496:244,1,85,2|0,0:0|0:0,0:0:0:0:
434,379,85579,2,2,P|430:334|434:290,1,85,8|0,0:0|0:0,0:0:0:0:
481,139,85959,5,2,0:0:0:0:
500,252,86149,1,0,0:0:0:0:
457,30,86339,1,8,0:0:0:0:
481,139,86528,1,0,0:0:0:0:
412,303,86718,2,2,L|419:199,1,85,2|0,0:0|0:0,0:0:0:0:
482,363,87098,1,8,0:0:0:0:
243,349,87478,6,2,P|195:364|130:364,1,85,2|0,0:0|0:0,0:0:0:0:
0,323,87858,2,2,P|48:308|113:308,1,85,8|0,0:0|0:0,0:0:0:0:
260,349,88237,2,2,L|161:347,1,85,2|0,0:0|0:0,0:0:0:0:
9,299,88617,2,2,L|110:302,1,85,8|0,0:0|0:0,0:0:0:0:
236,193,88997,5,2,0:0:0:0:
124,216,89187,1,0,0:0:0:0:
249,204,89377,2,2,P|294:207|356:188,1,85,10|0,0:0|0:0,0:0:0:0:
279,58,89756,2,2,P|158:47|96:66,1,170,2|8,0:0|0:0,0:0:0:0:
389,209,90516,6,2,P|391:265|431:382,1,170,6|8,0:0|0:0,0:0:0:0:
458,78,91275,2,2,P|468:124|467:180,1,85,2|0,0:0|0:0,0:0:0:0:
302,115,91655,2,2,P|292:69|293:13,1,85,8|0,0:0|0:0,0:0:0:0:
207,207,92035,5,2,0:0:0:0:
96,176,92225,1,0,0:0:0:0:
309,238,92415,1,8,0:0:0:0:
207,207,92604,1,0,0:0:0:0:
145,359,92794,2,2,L|130:251,1,85,2|0,0:0|0:0,0:0:0:0:
170,116,93174,1,8,0:0:0:0:
124,373,93554,6,2,P|115:331|123:283,1,85,2|0,0:0|0:0,0:0:0:0:
233,213,93933,1,8,0:0:0:0:
208,324,94123,1,0,0:0:0:0:
316,292,94313,1,2,0:0:0:0:
9,210,94693,1,8,0:0:0:0:
261,15,95073,5,2,0:0:0:0:
312,120,95263,1,0,0:0:0:0:
200,100,95452,1,8,0:0:0:0:
245,377,95832,2,2,P|253:301|246:189,1,170,2|8,0:0|0:0,0:0:0:0:
52,92,96592,5,2,0:0:0:0:
407,40,96971,1,8,0:0:0:0:
443,148,97161,1,0,0:0:0:0:
331,128,97351,1,2,0:0:0:0:
367,363,97731,1,8,0:0:0:0:
203,18,98111,5,2,0:0:0:0:
152,120,98301,1,0,0:0:0:0:
264,112,98490,1,8,0:0:0:0:
102,326,98870,1,8,0:0:0:0:
82,213,99060,1,8,0:0:0:0:
66,101,99250,1,2,0:0:0:0:
399,116,99630,6,0,L|387:311,1,170,2|8,0:0|0:0,0:0:0:0:
319,213,100199,1,0,0:0:0:0:
399,129,100389,2,0,P|391:85|387:41,1,85,0|0,0:0|0:0,0:0:0:0:
253,35,100769,2,0,P|241:83|161:175,1,170,8|0,0:0|0:0,0:0:0:0:
0,365,101528,6,0,P|12:317|92:225,1,170,8|0,0:0|0:0,0:0:0:0:
184,264,102098,1,0,0:0:0:0:
89,351,102288,2,0,P|67:361|0:374,1,85,8|0,0:0|0:0,0:0:0:0:
191,367,102668,6,0,P|213:357|280:344,1,85
381,366,103047,2,0,P|369:311|379:198,2,170,8|0|8,0:0|0:0|0:0,0:0:0:0:
85,286,104187,6,0,P|139:277|259:289,1,170,0|8,0:0|0:0,0:0:0:0:
379,185,104756,2,0,P|325:194|205:182,1,170,0|0,0:0|0:0,0:0:0:0:
90,99,105326,2,0,P|139:92|199:93,1,85,8|0,0:0|0:0,0:0:0:0:
382,102,105706,5,0,0:0:0:0:
320,4,105896,1,0,0:0:0:0:
267,138,106085,1,8,0:0:0:0:
240,236,106275,1,0,0:0:0:0:
135,109,106465,2,0,P|114:66|108:23,1,85,0|0,0:0|0:0,0:0:0:0:
34,177,106845,2,0,P|28:221|27:267,1,85,8|0,0:0|0:0,0:0:0:0:
194,171,107225,5,0,0:0:0:0:
189,165,107604,2,0,L|84:172,1,85,8|0,0:0|0:0,0:0:0:0:
299,181,107984,2,0,L|194:188,1,85,0|0,0:0|0:0,0:0:0:0:
410,191,108364,2,0,L|305:198,1,85,8|0,0:0|0:0,0:0:0:0:
498,98,108744,5,0,0:0:0:0:
430,300,109123,2,0,B|418:284|348:284|302:331|302:331|280:320|256:285|256:285|232:320|209:331|209:331|163:284|93:284|71:305,1,425,8|0,0:0|0:0,0:0:0:0:
26,169,110263,6,0,P|71:176|188:236,1,170,0|8,0:0|0:0,0:0:0:0:
290,121,110832,2,0,P|242:125|108:157,1,170,0|0,0:0|0:0,0:0:0:0:
61,16,111402,2,0,P|103:34|141:68,1,85,8|0,0:0|0:0,0:0:0:0:
165,247,111782,6,0,P|102:230|9:176,1,170,0|8,0:0|0:0,0:0:0:0:
320,214,112541,2,0,P|336:277|336:384,1,170,0|8,0:0|0:0,0:0:0:0:
184,117,113301,2,0,P|230:70|323:17,3,170,0|8|0|8,0:0|0:0|0:0|0:0,0:0:0:0:
429,282,114820,6,0,P|365:265|272:211,1,170,0|8,0:0|0:0,0:0:0:0:
85,303,115579,2,0,P|131:256|224:203,1,170,0|8,0:0|0:0,0:0:0:0:
246,0,116339,2,0,P|262:63|267:108,1,85,0|0,0:0|0:0,0:0:0:0:
256,184,116718,1,8,0:0:0:0:
156,8,117098,1,0,0:0:0:0:
360,16,117478,1,8,0:0:0:0:
241,194,117858,6,0,L|260:16,1,170,0|8,0:0|0:0,0:0:0:0:
281,223,118617,2,0,L|117:295,1,170,0|8,0:0|0:0,0:0:0:0:
285,181,119377,2,0,L|429:286,3,170,0|8|0|8,0:0|0:0|0:0|0:0,0:0:0:0:
224,328,120896,6,0,L|42:310,1,170,0|8,0:0|0:0,0:0:0:0:
288,56,121655,2,0,L|470:74,1,170,0|8,0:0|0:0,0:0:0:0:
119,181,122415,2,0,L|137:-1,1,170,0|8,0:0|0:0,0:0:0:0:
393,203,123174,2,0,L|375:385,1,170,0|8,0:0|0:0,0:0:0:0:
221,79,123933,6,2,P|248:34|304:104,1,170,6|8,0:0|0:0,0:0:0:0:
118,303,124693,2,2,P|80:289|19:288,1,85,2|0,0:0|0:0,0:0:0:0:
257,322,125073,2,2,P|218:334|169:371,1,85,8|0,0:0|0:0,0:0:0:0:
306,256,125452,5,2,0:0:0:0:
396,320,125642,1,0,0:0:0:0:
212,188,125832,1,8,0:0:0:0:
306,256,126022,1,0,0:0:0:0:
293,78,126212,2,2,L|299:180,1,85,2|0,0:0|0:0,0:0:0:0:
209,273,126592,1,8,0:0:0:0:
392,33,126971,6,2,P|400:73|395:125,1,85,2|0,0:0|0:0,0:0:0:0:
488,252,127351,2,2,P|480:212|485:160,1,85,8|0,0:0|0:0,0:0:0:0:
358,245,127731,2,2,L|340:357,1,85,2|0,0:0|0:0,0:0:0:0:
260,138,128111,2,2,L|242:250,1,85,8|0,0:0|0:0,0:0:0:0:
194,49,128490,5,2,0:0:0:0:
320,12,128680,1,0,0:0:0:0:
194,49,128870,1,8,0:0:0:0:
315,111,129060,1,0,0:0:0:0:
292,264,129250,2,2,L|274:94,1,170,2|8,0:0|0:0,0:0:0:0:
512,217,130009,6,2,P|480:264|454:377,1,170,6|8,0:0|0:0,0:0:0:0:
388,140,130769,2,2,P|412:186|422:241,1,85,2|0,0:0|0:0,0:0:0:0:
511,55,131149,2,2,P|491:103|487:159,1,85,8|0,0:0|0:0,0:0:0:0:
290,46,131528,5,2,0:0:0:0:
398,59,131718,1,0,0:0:0:0:
178,32,131908,1,8,0:0:0:0:
290,46,132098,1,0,0:0:0:0:
240,205,132288,2,2,L|226:113,1,85,2|0,0:0|0:0,0:0:0:0:
186,278,132668,1,8,0:0:0:0:
458,144,133047,6,2,L|448:246,1,85,2|0,0:0|0:0,0:0:0:0:
438,349,133427,1,8,0:0:0:0:
424,232,133617,1,0,0:0:0:0:
408,112,133807,1,2,0:0:0:0:
438,349,134187,1,8,0:0:0:0:
226,264,134566,5,2,0:0:0:0:
171,370,134756,1,0,0:0:0:0:
95,278,134946,1,8,0:0:0:0:
152,14,135326,2,2,P|164:78|163:190,1,170,2|8,0:0|0:0,0:0:0:0:
318,364,136085,6,2,P|312:325|312:262,1,85,2|0,0:0|0:0,0:0:0:0:
447,205,136465,1,8,0:0:0:0:
511,313,136655,1,0,0:0:0:0:
391,317,136845,1,2,0:0:0:0:
479,86,137225,1,8,0:0:0:0:
391,317,137604,5,2,0:0:0:0:
320,220,137794,1,0,0:0:0:0:
440,216,137984,1,8,0:0:0:0:
233,335,138364,1,8,0:0:0:0:
118,323,138554,1,8,0:0:0:0:
4,312,138744,1,2,0:0:0:0:
379,200,139123,6,2,L|198:189,1,170,6|8,0:0|0:0,0:0:0:0:
392,230,139883,2,2,P|399:273|399:329,1,85,2|0,0:0|0:0,0:0:0:0:
440,145,140263,2,2,P|432:101|433:46,1,85,8|0,0:0|0:0,0:0:0:0:
397,214,140642,5,2,0:0:0:0:
283,197,140832,1,0,0:0:0:0:
511,228,141022,1,8,0:0:0:0:
397,214,141212,1,0,0:0:0:0:
461,373,141402,2,2,L|452:284,1,85,2|0,0:0|0:0,0:0:0:0:
473,139,141782,1,8,0:0:0:0:
286,331,142161,6,2,L|191:324,1,85,2|0,0:0|0:0,0:0:0:0:
84,227,142541,2,2,L|179:234,1,85,8|0,0:0|0:0,0:0:0:0:
334,185,142921,2,2,L|239:178,1,85,2|0,0:0|0:0,0:0:0:0:
57,77,143301,2,2,L|152:84,1,85,8|0,0:0|0:0,0:0:0:0:
265,250,143680,6,2,P|228:253|162:241,1,85,6|0,0:0|0:0,0:0:0:0:
352,284,144060,2,2,P|373:314|395:377,1,85,8|0,0:0|0:0,0:0:0:0:
324,190,144440,2,2,P|339:156|383:105,1,85,2|8,0:0|0:0,0:0:0:0:
363,276,144820,1,8,0:0:0:0:
40,355,145199,6,2,P|27:316|13:177,1,170,2|8,0:0|0:0,0:0:0:0:
296,281,145959,2,2,P|307:324|311:371,1,85,2|0,0:0|0:0,0:0:0:0:
234,212,146339,2,2,P|243:189|275:133,1,85,8|0,0:0|0:0,0:0:0:0:
193,307,146718,5,2,0:0:0:0:
84,276,146908,1,0,0:0:0:0:
301,344,147098,1,8,0:0:0:0:
193,307,147288,1,0,0:0:0:0:
265,172,147478,2,2,L|268:267,1,85,2|0,0:0|0:0,0:0:0:0:
354,112,147858,2,2,L|351:15,1,85,8|0,0:0|0:0,0:0:0:0:
442,172,148237,5,2,0:0:0:0:
160,98,148617,1,8,0:0:0:0:
252,32,148807,1,0,0:0:0:0:
272,144,148997,1,2,0:0:0:0:
145,356,149377,2,2,L|165:248,1,85,8|0,0:0|0:0,0:0:0:0:
160,98,149756,5,2,0:0:0:0:
246,21,149946,1,0,0:0:0:0:
272,144,150136,1,8,0:0:0:0:
40,350,150516,2,2,L|26:171,1,170,2|8,0:0|0:0,0:0:0:0:
256,21,151275,6,0,L|266:130,1,85,2|0,0:0|0:0,0:0:0:0:
202,247,151655,1,8,0:0:0:0:
128,160,151845,1,0,0:0:0:0:
152,48,152035,1,2,0:0:0:0:
304,220,152415,1,8,0:0:0:0:
82,362,152794,5,2,0:0:0:0:
12,272,152984,1,0,0:0:0:0:
128,260,153174,1,8,0:0:0:0:
470,342,153554,1,6,0:0:0:0:
