osu file format v14

[General]
AudioFilename: audio.mp3
AudioLeadIn: 0
PreviewTime: 38775
Countdown: 0
SampleSet: None
StackLeniency: 0.7
Mode: 0
LetterboxInBreaks: 0
WidescreenStoryboard: 1

[Editor]
Bookmarks: 14566,38870,54060,60136,84440,99630
DistanceSpacing: 0.8
BeatDivisor: 4
GridSize: 4
TimelineZoom: 1

[Metadata]
Title:Bubblegum Bitch
TitleUnicode:Bubblegum Bitch
Artist:Marina and the Diamonds
ArtistUnicode:Marina and the Diamonds
Creator:Bakari
Version:Liuth's Average
Source:
Tags:& Liuth electra heart marina lambrini diamandis Μαρίνα Λαμπρινή Διαμαντή electro synthie synthpop synth
BeatmapID:1410937
BeatmapSetID:666700

[Difficulty]
HPDrainRate:4
CircleSize:3.7
OverallDifficulty:4
ApproachRate:5.5
SliderMultiplier:1.25
SliderTickRate:2

[Events]
//Background and Video events
0,0,"bf6dee17bf8657f1058464d0f9035f73.jpg",0,0
//Break Periods
2,54260,59011
2,111982,119771
//Storyboard Layer 0 (Background)
//Storyboard Layer 1 (Fail)
//Storyboard Layer 2 (Pass)
//Storyboard Layer 3 (Foreground)
//Storyboard Sound Samples

[TimingPoints]
2415,379.746835443038,4,3,0,52,1,0
38870,-100,4,1,0,76,0,1
44566,-100,4,1,0,69,0,0
44946,-100,4,1,0,76,0,1
54060,-100,4,3,0,52,0,0
84440,-100,4,1,0,76,0,1
90136,-100,4,1,0,76,0,0
90516,-100,4,1,0,76,0,1
99630,-100,4,3,0,52,0,0
123933,-100,4,1,0,76,0,1
129630,-100,4,1,0,76,0,0
130009,-100,4,1,0,76,0,1
138744,-100,4,1,0,76,0,0
139123,-100,4,1,0,76,0,1
144820,-100,4,1,0,76,0,0
145199,-100,4,1,0,76,0,1
153554,-100,4,1,0,76,0,0

[Colours]
Combo1 : 255,192,0
Combo2 : 198,113,113
Combo3 : 169,159,75
Combo4 : 209,39,69
SliderBorder : 252,192,0
SliderTrackOverride : 45,45,45

[HitObjects]
84,228,14187,5,8,0:0:0:0:
184,220,14566,2,0,P|248:216|316:224,1,125,0|8,0:0|0:0,0:0:0:0:
348,252,15136,1,0,0:0:0:0:
392,276,15326,2,0,P|384:208|396:144,1,125,0|8,0:0|0:0,0:0:0:0:
476,96,16085,2,0,P|484:164|472:228,1,125,0|8,0:0|0:0,0:0:0:0:
440,256,16655,1,0,0:0:0:0:
392,276,16845,2,0,P|320:260|256:268,1,125,0|8,0:0|0:0,0:0:0:0:
184,316,17604,6,0,P|216:264|212:200,1,125,0|8,0:0|0:0,0:0:0:0:
184,160,18174,1,0,0:0:0:0:
156,120,18364,2,0,P|116:128|88:128,2,62.5,0|0|8,0:0|0:0|0:0,0:0:0:0:
232,56,19123,2,0,P|272:48|300:48,1,62.5,0|0,0:0|0:0,0:0:0:0:
332,80,19503,2,0,P|363:78|393:71,1,62.5,8|0,0:0|0:0,0:0:0:0:
432,40,19883,1,0,0:0:0:0:
448,20,20642,6,0,P|464:80|444:152,1,125,0|8,0:0|0:0,0:0:0:0:
372,204,21402,2,0,P|356:144|376:72,1,125,0|8,0:0|0:0,0:0:0:0:
450,140,22161,2,0,P|466:200|446:272,1,125,0|8,0:0|0:0,0:0:0:0:
424,300,22731,1,0,0:0:0:0:
376,312,22921,2,0,P|312:288|244:296,1,125,0|8,0:0|0:0,0:0:0:0:
156,300,23680,6,0,P|136:236|160:176,1,125,0|8,0:0|0:0,0:0:0:0:
256,196,24440,2,0,P|276:132|252:72,1,125,0|8,0:0|0:0,0:0:0:0:
256,192,25199,12,8,26339,0:0:0:0:
364,276,27098,5,8,0:0:0:0:
460,228,27478,2,0,P|480:168|464:108,1,125,0|8,0:0|0:0,0:0:0:0:
388,48,28237,1,0,0:0:0:0:
288,32,28617,2,0,L|220:44,1,62.5,8|0,0:0|0:0,0:0:0:0:
188,76,28997,2,0,L|120:88,1,62.5,0|0,0:0|0:0,0:0:0:0:
80,72,29377,1,8,0:0:0:0:
20,152,29756,5,0,0:0:0:0:
112,196,30136,2,0,P|184:192|236:152,1,125,8|0,0:0|0:0,0:0:0:0:
264,132,30706,1,0,0:0:0:0:
312,120,30896,1,8,0:0:0:0:
408,152,31275,1,0,0:0:0:0:
452,240,31655,2,0,P|484:236|512:220,2,62.5,8|0|0,0:0|0:0|0:0,0:0:0:0:
400,244,32225,1,0,0:0:0:0:
356,264,32415,1,8,0:0:0:0:
260,288,32794,6,0,L|192:312,1,62.5,0|0,0:0|0:0,0:0:0:0:
152,296,33174,2,0,L|16:336,2,125,8|0|8,0:0|0:0|0:0,0:0:0:0:
212,216,34313,2,0,L|272:196,1,62.5,0|0,0:0|0:0,0:0:0:0:
300,156,34693,2,0,L|420:116,2,125,8|0|8,0:0|0:0|0:0,0:0:0:0:
204,132,35832,5,0,0:0:0:0:
132,64,36212,2,0,P|120:36|120:0,2,62.5,8|0|0,0:0|0:0|0:0,0:0:0:0:
232,44,36971,1,8,0:0:0:0:
332,32,37351,2,0,P|368:32|396:48,2,62.5,0|0|8,0:0|0:0|0:0,0:0:0:0:
232,44,38111,2,0,P|212:112|232:168,1,125,0|8,0:0|0:0,0:0:0:0:
320,204,38870,6,2,L|448:240,1,125,6|8,0:0|0:0,0:0:0:0:
452,336,39630,2,2,P|420:336|392:324,1,62.5,2|0,0:0|0:0,0:0:0:0:
348,304,40009,1,8,0:0:0:0:
320,204,40389,2,0,P|292:192|248:188,1,62.5,2|0,0:0|0:0,0:0:0:0:
216,212,40769,2,0,P|185:207|156:195,1,62.5,8|0,0:0|0:0,0:0:0:0:
132,152,41149,2,2,P|72:128|0:132,1,125,2|8,0:0|0:0,0:0:0:0:
44,224,41908,6,0,L|112:240,1,62.5,2|0,0:0|0:0,0:0:0:0:
136,280,42288,2,0,L|204:296,1,62.5,8|0,0:0|0:0,0:0:0:0:
240,268,42668,2,0,P|296:296|356:288,1,125,2|8,0:0|0:0,0:0:0:0:
404,200,43427,2,0,P|364:188|332:192,1,62.5,2|0,0:0|0:0,0:0:0:0:
292,192,43807,2,2,P|260:191|231:181,1,62.5,8|0,0:0|0:0,0:0:0:0:
188,156,44187,2,2,L|56:128,1,125,2|8,0:0|0:0,0:0:0:0:
20,40,44946,6,2,P|88:32|140:52,1,125,6|8,0:0|0:0,0:0:0:0:
236,84,45706,2,2,P|248:48|252:8,2,62.5,2|0|8,0:0|0:0|0:0,0:0:0:0:
192,172,46465,2,0,P|176:204|176:244,1,62.5,2|0,0:0|0:0,0:0:0:0:
212,264,46845,2,0,P|208:294|193:322,1,62.5,8|0,0:0|0:0,0:0:0:0:
148,344,47225,1,2,0:0:0:0:
52,316,47604,1,8,0:0:0:0:
80,220,47984,6,2,P|96:164|80:88,2,125,2|8|2,0:0|0:0|0:0,0:0:0:0:
52,316,49123,1,8,0:0:0:0:
152,304,49503,2,0,L|220:292,1,62.5,2|0,0:0|0:0,0:0:0:0:
264,304,49883,1,8,0:0:0:0:
364,316,50263,2,2,P|384:256|372:176,1,125,2|8,0:0|0:0,0:0:0:0:
360,96,51022,6,2,P|296:88|224:112,2,125,2|8|2,0:0|0:0|0:0,0:0:0:0:
456,128,52161,1,8,0:0:0:0:
380,196,52541,2,0,P|340:204|300:200,1,62.5,2|0,0:0|0:0,0:0:0:0:
268,192,52921,1,8,0:0:0:0:
168,172,53301,2,0,B|120:164|72:172|72:172|96:200,1,125,6|8,0:0|0:0,0:0:0:0:
136,284,54060,5,2,0:0:0:0:
144,156,60136,6,0,L|208:140,1,62.5,0|0,0:0|0:0,0:0:0:0:
248,112,60516,1,8,0:0:0:0:
348,116,60896,2,0,P|380:172|380:240,1,125,0|8,0:0|0:0,0:0:0:0:
292,272,61655,2,0,P|256:288|212:284,1,62.5,0|0,0:0|0:0,0:0:0:0:
196,256,62035,2,0,P|165:258|137:272,1,62.5,8|0,0:0|0:0,0:0:0:0:
108,312,62415,2,0,P|96:236|72:188,1,125,0|8,0:0|0:0,0:0:0:0:
32,104,63174,6,0,P|72:88|100:84,1,62.5,0|0,0:0|0:0,0:0:0:0:
140,96,63554,2,0,P|170:89|198:76,2,62.5,8|0|0,0:0|0:0|0:0,0:0:0:0:
78,174,64313,2,0,P|78:218|98:250,1,62.5,8|0,0:0|0:0,0:0:0:0:
130,256,64693,2,0,P|150:288|158:324,1,62.5
134,356,65073,2,0,L|6:364,2,125,8|0|8,0:0|0:0|0:0,0:0:0:0:
228,324,66212,6,0,L|292:320,1,62.5
332,292,66592,1,8,0:0:0:0:
428,315,66971,2,0,P|440:347|440:383,2,62.5,0|0|8,0:0|0:0|0:0,0:0:0:0:
396,224,67731,2,0,P|376:164|376:100,1,125,0|8,0:0|0:0,0:0:0:0:
384,52,68301,1,0,0:0:0:0:
348,20,68490,2,0,L|204:36,1,125,0|8,0:0|0:0,0:0:0:0:
164,116,69250,6,0,P|228:136|292:108,2,125,0|8|0,0:0|0:0|0:0,0:0:0:0:
112,32,70389,1,8,0:0:0:0:
256,192,70769,12,8,71908,0:0:0:0:
364,88,72668,5,8,0:0:0:0:
432,164,73047,2,0,P|452:236|432:292,1,125,0|8,0:0|0:0,0:0:0:0:
384,364,73807,1,0,0:0:0:0:
292,324,74187,2,0,L|224:308,1,62.5,8|0,0:0|0:0,0:0:0:0:
192,276,74566,2,0,P|140:256|56:256,1,125,0|8,0:0|0:0,0:0:0:0:
16,336,75326,5,0,0:0:0:0:
116,352,75706,2,0,L|184:364,1,62.5,8|0,0:0|0:0,0:0:0:0:
228,372,76085,2,0,P|212:304|244:248,1,125,0|8,0:0|0:0,0:0:0:0:
304,184,76845,1,0,0:0:0:0:
396,228,77225,2,0,P|432:236|460:232,1,62.5,8|0,0:0|0:0,0:0:0:0:
504,252,77604,2,0,P|488:180|504:128,1,125,0|8,0:0|0:0,0:0:0:0:
432,60,78364,6,0,P|412:96|396:116,1,62.5,0|0,0:0|0:0,0:0:0:0:
357,141,78744,2,0,P|309:189|289:249,2,125,8|0|8,0:0|0:0|0:0,0:0:0:0:
353,40,79883,2,0,P|313:28|297:12,1,62.5
248,8,80263,2,0,L|112:32,1,125,8|0,0:0|0:0,0:0:0:0:
58,104,81022,1,8,0:0:0:0:
140,164,81402,6,0,L|164:236,1,62.5,0|0,0:0|0:0,0:0:0:0:
208,240,81782,2,0,L|260:296,1,62.5,8|0,0:0|0:0,0:0:0:0:
300,280,82161,2,0,L|420:312,1,125,0|8,0:0|0:0,0:0:0:0:
500,252,82921,1,0,0:0:0:0:
464,160,83301,2,0,P|448:128|448:92,2,62.5,8|0|0,0:0|0:0|0:0,0:0:0:0:
500,252,84060,1,8,0:0:0:0:
420,312,84440,6,2,L|300:280,1,125,6|8,0:0|0:0,0:0:0:0:
212,232,85199,2,2,P|200:200|200:164,1,62.5,2|0,0:0|0:0,0:0:0:0:
212,124,85579,1,8,0:0:0:0:
292,64,85959,2,0,L|364:80,1,62.5,2|0,0:0|0:0,0:0:0:0:
380,120,86339,2,0,L|452:136,1,62.5,8|0,0:0|0:0,0:0:0:0:
484,108,86718,2,2,P|448:168|452:224,1,125,2|8,0:0|0:0,0:0:0:0:
408,312,87478,6,2,P|380:328|332:328,1,62.5,2|0,0:0|0:0,0:0:0:0:
312,300,87858,2,2,P|281:303|254:319,1,62.5,8|0,0:0|0:0,0:0:0:0:
224,360,88237,2,2,L|80:344,1,125,2|8,0:0|0:0,0:0:0:0:
44,264,88997,2,0,P|64:232|68:204,1,62.5,2|0,0:0|0:0,0:0:0:0:
48,160,89377,2,2,P|60:88|100:40,2,125,10|2|8,0:0|0:0|0:0,0:0:0:0:
116,232,90516,6,2,L|240:256,1,125,6|8,0:0|0:0,0:0:0:0:
332,292,91275,2,2,P|344:320|344:356,2,62.5,2|0|8,0:0|0:0|0:0,0:0:0:0:
288,201,92035,2,0,P|272:173|268:141,1,62.5,2|0,0:0|0:0,0:0:0:0:
299,104,92415,2,0,P|294:73|278:46,1,62.5,8|0,0:0|0:0,0:0:0:0:
240,16,92794,2,2,P|192:56|112:56,1,125,2|8,0:0|0:0,0:0:0:0:
36,84,93554,6,2,P|108:104|140:152,2,125,2|8|2,0:0|0:0|0:0,0:0:0:0:
44,184,94693,1,8,0:0:0:0:
56,284,95073,2,0,P|92:272|112:256,1,62.5,2|0,0:0|0:0,0:0:0:0:
152,228,95452,2,2,P|216:220|272:244,2,125,8|2|8,0:0|0:0|0:0,0:0:0:0:
192,320,96592,6,0,P|128:328|72:304,2,125,2|8|2,0:0|0:0|0:0,0:0:0:0:
284,284,97731,1,8,0:0:0:0:
380,256,98111,2,0,P|416:256|444:264,1,62.5,2|0,0:0|0:0,0:0:0:0:
479,294,98490,1,8,0:0:0:0:
412,370,98870,2,2,P|376:298|380:254,1,125,2|8,0:0|0:0,0:0:0:0:
428,168,99630,5,2,0:0:0:0:
372,88,100009,2,0,P|336:76|304:76,1,62.5,8|0,0:0|0:0,0:0:0:0:
268,100,100389,2,0,P|208:120|140:120,1,125,0|8,0:0|0:0,0:0:0:0:
48,104,101149,1,0,0:0:0:0:
32,204,101528,2,0,P|40:240|40:272,1,62.5,8|0,0:0|0:0,0:0:0:0:
32,316,101908,2,0,L|164:304,1,125,0|8,0:0|0:0,0:0:0:0:
240,252,102668,6,0,L|432:236,2,187.5,0|0|8,0:0|0:0|0:0,0:0:0:0:
144,220,104187,2,0,P|116:164|116:96,2,125,0|8|0,0:0|0:0|0:0,0:0:0:0:
240,252,105326,1,8,0:0:0:0:
340,256,105706,6,0,P|376:256|408:268,1,62.5,0|0,0:0|0:0,0:0:0:0:
444,292,106085,2,0,L|480:156,2,125,8|0|8,0:0|0:0|0:0,0:0:0:0:
388,376,107225,1,0,0:0:0:0:
296,340,107604,2,0,P|248:324|216:324,1,62.5,8|0,0:0|0:0,0:0:0:0:
188,324,107984,2,0,P|128:332|60:312,1,125,0|8,0:0|0:0,0:0:0:0:
64,216,108744,6,0,B|232:276|276:112|432:160,1,375,0|0,0:0|0:0,0:0:0:0:
502,217,110263,2,0,L|512:360,2,125,0|8|0,0:0|0:0|0:0,0:0:0:0:
512,114,111402,2,0,L|507:45,1,62.5,8|0,0:0|0:0,0:0:0:0:
468,20,111782,5,0,0:0:0:0:
256,192,120896,12,0,123174,0:0:0:0:
148,184,123933,6,2,L|284:160,1,125,6|8,0:0|0:0,0:0:0:0:
364,124,124693,2,2,P|384:160|384:192,1,62.5,2|0,0:0|0:0,0:0:0:0:
372,228,125073,1,8,0:0:0:0:
340,324,125452,2,0,L|292:364,1,62.5,2|0,0:0|0:0,0:0:0:0:
244,348,125832,2,0,L|184:364,1,62.5,8|0,0:0|0:0,0:0:0:0:
140,340,126212,2,2,L|16:332,1,125,2|8,0:0|0:0,0:0:0:0:
0,232,126971,6,2,P|32:228|60:236,1,62.5,2|0,0:0|0:0,0:0:0:0:
108,252,127351,2,2,P|137:260|168:256,1,62.5,8|0,0:0|0:0,0:0:0:0:
216,240,127731,2,2,L|344:252,1,125,2|8,0:0|0:0,0:0:0:0:
440,244,128490,2,0,P|456:280|456:308,2,62.5,2|0|8,0:0|0:0|0:0,0:0:0:0:
428,196,129060,1,0,0:0:0:0:
432,148,129250,2,2,P|372:164|296:148,1,125,2|8,0:0|0:0,0:0:0:0:
220,124,130009,6,2,P|156:116|84:136,1,125,6|8,0:0|0:0,0:0:0:0:
21,194,130769,2,2,P|21:226|33:254,2,62.5,2|0|8,0:0|0:0|0:0,0:0:0:0:
21,93,131528,2,0,L|6:25,1,62.5,2|0,0:0|0:0,0:0:0:0:
57,26,131908,2,0,P|89:34|117:26,1,62.5,8|0,0:0|0:0,0:0:0:0:
167,28,132288,2,2,L|199:152,1,125,2|8,0:0|0:0,0:0:0:0:
242,238,133047,6,2,P|302:250|366:238,2,125,2|8|2,0:0|0:0|0:0,0:0:0:0:
199,147,134187,1,8,0:0:0:0:
146,231,134566,2,0,P|130:263|130:295,2,62.5,2|0|8,0:0|0:0|0:0,0:0:0:0:
97,142,135326,2,2,P|109:82|93:22,1,125,2|8,0:0|0:0,0:0:0:0:
12,81,136085,6,2,P|0:141|16:201,1,125,2|8,0:0|0:0,0:0:0:0:
63,219,136655,1,0,0:0:0:0:
110,202,136845,2,0,L|234:210,1,125,2|8,0:0|0:0,0:0:0:0:
330,239,137604,2,2,P|346:303|330:363,2,125,2|8|2,0:0|0:0|0:0,0:0:0:0:
304,144,138744,1,8,0:0:0:0:
256,56,139123,6,2,L|124:72,1,125,6|8,0:0|0:0,0:0:0:0:
40,112,139883,1,2,0:0:0:0:
72,148,140073,1,0,0:0:0:0:
120,156,140263,1,8,0:0:0:0:
220,152,140642,2,0,L|284:148,1,62.5,2|0,0:0|0:0,0:0:0:0:
328,128,141022,2,0,L|392:148,1,62.5,8|0,0:0|0:0,0:0:0:0:
424,184,141402,2,2,L|484:308,1,125,2|8,0:0|0:0,0:0:0:0:
424,380,142161,6,2,P|388:376|360:364,2,62.5,2|0|8,0:0|0:0|0:0,0:0:0:0:
452,344,142731,1,0,0:0:0:0:
474,299,142921,2,2,P|418:275|350:275,1,125,2|8,0:0|0:0,0:0:0:0:
260,292,143680,2,2,P|224:292|196:280,1,62.5,6|0,0:0|0:0,0:0:0:0:
184,236,144060,2,2,P|154:225|123:226,1,62.5,8|0,0:0|0:0,0:0:0:0:
88,260,144440,2,2,P|108:192|100:124,1,125,2|8,0:0|0:0,0:0:0:0:
76,44,145199,6,2,P|116:88|184:96,1,125,2|8,0:0|0:0,0:0:0:0:
280,96,145959,1,2,0:0:0:0:
328,100,146149,1,0,0:0:0:0:
368,132,146339,1,8,0:0:0:0:
436,204,146718,2,0,L|420:272,1,62.5,2|0,0:0|0:0,0:0:0:0:
376,284,147098,2,0,L|332:336,1,62.5,8|0,0:0|0:0,0:0:0:0:
284,324,147478,2,2,L|152:352,1,125,2|8,0:0|0:0,0:0:0:0:
68,320,148237,6,0,L|0:336,2,62.5,2|0|8,0:0|0:0|0:0,0:0:0:0:
104,280,148807,1,0,0:0:0:0:
132,240,148997,2,2,L|260:208,1,125,2|8,0:0|0:0,0:0:0:0:
352,192,149756,1,2,0:0:0:0:
396,160,149946,1,0,0:0:0:0:
444,180,150136,2,2,P|484:232|492:292,1,125,8|2,0:0|0:0,0:0:0:0:
452,380,150896,1,8,0:0:0:0:
360,348,151275,6,0,P|308:332|232:336,1,125,2|8,0:0|0:0,0:0:0:0:
200,372,151845,1,0,0:0:0:0:
160,344,152035,2,0,P|136:284|92:232,1,125,2|8,0:0|0:0,0:0:0:0:
28,168,152794,1,2,0:0:0:0:
4,124,152984,1,0,0:0:0:0:
8,76,153174,1,8,0:0:0:0:
95,27,153554,5,6,0:0:0:0:
