osu file format v14

[General]
AudioFilename: Marina and the Diamonds - Homewrecker.mp3
AudioLeadIn: 0
PreviewTime: 42912
Countdown: 0
SampleSet: Soft
StackLeniency: 0.7
Mode: 0
LetterboxInBreaks: 0
WidescreenStoryboard: 1

[Editor]
Bookmarks: 122987,137423,157273,180732,195168
DistanceSpacing: 1
BeatDivisor: 3
GridSize: 4
TimelineZoom: 1

[Metadata]
Title:Homewrecker
TitleUnicode:Homewrecker
Artist:Marina and The Diamonds
ArtistUnicode:Marina and The Diamonds
Creator:Bakari
Version:Plebian
Source:
Tags:electropop lambrini diamandis Electra Heart
BeatmapID:755127
BeatmapSetID:341520

[Difficulty]
HPDrainRate:2
CircleSize:3
OverallDifficulty:2
ApproachRate:3
SliderMultiplier:0.9
SliderTickRate:1

[Events]
//Background and Video events
0,0,"yOzLD.jpg",0,0
//Break Periods
2,137423,157273
//Storyboard Layer 0 (Background)
//Storyboard Layer 1 (Fail)
//Storyboard Layer 2 (Pass)
//Storyboard Layer 3 (Foreground)
//Storyboard Sound Samples

[TimingPoints]
7499,451.127819548872,4,2,1,35,1,0
43589,-100,4,1,0,65,0,1
58025,-100,4,2,1,65,0,0
79679,-100,4,1,0,65,0,1
93965,-100,4,1,0,65,0,0
94115,-100,4,1,0,65,0,1
108551,-100,4,2,1,65,0,0
166295,-100,4,1,0,65,0,1
180581,-100,4,1,0,65,0,0
180732,-100,4,1,0,65,0,1
195168,-100,4,2,0,40,0,0

[Colours]
Combo1 : 103,156,125
Combo2 : 179,204,208
Combo3 : 75,105,137

[HitObjects]
484,200,21935,6,0,P|500:140|440:24,1,180,2|0,0:0|0:0,0:0:0:0:
280,72,23739,2,0,P|224:76|104:24,1,180,0|0,0:0|0:0,0:0:0:0:
36,192,25544,6,0,P|84:176|128:136,2,90,0|0|0,0:0|0:0|0:0,0:0:0:0:
188,288,27348,2,0,P|252:296|288:316,1,90,0|0,0:0|0:0,0:0:0:0:
340,368,28250,1,0,0:0:0:0:
460,232,29153,6,0,L|484:40,1,180,2|0,0:0|0:0,0:0:0:0:
336,160,30957,2,0,P|268:160|168:100,1,180,0|0,0:0|0:0,0:0:0:0:
4,168,32762,6,0,P|4:224|80:336,1,180,2|0,0:0|0:0,0:0:0:0:
244,368,34566,1,0,0:0:0:0:
216,284,35017,1,0,0:0:0:0:
212,196,35468,1,0,0:0:0:0:
324,52,36371,6,0,P|376:40|408:200,1,270,2|0,0:0|0:0,0:0:0:0:
332,156,38175,2,0,L|136:132,1,180,0|0,0:0|0:0,0:0:0:0:
20,252,39980,6,0,P|8:320|144:288,1,270,2|0,0:0|0:0,0:0:0:0:
192,220,41784,2,0,P|236:204|364:264,1,180
208,356,43589,5,4,0:0:0:0:
264,284,44040,2,0,L|248:96,1,180,8|8,0:0|0:0,0:0:0:0:
180,48,45393,1,0,0:0:0:0:
100,88,45844,2,0,P|92:148|188:224,1,180,8|8,0:0|0:0,0:0:0:0:
264,208,47198,6,0,L|448:232,1,180,0|0,0:0|0:0,0:0:0:0:
488,308,48551,1,8,0:0:0:0:
400,328,49002,2,0,L|304:316,1,90,0|8,0:0|0:0,0:0:0:0:
252,148,50356,1,8,0:0:0:0:
316,88,50807,5,0,0:0:0:0:
264,16,51258,2,0,P|224:16|120:120,1,180,8|8,0:0|0:0,0:0:0:0:
144,192,52611,1,0,0:0:0:0:
232,188,53062,2,0,P|276:208|320:332,1,180,8|8,0:0|0:0,0:0:0:0:
240,356,54416,6,0,L|136:344,1,90,0|8,0:0|0:0,0:0:0:0:
80,292,55318,1,0,0:0:0:0:
48,208,55769,1,8,0:0:0:0:
120,156,56220,2,0,P|128:132|140:56,1,90,0|8,0:0|0:0,0:0:0:0:
224,36,57123,2,0,P|256:56|300:96,1,90,0|8,0:0|0:0,0:0:0:0:
336,172,58025,6,0,P|376:200|512:208,2,180,0|0|0,0:0|0:0|0:0,0:0:0:0:
216,40,60732,2,0,L|120:36,1,90,0|2,0:0|0:0,0:0:0:0:
36,44,61634,6,0,B|-16:108|84:200|84:200|176:284|116:360,1,360
55,297,63889,1,2,0:0:0:0:
220,224,64792,1,2,0:0:0:0:
288,284,65243,6,0,L|276:376,2,90,0|2|0,0:0|0:0|0:0,0:0:0:0:
372,248,66596,1,2,0:0:0:0:
448,204,67047,2,0,P|468:156|320:32,1,270,0|2,0:0|0:0,0:0:0:0:
264,88,68852,6,0,L|76:60,1,180,0|0,0:0|0:0,0:0:0:0:
8,224,70656,2,0,L|196:256,1,180,0|0,0:0|0:0,0:0:0:0:
272,284,72010,1,2,0:0:0:0:
344,232,72461,6,0,B|381:175|444:152|460:100|432:61|399:33|336:60|336:60|315:32|287:6|219:30|211:74|232:147|267:195,1,540,2|2,0:0|0:0,0:0:0:0:
444,192,76070,6,0,B|152:112|152:112|164:40|164:40|96:72|36:76|36:76|72:112|88:156|96:192,1,630
128,264,79679,5,4,0:0:0:0:
220,248,80130,2,0,L|404:304,1,180,8|8,0:0|0:0,0:0:0:0:
476,272,81483,1,0,0:0:0:0:
484,184,81935,2,0,P|436:152|320:200,1,180,8|8,0:0|0:0,0:0:0:0:
280,264,83288,5,0,0:0:0:0:
196,232,83739,2,0,P|164:236|104:256,2,90,8|0|8,0:0|0:0|0:0,0:0:0:0:
256,164,85092,2,0,P|236:132|36:168,1,270,0|8,0:0|0:0,0:0:0:0:
32,248,86897,5,0,0:0:0:0:
100,308,87348,2,0,P|184:316|260:252,1,180,8|8,0:0|0:0,0:0:0:0:
256,168,88702,1,0,0:0:0:0:
224,84,89153,2,0,L|424:72,1,180,8|8,0:0|0:0,0:0:0:0:
484,112,90506,6,0,P|500:176|360:156,1,270,0|8,0:0|0:0,0:0:0:0:
332,80,92311,2,0,P|280:20|152:128,1,270,0|8,0:0|0:0,0:0:0:0:
243,107,94115,5,4,0:0:0:0:
308,168,94566,2,0,L|300:360,1,180,8|8,0:0|0:0,0:0:0:0:
220,308,95920,1,0,0:0:0:0:
132,284,96371,2,0,L|140:92,1,180,8|8,0:0|0:0,0:0:0:0:
72,44,97724,5,0,0:0:0:0:
48,132,98175,2,0,P|84:180|208:180,1,180,8|8,0:0|0:0,0:0:0:0:
272,136,99529,2,0,L|460:148,1,180,0|0,0:0|0:0,0:0:0:0:
500,224,100882,1,8,0:0:0:0:
432,280,101333,5,0,0:0:0:0:
364,340,101784,2,0,L|176:320,1,180,8|8,0:0|0:0,0:0:0:0:
152,236,103138,1,0,0:0:0:0:
196,156,103589,2,0,P|252:160|336:256,1,180,8|8,0:0|0:0,0:0:0:0:
324,336,104942,5,0,0:0:0:0:
236,360,105393,2,0,L|44:328,1,180,8|8,0:0|0:0,0:0:0:0:
16,248,106747,1,0,0:0:0:0:
64,172,107198,2,0,P|124:176|204:288,1,180,8|8,0:0|0:0,0:0:0:0:
284,296,108551,6,0,P|368:273|445:316,2,180,4|0|0,0:0|0:0|0:0,0:0:0:0:
268,208,110807,2,0,L|356:36,1,180,2|2,0:0|0:0,0:0:0:0:
432,12,112160,6,0,P|476:56|456:252,1,270,2|0,0:0|0:0,0:0:0:0:
376,280,113965,1,2,0:0:0:0:
252,152,114867,1,2,0:0:0:0:
96,244,115769,6,0,P|76:192|108:56,1,180,2|0,0:0|0:0,0:0:0:0:
172,24,117123,1,2,0:0:0:0:
256,52,117574,2,0,L|444:36,1,180,0|0,0:0|0:0,0:0:0:0:
332,184,119378,6,0,L|144:200,1,180,0|0,0:0|0:0,0:0:0:0:
60,352,121183,2,0,L|248:336,1,180,0|0,0:0|0:0,0:0:0:0:
416,368,122987,5,0,0:0:0:0:
476,300,123438,2,0,L|492:104,1,180,8|8,0:0|0:0,0:0:0:0:
456,36,124792,2,0,P|384:20|400:160,1,270,0|8,0:0|0:0,0:0:0:0:
416,248,126596,6,0,L|228:292,1,180,0|0,0:0|0:0,0:0:0:0:
188,216,127950,1,8,0:0:0:0:
152,136,128401,2,0,L|340:92,2,180,0|0|0,0:0|0:0|0:0,0:0:0:0:
24,256,131108,6,0,P|8:296|16:360,1,90,0|8,0:0|0:0,0:0:0:0:
96,312,132010,2,0,L|280:328,1,180,0|0,0:0|0:0,0:0:0:0:
344,272,133363,1,8,0:0:0:0:
416,216,133814,6,0,B|384:184|352:184|320:184|320:184|416:56|256:-48|96:56|192:184|192:184|160:184|128:184|96:216,1,630,0|8,0:0|0:0,0:0:0:0:
256,192,159077,12,0,164490,0:0:0:0:
64,216,166295,6,0,P|44:296|184:292,1,270,4|8,0:0|0:0,0:0:0:0:
148,212,168100,1,0,0:0:0:0:
104,132,168551,2,0,P|96:84|200:40,1,180,8|8,0:0|0:0,0:0:0:0:
256,108,169905,5,0,0:0:0:0:
314,38,170356,2,0,P|397:49|408:132,1,180,8|8,0:0|0:0,0:0:0:0:
324,160,171709,2,0,B|336:248|336:248|384:272|396:336,1,180,0|0,0:0|0:0,0:0:0:0:
299,334,173062,1,8,0:0:0:0:
213,334,173514,5,0,0:0:0:0:
120,317,173965,2,0,B|128:272|176:248|176:248|188:160,1,180,8|8,0:0|0:0,0:0:0:0:
152,80,175318,1,0,0:0:0:0:
212,16,175769,2,0,P|256:20|336:124,1,180,8|8,0:0|0:0,0:0:0:0:
280,192,177123,5,0,0:0:0:0:
364,220,177574,2,0,L|468:208,2,90,8|0|8,0:0|0:0|0:0,0:0:0:0:
324,300,178927,2,0,P|264:340|88:256,1,270,0|8,0:0|0:0,0:0:0:0:
80,184,180732,5,4,0:0:0:0:
168,208,181183,2,0,P|212:196|324:88,1,180,8|8,0:0|0:0,0:0:0:0:
276,28,182536,1,0,0:0:0:0:
196,68,182987,2,0,L|8:56,1,180,8|8,0:0|0:0,0:0:0:0:
36,144,184341,5,0,0:0:0:0:
56,232,184792,2,0,L|240:244,1,180,0|8,0:0|0:0,0:0:0:0:
272,324,186145,2,0,P|312:340|320:244,1,180,0|0,0:0|0:0,0:0:0:0:
280,164,187498,1,8,0:0:0:0:
348,108,187950,5,0,0:0:0:0:
284,48,188401,2,0,L|96:60,1,180,8|8,0:0|0:0,0:0:0:0:
80,144,189754,1,0,0:0:0:0:
56,232,190205,2,0,L|244:220,1,180,8|8,0:0|0:0,0:0:0:0:
308,272,191559,5,0,0:0:0:0:
380,216,192010,2,0,P|420:200|396:88,1,180,8|8,0:0|0:0,0:0:0:0:
308,80,193363,1,0,0:0:0:0:
232,124,193814,1,8,0:0:0:0:
168,184,194265,1,0,0:0:0:0:
120,260,194717,1,8,0:0:0:0:
100,348,195168,5,2,0:0:0:0:
