osu file format v14

[General]
AudioFilename: audio.mp3
AudioLeadIn: 0
PreviewTime: 41077
Countdown: 1
SampleSet: Soft
StackLeniency: 0.7
Mode: 0
LetterboxInBreaks: 0
WidescreenStoryboard: 1

[Editor]
Bookmarks: 20556,21911,41911,59411
DistanceSpacing: 1.1
BeatDivisor: 6
GridSize: 32
TimelineZoom: 1.2

[Metadata]
Title:Fukashigi no Karte
TitleUnicode:不可思議のカルテ
Artist:Marina Rios
ArtistUnicode:Marina Rios
Creator:Seto Kousuke
Version:Insane
Source:青春ブタ野郎はバニーガール先輩の夢を見ない
Tags:Seishun Buta Yarō Yarou wa no Yume o Minai ao-buta Puberty Syndrome: Abnormal experiences during adolescence due to sensitivity and instability. Rascal Does Not Dream of Bunny Girl Senpai Carte Karute Kyonamu anime japanese ending Trynna Ataraxia
BeatmapID:1919574
BeatmapSetID:919348

[Difficulty]
HPDrainRate:5
CircleSize:4
OverallDifficulty:7
ApproachRate:8
SliderMultiplier:1.8
SliderTickRate:1

[Events]
//Background and Video events
0,0,"marina is a bunny.png",0,0
//Break Periods
//Storyboard Layer 0 (Background)
//Storyboard Layer 1 (Fail)
//Storyboard Layer 2 (Pass)
//Storyboard Layer 3 (Foreground)
//Storyboard Sound Samples

[TimingPoints]
1197,722.89156626506,4,2,1,50,1,0
1921,625,4,2,1,50,1,0
5046,-133.333333333333,4,2,1,50,0,0
6191,-100,4,2,1,50,0,0
19421,-166.666666666667,4,2,1,50,0,0
20671,-166.666666666667,4,2,1,70,0,0
21296,-71.4285714285714,4,2,1,70,0,0
21608,-181.818181818181,4,2,1,70,0,0
21921,-71.4285714285714,4,2,1,70,0,0
41921,-58.8235294117647,4,2,1,80,0,1
59421,-222.222222222221,4,2,1,70,0,0
59889,-222.222222222221,4,2,1,40,0,0

[Colours]
Combo1 : 179,182,233
Combo2 : 212,158,143
Combo3 : 169,129,157

[HitObjects]
173,131,1197,6,0,P|181:163|176:203,2,60,2|0|0,0:0|0:0|0:0,0:0:0:0:
102,180,1921,6,0,L|100:314,1,120,2|0,0:0|0:0,0:0:0:0:
176,368,2546,2,0,P|204:371|254:359,2,60
218,284,3171,2,0,B|280:273|275:309|339:289,1,120,2|0,0:0|0:0,0:0:0:0:
433,220,3796,2,0,P|424:249|429:294,1,60
504,160,4212,1,0,0:0:0:0:
420,94,4421,6,0,L|277:102,1,120,2|0,0:0|0:0,0:0:0:0:
201,188,5046,2,0,P|280:122|220:40,1,225.000008583069,2|0,0:0|0:0,0:0:0:0:
56,56,6296,1,2,0:0:0:0:
51,92,6504,1,2,0:0:0:0:
46,128,6712,1,2,0:0:0:0:
41,164,6921,6,0,L|69:299,1,120,2|0,0:0|0:0,0:0:0:0:
161,362,7546,2,0,P|174:326|173:282,1,60,2|0,0:0|0:0,0:0:0:0:
145,210,7962,1,0,0:0:0:0:
260,268,8171,2,0,P|304:272|342:206,1,120,2|0,0:0|0:0,0:0:0:0:
505,111,8796,2,0,B|430:130|430:130|422:156|429:185,1,120,2|0,0:0|0:0,0:0:0:0:
208,150,9421,2,0,B|247:132|288:148|288:148|307:131|342:128|342:128|332:100|301:93,2,180,2|0|0,0:0|0:0|0:0,0:0:0:0:
381,325,11296,6,0,P|338:316|300:322,1,60,2|0,0:0|0:0,0:0:0:0:
238,351,11712,1,2,0:0:0:0:
264,254,11921,2,0,P|317:233|398:250,1,120,2|0,0:0|0:0,0:0:0:0:
476,170,12546,2,0,P|431:168|368:123,1,120,2|0,0:0|0:0,0:0:0:0:
203,176,13171,2,0,P|258:152|283:91,1,120,2|0,0:0|0:0,0:0:0:0:
82,128,13796,2,0,L|82:262,1,120,2|0,0:0|0:0,0:0:0:0:
280,345,14421,6,0,B|240:321|220:279|220:279|207:328|180:358,2,180,2|2|2,0:0|0:0|0:0,0:0:0:0:
475,279,16296,2,0,P|476:244|460:207,1,60,2|0,0:0|0:0,0:0:0:0:
380,178,16712,1,2,0:0:0:0:
288,218,16921,1,2,0:0:0:0:
288,218,17546,5,2,0:0:0:0:
317,128,17754,1,2,0:0:0:0:
250,63,17962,1,2,0:0:0:0:
164,117,18171,2,0,L|153:254,1,120,2|0,0:0|0:0,0:0:0:0:
101,313,18796,2,0,P|142:279|214:315,1,120,2|0,0:0|0:0,0:0:0:0:
19,368,19421,6,0,B|17:330|5:305|5:305|15:275|29:258|29:258|0:206|25:153,1,215.999993408203,2|2,0:0|0:0,0:0:0:0:
44,148,21191,5,0,0:0:0:0:
68,126,21296,2,0,P|78:83|57:39,1,83.9999974365235,2|0,0:0|0:0,0:0:0:0:
105,202,21608,6,0,L|113:237,1,33.0000010070801,2|0,0:0|0:0,0:0:0:0:
159,121,21921,6,0,P|205:109|275:154,1,125.999996154785,6|0,0:0|0:0,0:0:0:0:
393,366,22546,2,0,L|436:233,1,125.999996154785,8|0,0:0|0:0,0:0:0:0:
396,24,23066,1,2,0:0:0:0:
384,51,23171,2,0,P|345:70|303:72,1,83.9999974365235
188,57,23483,2,0,P|220:85|236:124,1,83.9999974365235,2|0,0:0|0:0,0:0:0:0:
148,268,23796,1,8,0:0:0:0:
58,65,24108,1,0,0:0:0:0:
23,286,24421,6,0,L|159:266,1,125.999996154785,2|0,0:0|0:0,0:0:0:0:
385,344,25046,2,0,L|249:324,1,125.999996154785,8|0,0:0|0:0,0:0:0:0:
198,139,25566,1,2,0:0:0:0:
224,152,25671,2,0,P|267:148|307:105,1,83.9999974365235
143,78,25983,2,0,P|115:111|117:169,1,83.9999974365235,2|0,0:0|0:0,0:0:0:0:
169,307,26296,2,0,L|168:224,1,83.9999974365235,8|0,0:0|0:0,0:0:0:0:
18,138,26608,2,0,L|19:221,1,83.9999974365235,2|0,0:0|0:0,0:0:0:0:
71,359,26921,6,0,P|133:355|171:283,1,125.999996154785,2|0,0:0|0:0,0:0:0:0:
316,131,27546,2,0,P|298:199|319:282,1,125.999996154785,8|0,0:0|0:0,0:0:0:0:
475,354,28066,1,2,0:0:0:0:
483,325,28171,1,2,0:0:0:0:
350,338,28379,1,0,0:0:0:0:
355,367,28484,1,2,0:0:0:0:
472,226,28691,1,0,0:0:0:0:
479,196,28796,2,0,L|468:109,1,83.9999974365235,8|0,0:0|0:0,0:0:0:0:
316,131,29108,2,0,P|353:113|372:77,1,83.9999974365235,2|0,0:0|0:0,0:0:0:0:
201,65,29421,6,0,B|170:67|144:63|144:63|127:69|127:69|102:63|51:74,1,125.999996154785,2|0,0:0|0:0,0:0:0:0:
11,276,30046,2,0,B|36:269|61:275|61:275|78:269|78:269|104:273|135:271,1,125.999996154785,8|0,0:0|0:0,0:0:0:0:
300,309,30566,1,0,0:0:0:0:
281,331,30671,1,2,0:0:0:0:
219,182,30879,1,0,0:0:0:0:
227,211,30983,2,0,P|271:217|331:194,1,83.9999974365235,2|0,0:0|0:0,0:0:0:0:
399,72,31296,1,8,0:0:0:0:
481,305,31608,1,0,0:0:0:0:
399,72,31921,6,0,P|343:52|276:87,1,125.999996154785,2|0,0:0|0:0,0:0:0:0:
112,216,32546,2,0,P|168:236|235:201,1,125.999996154785,8|0,0:0|0:0,0:0:0:0:
49,67,33066,1,0,0:0:0:0:
41,96,33171,1,2,0:0:0:0:
164,35,33379,1,0,0:0:0:0:
172,64,33484,1,2,0:0:0:0:
26,187,33691,1,0,0:0:0:0:
18,216,33796,2,0,L|29:308,1,83.9999974365235,8|0,0:0|0:0,0:0:0:0:
179,338,34108,2,0,P|139:332|105:355,1,83.9999974365235,2|0,0:0|0:0,0:0:0:0:
188,200,34421,6,0,L|336:201,1,125.999996154785,2|0,0:0|0:0,0:0:0:0:
449,21,35046,2,0,P|429:78|458:143,1,125.999996154785,8|0,0:0|0:0,0:0:0:0:
413,346,35566,1,0,0:0:0:0:
386,331,35671,2,0,P|380:282|396:226,1,83.9999974365235,2|0,0:0|0:0,0:0:0:0:
497,367,35983,1,2,0:0:0:0:
240,355,36191,1,2,0:0:0:0:
240,355,36296,2,0,L|114:335,1,125.999996154785,10|2,0:0|0:0,0:0:0:0:
7,167,36921,6,0,P|68:165|109:128,1,83.9999974365235,2|0,0:0|0:0,0:0:0:0:
89,36,37233,1,0,0:0:0:0:
246,159,37441,1,0,0:0:0:0:
240,130,37546,2,0,P|186:101|132:112,1,83.9999974365235,10|0,0:0|0:0,0:0:0:0:
163,244,37858,1,0,0:0:0:0:
362,167,38066,1,0,0:0:0:0:
372,131,38171,6,0,P|365:85|332:41,1,83.9999974365235,2|0,0:0|0:0,0:0:0:0:
291,245,38483,1,0,0:0:0:0:
483,114,38691,1,0,0:0:0:0:
498,150,38796,2,0,L|499:252,1,83.9999974365235,10|0,0:0|0:0,0:0:0:0:
415,369,39108,2,0,L|414:285,1,83.9999974365235
280,138,39421,1,2,0:0:0:0:
280,138,39941,5,0,0:0:0:0:
274,170,40046,1,2,0:0:0:0:
182,59,40358,1,2,0:0:0:0:
375,95,40566,1,2,0:0:0:0:
357,69,40671,1,2,0:0:0:0:
162,168,40879,1,2,0:0:0:0:
180,142,40984,1,2,0:0:0:0:
381,216,41191,1,0,0:0:0:0:
363,242,41296,6,0,P|320:252|256:254,2,83.9999974365235,2|2|2,0:0|0:0|0:0,0:0:0:0:
224,359,41921,6,0,P|189:331|99:340,1,102.000001945496,4|0,3:2|0:2,0:2:0:0:
10,249,42233,2,0,B|36:249|61:265|61:265|79:239|127:231,1,102.000001945496,2|0,3:2|0:2,0:2:0:0:
5,330,42546,2,0,L|6:140,1,153.000002918243,8|2,0:2|0:2,0:2:0:0:
144,28,43067,1,2,3:2:0:0:
171,52,43171,2,0,P|175:96|148:152,1,102.000001945496,2|0,3:2|0:2,0:2:0:0:
307,281,43483,2,0,P|284:242|285:180,1,102.000001945496,2|0,3:2|0:2,0:2:0:0:
98,91,43796,2,0,L|274:87,1,153.000002918243,8|0,0:2|0:2,0:2:0:0:
512,203,44421,6,0,P|430:198|386:130,1,153.000002918243,2|0,3:2|0:2,0:2:0:0:
58,170,45046,2,0,P|140:175|184:243,1,153.000002918243,8|0,3:2|0:2,0:2:0:0:
366,344,45566,1,2,3:2:0:0:
336,314,45671,2,0,P|350:257|412:233,1,102.000001945496,2|0,3:2|0:2,0:2:0:0:
512,321,45983,2,0,L|420:320,1,102.000001945496,2|0,3:2|0:2,0:2:0:0:
299,182,46296,5,8,0:2:0:0:
220,148,46504,1,2,0:2:0:0:
142,201,46712,1,2,0:2:0:0:
142,303,46921,6,0,L|142:202,1,102.000001945496,2|0,3:2|0:2,0:2:0:0:
219,46,47233,2,0,L|220:148,1,102.000001945496,0|0,3:2|0:2,0:2:0:0:
300,334,47546,2,0,L|298:181,1,153.000002918243,8|0,0:2|0:2,0:2:0:0:
120,84,48066,1,0,3:2:0:0:
90,110,48171,1,2,3:2:0:0:
307,88,48379,1,8,3:2:0:0:
337,114,48484,1,2,3:2:0:0:
180,297,48691,1,0,3:2:0:0:
145,307,48796,6,0,P|87:266|208:267,1,306.000005836487,8|2,0:2|3:2,0:2:0:0:
297,371,49629,1,8,3:2:0:0:
300,331,49734,1,2,3:2:0:0:
410,272,49941,1,2,3:2:0:0:
384,242,50046,1,8,3:2:0:0:
468,116,50254,1,0,3:2:0:0:
428,113,50359,1,2,3:2:0:0:
339,6,50566,1,8,3:2:0:0:
308,32,50671,6,0,P|291:85|311:143,1,102.000001945496,2|0,3:2|0:2,0:2:0:0:
228,260,50983,2,0,B|232:236|222:218|222:218|144:198,1,102.000001945496,2|0,3:2|3:2,0:2:0:0:
8,83,51296,5,8,0:2:0:0:
87,49,51504,1,2,0:2:0:0:
165,101,51712,1,2,0:2:0:0:
165,203,51921,6,0,P|158:248|100:296,1,102.000001945496,2|0,3:2|0:2,0:2:0:0:
25,288,52233,1,2,0:2:0:0:
200,352,52441,1,0,0:2:0:0:
200,352,52546,2,0,L|317:332,1,102.000001945496,10|0,3:2|0:2,0:2:0:0:
391,312,52858,1,2,0:2:0:0:
316,119,53066,1,0,3:2:0:0:
348,149,53171,2,0,P|419:145|439:107,1,102.000001945496,2|0,3:2|3:2,0:2:0:0:
461,35,53483,1,2,0:2:0:0:
220,93,53691,1,0,3:2:0:0:
220,93,53796,2,0,L|221:215,1,102.000001945496,10|0,3:2|0:2,0:2:0:0:
223,291,54108,1,2,0:2:0:0:
15,236,54316,5,0,3:2:0:0:
56,219,54421,2,0,P|83:149|61:107,1,102.000001945496,2|0,3:2|0:2,0:2:0:0:
20,70,54733,2,0,L|144:65,1,102.000001945496,0|0,3:2|0:2,0:2:0:0:
220,93,55046,2,0,P|192:51|204:3,1,102.000001945496,10|0,3:2|0:2,0:2:0:0:
308,44,55358,2,0,L|313:153,1,102.000001945496,0|0,3:2|0:2,0:2:0:0:
320,229,55671,1,2,3:2:0:0:
486,161,55879,1,8,3:2:0:0:
437,157,55983,1,2,3:2:0:0:
363,317,56191,1,2,3:2:0:0:
398,338,56296,5,8,0:2:0:0:
299,364,56504,1,2,0:2:0:0:
237,287,56712,1,2,0:2:0:0:
235,173,56921,6,0,L|234:19,1,153.000002918243,2|0,3:2|0:2,0:2:0:0:
27,92,57546,1,8,0:2:0:0:
108,156,57754,1,2,0:2:0:0:
132,271,57962,1,2,0:2:0:0:
58,366,58171,2,0,L|200:363,1,102.000001945496,2|8,3:2|3:2,0:2:0:0:
252,359,58483,1,0,3:2:0:0:
263,174,58691,1,0,3:2:0:0:
293,210,58796,2,0,P|354:219|390:181,1,102.000001945496,10|0,3:2|0:2,0:2:0:0:
429,112,59108,1,0,3:2:0:0:
171,38,59316,5,2,3:2:0:0:
146,67,59421,2,0,P|138:105|147:154,1,80.9999975280763,4|0,0:2|0:2,0:2:0:0:
