osu file format v14

[General]
AudioFilename: audio.mp3
AudioLeadIn: 0
PreviewTime: 33694
Countdown: 0
SampleSet: Soft
StackLeniency: 0.7
Mode: 0
LetterboxInBreaks: 0
EpilepsyWarning: 1
WidescreenStoryboard: 1

[Editor]
DistanceSpacing: 1.2
BeatDivisor: 4
GridSize: 32
TimelineZoom: 1

[Metadata]
Title:True Colours
TitleUnicode:True Colours
Artist:Marina And The Diamonds
ArtistUnicode:Marina And The Diamonds
Creator:Wafu
Version:Normal
Source:
Tags:Μαρίνα-Λαμπρινή Διαμαντή Lambrini Diamandis froot indie Cyndi Lauper Cover
BeatmapID:962490
BeatmapSetID:448305

[Difficulty]
HPDrainRate:3.5
CircleSize:3.5
OverallDifficulty:3.5
ApproachRate:4.3
SliderMultiplier:1.1
SliderTickRate:1

[Events]
//Background and Video events
0,0,"bg.jpg",0,0
//Break Periods
//Storyboard Layer 0 (Background)
//Storyboard Layer 1 (Fail)
//Storyboard Layer 2 (Pass)
//Storyboard Layer 3 (Foreground)
//Storyboard Sound Samples

[TimingPoints]
674,714.285714285714,4,2,2,50,1,0
1031,-100,4,2,5,50,0,0
1388,-100,4,2,4,50,0,0
1745,-100,4,2,2,50,0,0
2459,-100,4,2,5,50,0,0
2816,-100,4,2,4,50,0,0
3173,-100,4,2,2,50,0,0
4245,-100,4,2,4,50,0,0
4602,-100,4,2,6,50,0,0
5316,-100,4,2,5,50,0,0
5673,-100,4,2,4,50,0,0
6388,-100,4,2,2,50,0,0
7102,-100,4,2,4,50,0,0
7459,-100,4,2,2,50,0,0
8531,-100,4,2,4,50,0,0
9245,740.740740740741,4,2,2,50,1,0
9985,-100,4,2,4,50,0,0
10356,-100,4,2,6,50,0,0
10761,731.707317073171,4,2,1,25,1,0
12205,731.707317073171,4,2,6,50,1,0
12936,-100,4,2,1,25,0,0
13302,-100,4,2,5,50,0,0
15035,722.89156626506,4,2,10,50,1,0
15721,722.89156626506,4,2,1,25,1,0
16119,722.89156626506,4,2,7,50,1,0
17246,731.707317073171,4,2,1,25,1,0
17886,714.285714285714,4,2,12,50,1,0
18243,-100,4,2,1,25,0,0
20653,714.285714285714,4,2,4,50,1,0
21010,-100,4,2,1,25,0,0
21724,-100,4,2,3,50,0,0
22095,-100,4,2,1,25,0,0
23504,697.674418604651,4,2,10,50,1,0
24201,-100,4,2,1,25,0,0
24899,-100,4,2,9,50,0,0
26294,714.285714285714,4,2,8,50,1,0
26651,-100,4,2,1,25,0,0
27365,-100,4,2,7,50,0,0
27722,-100,4,2,1,25,0,0
29153,731.707317073171,4,2,12,50,1,0
29884,-100,4,2,1,25,0,0
30250,-100,4,2,11,50,0,0
31630,638.297872340426,4,2,1,25,1,0
32231,731.707317073171,4,2,10,50,1,0
32962,-100,4,2,1,25,0,0
33328,-100,4,2,13,50,0,0
34426,-100,4,2,8,50,0,0
35177,722.89156626506,4,2,12,50,1,0
35899,-100,4,2,1,25,0,0
36261,-100,4,2,13,50,0,0
36984,-100,4,2,1,25,0,0
38029,731.707317073171,4,2,8,50,1,0
38394,-100,4,2,1,25,0,0
40955,-100,4,2,10,50,0,0
41991,731.707317073171,4,2,13,50,1,0
42722,-100,4,2,1,25,0,0
43516,731.707317073171,4,2,1,25,1,0
43820,731.707317073171,4,2,10,50,1,0
44185,-100,4,2,1,25,0,0
44917,-100,4,2,13,50,0,0
45958,731.707317073171,4,2,11,50,1,0
46654,731.707317073171,4,2,10,50,1,0
47385,-100,4,2,1,25,0,0
47751,-100,4,2,13,50,0,0
49183,731.707317073171,4,2,1,25,1,0
49510,714.285714285714,4,2,9,50,1,0
49867,-100,4,2,1,25,0,0
50594,731.707317073171,4,2,10,50,1,0
51325,-100,4,2,1,25,0,0
51691,-100,4,2,1,25,0,0
52346,714.285714285714,4,2,10,50,1,0
53060,-100,4,2,1,25,0,0
53417,-100,4,2,13,50,0,0
55203,-100,4,2,10,50,0,0
55917,-100,4,2,1,25,0,0
56274,-100,4,2,13,50,0,0
58172,750,4,2,13,50,1,0
58922,-100,4,2,1,25,0,0
59297,-100,4,2,1,25,0,0
59672,-100,4,2,9,50,0,0
63261,714.285714285714,4,2,2,50,1,0
63618,-100,4,2,5,50,0,0
63975,-100,4,2,4,50,0,0
64332,-100,4,2,2,50,0,0
65046,-100,4,2,5,50,0,0
65403,-100,4,2,4,50,0,0
65761,-100,4,2,2,50,0,0
66832,-100,4,2,4,50,0,0
67189,740.740740740741,4,2,6,25,1,0
67929,-100,4,2,5,50,0,0
68300,-100,4,2,4,50,0,0
68670,-100,4,2,6,50,0,0
69040,714.285714285714,4,2,2,25,1,0
69754,-100,4,2,4,50,0,0
70444,714.285714285714,4,2,2,50,1,0
71158,-100,4,2,4,50,0,0
71872,740.740740740741,4,2,2,50,1,0
72242,-100,4,2,5,50,0,0
72612,-100,4,2,4,50,0,0
72983,-100,4,2,6,50,0,0
73353,731.707317073171,4,2,1,25,1,0
74832,731.707317073171,4,2,12,50,1,0
75563,-100,4,2,1,25,0,0
75929,-100,4,2,11,50,0,0
77594,722.89156626506,4,2,10,50,1,0
77955,-100,4,2,1,25,0,0
78678,-100,4,2,7,50,0,0
79401,-100,4,2,1,25,0,0
80427,731.707317073171,4,2,12,50,1,0
80792,-100,4,2,1,25,0,0
81524,-100,4,2,12,50,0,0
82581,714.285714285714,4,2,6,50,1,0
82938,-100,4,2,4,50,0,0
83307,714.285714285714,4,2,12,50,1,0
83664,-100,4,2,1,25,0,0
84309,714.285714285714,4,2,10,50,1,0
85023,-100,4,2,1,25,0,0
85380,-100,4,2,11,50,0,0
86122,714.285714285714,4,2,10,50,1,0
86479,-100,4,2,13,50,0,0
86836,-100,4,2,14,50,0,0
87550,-100,4,2,9,50,0,0
87907,-100,4,2,14,50,0,0
88264,-100,4,2,12,50,0,0
88979,-100,4,2,7,50,0,0
89693,-100,4,2,5,50,0,0
90050,-100,4,2,4,50,0,0
91122,-100,4,2,10,50,0,0
91836,-100,4,2,8,50,0,0
92520,769.230769230769,4,2,1,25,1,0
92904,-100,4,2,13,50,0,0
93289,666.666666666667,4,2,1,25,1,0
93955,-100,4,2,11,50,0,0
94668,714.285714285714,4,2,10,50,1,0
95025,-100,4,2,14,50,0,0
95382,-100,4,2,12,50,0,0
95721,714.285714285714,4,2,10,50,1,0
96792,-100,4,2,7,50,0,0
97461,714.285714285714,4,2,6,60,1,1
98175,-100,4,2,10,60,0,1
98532,-100,4,2,6,60,0,1
99246,-100,4,2,10,60,0,1
99603,-100,4,2,8,50,0,1
99961,-100,4,2,10,50,0,1
100318,-100,4,2,8,60,0,1
101032,-100,4,2,8,60,0,1
101389,-100,4,2,9,60,0,1
102461,-100,4,2,8,60,0,1
103151,714.285714285714,4,2,6,60,1,1
103865,-100,4,2,10,60,0,1
104222,-100,4,2,6,60,0,1
104936,-100,4,2,10,60,0,1
105293,-100,4,2,8,60,0,1
105975,714.285714285714,4,2,6,60,1,1
106332,-100,4,2,12,60,0,1
106689,-100,4,2,10,60,0,1
107046,-100,4,2,6,60,0,1
107760,-100,4,2,10,60,0,1
108080,714.285714285714,4,2,11,60,1,1
108794,714.285714285714,4,2,2,60,1,1
109508,-100,4,2,4,60,0,1
109865,-100,4,2,13,60,0,1
110909,714.285714285714,4,2,4,60,1,1
111266,-100,4,2,10,60,0,1
111599,714.285714285714,4,2,12,60,1,1
112313,-100,4,2,10,60,0,1
112636,714.285714285714,4,2,4,60,1,1
114457,666.666666666667,4,2,10,50,1,0
115123,-100,4,2,1,25,0,0
115457,-100,4,2,10,50,0,0
116956,714.285714285714,4,2,1,25,1,0
117275,714.285714285714,4,2,8,50,1,0
117989,-100,4,2,1,25,0,0
118346,-100,4,2,1,25,0,0
118765,714.285714285714,4,2,9,50,1,0
121108,714.285714285714,4,2,1,25,1,0
121822,-100,4,2,1,20,0,0
122536,-100,4,2,1,15,0,0
123250,-100,4,2,1,10,0,0
123965,-100,4,2,1,5,0,0

[Colours]
Combo1 : 34,100,255
Combo2 : 164,64,244
Combo3 : 235,94,247
Combo4 : 255,40,46
Combo5 : 247,124,72
Combo6 : 240,255,55
Combo7 : 94,255,70
Combo8 : 62,255,236

[HitObjects]
342,72,674,6,0,L|396:69,2,55,2|0|0,0:0|0:0|0:0,0:0:0:0:
210,61,2102,2,0,L|155:63,2,55,0|0|0,0:0|0:0|0:0,0:0:0:0:
275,175,3531,2,0,P|278:229|258:279,1,110
198,307,4602,2,0,L|88:297,1,110,0|0,0:0|0:0,0:0:0:0:
48,245,5673,1,0,0:0:0:0:
123,136,6388,5,2,0:0:0:0:
241,194,7102,1,0,0:0:0:0:
340,107,7816,2,0,L|449:101,1,110,0|0,0:0|0:0,0:0:0:0:
507,214,9245,2,0,P|501:267|466:309,1,110
402,323,10356,1,0,0:0:0:0:
72,269,12205,6,0,B|94:231|73:190|73:190|52:149|73:112,1,165,2|0,0:0|0:0,0:0:0:0:
386,55,15035,2,0,L|396:173,1,104.4
434,220,16119,1,0,0:0:0:0:
262,328,17246,1,0,0:0:0:0:
164,261,17886,6,0,P|110:250|59:269,1,110,2|0,0:0|0:0,0:0:0:0:
431,344,20653,2,0,L|485:335,2,55
366,332,21724,1,0,0:0:0:0:
262,89,23153,1,0,0:0:0:0:
237,150,23504,6,0,P|143:201|41:168,1,220,2|0,0:0|0:0,0:0:0:0:
237,336,26294,2,0,L|291:326,2,55
174,314,27365,2,0,P|147:237|172:160,1,165,0|0,0:0|0:0,0:0:0:0:
287,101,29153,6,0,L|451:93,1,165,2|0,0:0|0:0,0:0:0:0:
210,357,32231,2,0,L|100:360,1,110
41,329,33328,2,0,P|31:276|48:224,1,110,0|0,0:0|0:0,0:0:0:0:
98,181,34426,1,0,0:0:0:0:
191,281,35177,6,0,L|355:267,1,165,2|2,0:0|0:0,0:0:0:0:
395,141,36984,1,0,0:0:0:0:
230,48,38029,2,0,P|154:70|149:146,1,165,2|0,0:0|0:0,0:0:0:0:
344,179,40224,2,0,L|405:171,1,55,0|0,0:0|0:0,0:0:0:0:
457,200,40955,5,2,0:0:0:0:
331,337,41991,2,0,P|250:352|170:333,1,165,2|0,0:0|0:0,0:0:0:0:
101,220,43820,2,0,L|100:157,2,55,2|0|0,0:0|0:0|0:0,0:0:0:0:
59,271,44917,1,2,0:0:0:0:
233,339,45958,1,2,0:0:0:0:
356,322,46654,6,0,P|393:282|401:228,1,110,2|0,0:0|0:0,0:0:0:0:
394,163,47751,1,2,0:0:0:0:
87,58,49510,2,0,L|32:53,2,55,2|0|0,0:0|0:0|0:0,0:0:0:0:
143,93,50594,2,0,P|159:173|125:247,1,165,2|0,0:0|0:0,0:0:0:0:
151,365,52346,6,0,L|315:349,1,165,2|0,0:0|0:0,0:0:0:0:
474,60,55203,2,0,L|309:75,1,165,2|0,0:0|0:0,0:0:0:0:
9,224,58172,6,0,P|46:294|125:301,1,165,2|0,0:0|0:0,0:0:0:0:
182,269,59672,1,0,0:0:0:0:
377,135,63261,6,0,L|379:80,2,55,2|0|0,0:0|0:0|0:0,0:0:0:0:
410,262,64689,2,0,L|407:316,2,55,0|0|0,0:0|0:0|0:0,0:0:0:0:
299,189,66118,2,0,B|272:177|246:188|246:188|220:199|191:188,1,110
147,142,67189,1,0,0:0:0:0:
69,248,67929,2,0,L|77:308,2,55,0|0|0,0:0|0:0|0:0,0:0:0:0:
27,193,69040,6,0,P|22:138|42:88,1,110,2|0,0:0|0:0,0:0:0:0:
165,56,70444,2,0,L|274:64,1,110,0|0,0:0|0:0,0:0:0:0:
388,121,71872,2,0,L|457:115,2,55
352,176,72983,1,0,0:0:0:0:
25,243,74832,6,0,P|45:321|118:355,1,165,2|0,0:0|0:0,0:0:0:0:
412,279,77594,2,0,L|420:161,1,110
371,123,78678,2,0,P|317:131|267:111,1,110,0|0,0:0|0:0,0:0:0:0:
225,60,79762,1,0,0:0:0:0:
123,124,80427,6,0,L|132:288,1,165,2|0,0:0|0:0,0:0:0:0:
327,291,82581,2,0,P|354:289|381:292,1,55,0|0,0:0|0:0,0:0:0:0:
448,306,83307,2,0,L|454:196,1,110
429,149,84309,2,0,P|353:119|273:137,1,165,0|0,0:0|0:0,0:0:0:0:
151,198,86122,6,0,L|96:187,2,55,2|0|0,0:0|0:0|0:0,0:0:0:0:
235,299,87550,2,0,L|289:309,2,55,0|0|0,0:0|0:0|0:0,0:0:0:0:
110,341,88979,2,0,P|59:325|36:277,1,110
43,211,90050,1,0,0:0:0:0:
171,60,91122,1,0,0:0:0:0:
288,120,91836,5,2,0:0:0:0:
395,71,92520,2,0,L|455:76,1,55,0|0,0:0|0:0,0:0:0:0:
498,134,93289,2,0,P|498:188|473:236,1,110,0|0,0:0|0:0,0:0:0:0:
356,297,94668,2,0,L|359:351,2,55
300,266,95721,2,0,P|248:284|195:274,1,110,0|0,0:0|0:0,0:0:0:0:
145,231,96792,1,0,0:0:0:0:
158,108,97461,6,0,P|231:72|309:95,1,165,2|2,0:0|0:0,0:0:0:0:
412,177,99246,2,0,L|466:168,2,55,0|2|0,0:0|0:0|0:0,0:0:0:0:
360,219,100318,2,0,B|322:241|281:220|281:220|240:199|203:220,1,165,2|2,0:0|0:0,0:0:0:0:
55,352,102461,1,2,0:0:0:0:
29,227,103151,6,0,L|41:117,1,110,2|0,0:0|0:0,0:0:0:0:
98,84,104222,2,0,P|162:131|242:118,1,165,2|2,0:0|0:0,0:0:0:0:
354,61,105975,2,0,L|408:55,2,55,2|0|0,0:0|0:0|0:0,0:0:0:0:
292,36,107046,2,0,P|239:22|187:38,1,110,2|0,0:0|0:0,0:0:0:0:
141,74,108080,1,0,0:0:0:0:
66,182,108794,6,0,L|73:291,1,110,2|0,0:0|0:0,0:0:0:0:
119,339,109865,1,2,0:0:0:0:
307,296,110909,2,0,L|361:298,1,55,2|0,0:0|0:0,0:0:0:0:
421,285,111599,2,0,P|438:233|430:179,1,110,2|0,0:0|0:0,0:0:0:0:
392,133,112636,1,2,2:0:0:0:
48,53,114457,6,0,P|-4:114|6:194,1,165,2|0,0:0|0:0,0:0:0:0:
300,355,117275,2,0,P|352:294|341:214,1,165,2|0,0:0|0:0,0:0:0:0:
289,158,118765,1,0,0:0:0:0:
256,192,121108,12,0,126822,0:0:0:0:
