osu file format v14

[General]
AudioFilename: audio.mp3
AudioLeadIn: 0
PreviewTime: 33694
Countdown: 0
SampleSet: Soft
StackLeniency: 0.7
Mode: 0
LetterboxInBreaks: 0
EpilepsyWarning: 1
WidescreenStoryboard: 1

[Editor]
DistanceSpacing: 1.2
BeatDivisor: 8
GridSize: 32
TimelineZoom: 1

[Metadata]
Title:True Colours
TitleUnicode:True Colours
Artist:Marina And The Diamonds
ArtistUnicode:Marina And The Diamonds
Creator:Wafu
Version:Hard
Source:
Tags:Μαρίνα-Λαμπρινή Διαμαντή Lambrini Diamandis froot indie Cyndi Lauper Cover
BeatmapID:962240
BeatmapSetID:448305

[Difficulty]
HPDrainRate:6
CircleSize:4
OverallDifficulty:6
ApproachRate:6.8
SliderMultiplier:1.4
SliderTickRate:1

[Events]
//Background and Video events
0,0,"bg.jpg",0,0
//Break Periods
//Storyboard Layer 0 (Background)
//Storyboard Layer 1 (Fail)
//Storyboard Layer 2 (Pass)
//Storyboard Layer 3 (Foreground)
//Storyboard Sound Samples

[TimingPoints]
674,714.285714285714,4,2,2,50,1,0
1031,-100,4,2,5,50,0,0
1388,-100,4,2,4,50,0,0
1745,-100,4,2,2,50,0,0
2459,-100,4,2,5,50,0,0
2816,-100,4,2,4,50,0,0
3173,-100,4,2,2,50,0,0
3888,-100,4,2,5,50,0,0
4245,-100,4,2,4,50,0,0
4602,-100,4,2,6,50,0,0
5316,-100,4,2,5,50,0,0
5673,-100,4,2,4,50,0,0
6031,-100,4,2,6,50,0,0
6388,-100,4,2,2,50,0,0
6745,-100,4,2,5,50,0,0
7102,-100,4,2,4,50,0,0
7459,-100,4,2,2,50,0,0
8173,-100,4,2,5,50,0,0
8531,-100,4,2,4,50,0,0
8888,-100,4,2,2,50,0,0
9245,740.740740740741,4,2,2,50,1,0
9615,-100,4,2,5,50,0,0
9985,-100,4,2,4,50,0,0
10356,-100,4,2,6,50,0,0
10761,731.707317073171,4,2,1,25,1,0
12205,731.707317073171,4,2,6,50,1,0
12936,-100,4,2,1,25,0,0
13302,-100,4,2,5,50,0,0
15035,722.89156626506,4,2,10,50,1,0
15396,-100,4,2,1,25,0,0
15721,722.89156626506,4,2,1,25,1,0
16119,722.89156626506,4,2,7,50,1,0
16842,-100,4,2,1,25,0,0
17246,731.707317073171,4,2,1,25,1,0
17886,714.285714285714,4,2,12,50,1,0
18243,-100,4,2,1,25,0,0
20653,714.285714285714,4,2,4,50,1,0
21010,-100,4,2,1,25,0,0
21724,-100,4,2,3,50,0,0
22081,-100,4,2,1,25,0,0
23504,697.674418604651,4,2,10,50,1,0
24201,-100,4,2,1,25,0,0
24550,-100,4,2,1,25,0,0
24899,-100,4,2,9,50,0,0
25248,-100,4,2,1,25,0,0
26294,714.285714285714,4,2,8,50,1,0
26651,-100,4,2,1,25,0,0
27365,-100,4,2,7,50,0,0
27722,-100,4,2,1,25,0,0
29153,731.707317073171,4,2,12,50,1,0
29884,-100,4,2,1,25,0,0
30250,-100,4,2,11,50,0,0
31630,638.297872340426,4,2,1,25,1,0
32231,731.707317073171,4,2,10,50,1,0
32962,-100,4,2,1,25,0,0
33328,-100,4,2,13,50,0,0
34426,-100,4,2,8,50,0,0
34791,-100,4,2,7,50,0,0
35177,722.89156626506,4,2,12,50,1,0
35899,-100,4,2,1,25,0,0
36261,-100,4,2,13,50,0,0
36984,-100,4,2,1,25,0,0
38029,731.707317073171,4,2,8,50,1,0
38394,-100,4,2,1,25,0,0
40955,-100,4,2,10,50,0,0
41687,-100,4,2,1,25,0,0
41991,731.707317073171,4,2,13,50,1,0
42722,-100,4,2,1,25,0,0
43516,731.707317073171,4,2,1,25,1,0
43820,731.707317073171,4,2,10,50,1,0
44185,-100,4,2,1,25,0,0
44917,-100,4,2,13,50,0,0
45649,-100,4,2,1,25,0,0
45958,731.707317073171,4,2,11,50,1,0
46323,-100,4,2,1,25,0,0
46654,731.707317073171,4,2,10,50,1,0
47385,-100,4,2,1,25,0,0
47751,-100,4,2,13,50,0,0
49183,731.707317073171,4,2,1,25,1,0
49510,714.285714285714,4,2,9,50,1,0
49867,-100,4,2,1,25,0,0
50594,731.707317073171,4,2,10,50,1,0
51325,-100,4,2,1,25,0,0
51691,-100,4,2,1,25,0,0
52346,714.285714285714,4,2,10,50,1,0
53060,-100,4,2,1,25,0,0
53417,-100,4,2,13,50,0,0
55203,-100,4,2,10,50,0,0
55917,-100,4,2,1,25,0,0
56274,-100,4,2,13,50,0,0
56988,-100,4,2,1,25,0,0
58172,750,4,2,13,50,1,0
58922,-100,4,2,1,25,0,0
59297,-100,4,2,1,25,0,0
59672,-100,4,2,9,50,0,0
63261,714.285714285714,4,2,2,50,1,0
63618,-100,4,2,5,50,0,0
63975,-100,4,2,4,50,0,0
64332,-100,4,2,2,50,0,0
65046,-100,4,2,5,50,0,0
65403,-100,4,2,4,50,0,0
65761,-100,4,2,2,50,0,0
66475,-100,4,2,5,50,0,0
66832,-100,4,2,4,50,0,0
67189,740.740740740741,4,2,6,25,1,0
67929,-100,4,2,5,50,0,0
68300,-100,4,2,4,50,0,0
68670,-100,4,2,6,50,0,0
69040,714.285714285714,4,2,2,25,1,0
69397,-100,4,2,5,50,0,0
69754,-100,4,2,4,50,0,0
70111,-100,4,2,2,50,0,0
70444,714.285714285714,4,2,2,50,1,0
70801,-100,4,2,5,50,0,0
71158,-100,4,2,4,50,0,0
71515,-100,4,2,2,50,0,0
71872,740.740740740741,4,2,2,50,1,0
72242,-100,4,2,5,50,0,0
72612,-100,4,2,4,50,0,0
72983,-100,4,2,6,50,0,0
73353,731.707317073171,4,2,1,25,1,0
74832,731.707317073171,4,2,12,50,1,0
75563,-100,4,2,1,25,0,0
75929,-100,4,2,11,50,0,0
77594,722.89156626506,4,2,10,50,1,0
77955,-100,4,2,1,25,0,0
78678,-100,4,2,7,50,0,0
79401,-100,4,2,1,25,0,0
80427,731.707317073171,4,2,12,50,1,0
80792,-100,4,2,1,25,0,0
81524,-100,4,2,12,50,0,0
82581,714.285714285714,4,2,6,50,1,0
82938,-100,4,2,4,50,0,0
83307,714.285714285714,4,2,12,50,1,0
83664,-100,4,2,1,25,0,0
84309,714.285714285714,4,2,10,50,1,0
85023,-100,4,2,1,25,0,0
85380,-100,4,2,11,50,0,0
85737,-100,4,2,1,25,0,0
86122,714.285714285714,4,2,10,50,1,0
86479,-100,4,2,13,50,0,0
86836,-100,4,2,14,50,0,0
87193,-100,4,2,10,50,0,0
87550,-100,4,2,9,50,0,0
87907,-100,4,2,14,50,0,0
88264,-100,4,2,12,50,0,0
88622,-100,4,2,10,50,0,0
88979,-100,4,2,7,50,0,0
89336,-100,4,2,6,50,0,0
89693,-100,4,2,5,50,0,0
90050,-100,4,2,4,50,0,0
90407,-100,4,2,1,25,0,0
91122,-100,4,2,10,50,0,0
91836,-100,4,2,8,50,0,0
92193,-100,4,2,1,25,0,0
92520,769.230769230769,4,2,1,25,1,0
92904,-100,4,2,13,50,0,0
93289,666.666666666667,4,2,1,25,1,0
93955,-100,4,2,11,50,0,0
94289,-100,4,2,1,25,0,0
94668,714.285714285714,4,2,10,50,1,0
95025,-100,4,2,14,50,0,0
95382,-100,4,2,12,50,0,0
95721,714.285714285714,4,2,10,50,1,0
96792,-100,4,2,7,50,0,0
97149,-100,4,2,10,50,0,0
97461,714.285714285714,4,2,6,60,1,1
98175,-100,4,2,10,60,0,1
98532,-100,4,2,6,60,0,1
99246,-100,4,2,10,60,0,1
99603,-100,4,2,8,50,0,1
99961,-100,4,2,10,50,0,1
100318,-100,4,2,8,60,0,1
100675,-100,4,2,10,60,0,1
101032,-100,4,2,8,60,0,1
101389,-100,4,2,9,60,0,1
101746,-100,4,2,13,25,0,1
102103,-100,4,2,13,60,0,1
102461,-100,4,2,8,60,0,1
102818,-100,4,2,7,60,0,1
103151,714.285714285714,4,2,6,60,1,1
103865,-100,4,2,10,60,0,1
104222,-100,4,2,6,60,0,1
104936,-100,4,2,10,60,0,1
105293,-100,4,2,8,60,0,1
105651,-100,4,2,7,60,0,1
105975,714.285714285714,4,2,6,60,1,1
106332,-100,4,2,12,60,0,1
106689,-100,4,2,10,60,0,1
107046,-100,4,2,6,60,0,1
107760,-100,4,2,10,60,0,1
108080,714.285714285714,4,2,11,60,1,1
108437,-100,4,2,1,25,0,1
108794,714.285714285714,4,2,2,60,1,1
109151,-100,4,2,5,60,0,1
109508,-100,4,2,4,60,0,1
109865,-100,4,2,13,60,0,1
110909,714.285714285714,4,2,4,60,1,1
111266,-100,4,2,10,60,0,1
111599,714.285714285714,4,2,12,60,1,1
112313,-100,4,2,10,60,0,1
112636,714.285714285714,4,2,4,60,1,1
113350,-100,4,2,1,25,0,1
114457,666.666666666667,4,2,10,50,1,0
115123,-100,4,2,1,25,0,0
115457,-100,4,2,10,50,0,0
116956,714.285714285714,4,2,1,25,1,0
117275,714.285714285714,4,2,8,50,1,0
117989,-100,4,2,1,25,0,0
118346,-100,4,2,1,25,0,0
118765,714.285714285714,4,2,9,50,1,0
121108,714.285714285714,4,2,1,25,1,0
121822,-100,4,2,1,20,0,0
122536,-100,4,2,1,15,0,0
123250,-100,4,2,1,10,0,0
123965,-100,4,2,1,5,0,0

[Colours]
Combo1 : 34,100,255
Combo2 : 164,64,244
Combo3 : 235,94,247
Combo4 : 255,40,46
Combo5 : 247,124,72
Combo6 : 240,255,55
Combo7 : 94,255,70
Combo8 : 62,255,236

[HitObjects]
432,310,674,6,0,L|501:301,2,70,2|0|0,0:0|0:0|0:0,0:0:0:0:
365,258,1745,1,0,0:0:0:0:
304,316,2102,2,0,P|270:322|236:313,1,70
201,237,2816,2,0,P|167:227|133:234,1,70
50,250,3531,6,0,L|47:180,1,70
72,99,4245,1,0,0:0:0:0:
123,32,4602,2,0,P|157:91|134:155,1,140
181,225,5673,2,0,L|250:213,1,70
301,146,6388,6,0,L|370:134,2,70,2|0|0,0:0|0:0|0:0,0:0:0:0:
240,88,7459,1,0,0:0:0:0:
175,141,7816,2,0,P|140:145|108:132,1,70
51,70,8531,1,0,0:0:0:0:
27,150,8888,1,0,0:0:0:0:
82,213,9245,6,0,L|75:306,2,70
108,133,10356,1,0,0:0:0:0:
180,179,10761,2,0,L|319:170,1,140
384,116,11858,1,0,0:0:0:0:
397,31,12205,6,0,P|471:95|433:186,1,210,2|0,0:0|0:0,0:0:0:0:
48,342,15035,6,0,L|43:272,1,70
89,201,15721,1,0,0:0:0:0:
125,276,16119,2,0,P|167:330|235:340,1,140
288,275,17246,1,0,0:0:0:0:
317,353,17611,1,0,0:0:0:0:
317,353,17886,6,0,L|406:335,1,70,2|0,0:0|0:0,0:0:0:0:
455,290,18600,2,0,P|475:190|415:107,1,210
182,141,20653,6,0,P|148:144|115:133,2,70
248,88,21724,1,0,0:0:0:0:
261,170,22081,1,0,0:0:0:0:
452,334,23153,1,0,0:0:0:0:
452,334,23504,6,0,B|424:285|452:234|452:234|480:183|452:134,1,210,2|0,0:0|0:0,0:0:0:0:
375,98,24899,2,0,L|305:93,1,70
84,215,26294,6,0,L|14:210,2,70
158,178,27365,2,0,P|164:143|155:109,1,70
87,60,28079,1,0,0:0:0:0:
164,27,28436,1,0,0:0:0:0:
232,76,28794,1,0,0:0:0:0:
232,76,28972,1,0,0:0:0:0:
232,76,29153,6,0,L|371:66,1,140,2|0,0:0|0:0,0:0:0:0:
444,23,30250,1,0,0:0:0:0:
275,344,31630,2,0,P|242:356|207:354,1,70
128,320,32231,6,0,L|116:180,1,140
173,109,33328,2,0,P|242:115|310:98,1,140
389,69,34426,2,0,L|385:0,1,70
486,73,35177,6,0,L|475:216,1,140,2|0,0:0|0:0,0:0:0:0:
432,285,36261,2,0,P|369:310|298:284,1,140,2|0,0:0|0:0,0:0:0:0:
205,152,37707,1,0,0:0:0:0:
205,152,38029,6,0,L|135:156,1,70,2|0,0:0|0:0,0:0:0:0:
63,110,38760,2,0,P|48:175|91:228,1,140
176,233,39858,1,0,0:0:0:0:
218,305,40224,2,0,L|304:297,1,70
401,332,40955,6,0,B|417:297|401:264|401:264|385:231|401:197,1,140,2|0,0:0|0:0,0:0:0:0:
479,162,41991,2,0,L|467:19,1,140,2|0,0:0|0:0,0:0:0:0:
384,11,43088,1,0,0:0:0:0:
343,84,43516,1,0,0:0:0:0:
342,84,43820,6,0,P|308:88|274:80,1,70,2|0,0:0|0:0,0:0:0:0:
208,28,44551,1,0,0:0:0:0:
147,86,44917,2,0,B|128:118|141:152|141:152|154:187|135:220,1,140,2|0,0:0|0:0,0:0:0:0:
73,280,45958,2,0,L|77:349,1,70,2|0,0:0|0:0,0:0:0:0:
184,363,46654,6,0,P|223:307|211:240,1,140,2|0,0:0|0:0,0:0:0:0:
142,192,47751,1,2,0:0:0:0:
429,33,49183,1,0,0:0:0:0:
384,106,49510,6,0,L|392:193,1,70,2|0,0:0|0:0,0:0:0:0:
446,238,50224,1,0,0:0:0:0:
394,309,50594,2,0,B|342:337|294:309|294:309|246:281|194:309,1,210,2|0,0:0|0:0,0:0:0:0:
124,356,52057,1,0,0:0:0:0:
61,298,52346,6,0,L|46:88,1,210,2|0,0:0|0:0,0:0:0:0:
462,36,55203,6,0,P|400:117|412:219,1,210,2|0,0:0|0:0,0:0:0:0:
504,359,56988,1,0,0:0:0:0:
346,300,57703,1,0,0:0:0:0:
275,349,58172,6,0,L|65:336,1,210,2|0,0:0|0:0,0:0:0:0:
26,262,59672,1,0,0:0:0:0:
131,116,63261,6,0,L|126:46,2,70,2|0|0,0:0|0:0|0:0,0:0:0:0:
74,178,64332,1,0,0:0:0:0:
136,233,64689,2,0,P|140:267|137:302,1,70
203,353,65403,2,0,L|292:345,1,70
345,303,66118,6,0,P|353:269|349:234,1,70
314,158,66832,1,0,0:0:0:0:
236,190,67189,2,0,L|96:179,1,140
15,156,68300,1,0,0:0:0:0:
34,237,68670,1,0,0:0:0:0:
110,278,69040,6,0,L|179:270,1,70,2|0,0:0|0:0,0:0:0:0:
241,327,69754,2,0,L|310:319,1,70
379,267,70444,2,0,P|386:233|382:198,1,70
329,133,71158,1,0,0:0:0:0:
369,59,71515,1,0,0:0:0:0:
291,35,71872,6,0,P|256:39|221:37,1,70
139,19,72612,1,0,0:0:0:0:
72,70,72983,1,0,0:0:0:0:
125,135,73353,2,0,P|134:203|114:270,1,140
61,335,74450,1,0,0:0:0:0:
143,351,74832,6,0,B|192:379|243:351|243:351|294:323|342:351,1,210,2|0,0:0|0:0,0:0:0:0:
425,165,77594,6,0,L|426:95,1,70
363,40,78316,1,0,0:0:0:0:
313,107,78678,2,0,P|257:148|188:156,1,140
115,114,79762,1,0,0:0:0:0:
59,176,80124,1,0,0:0:0:0:
127,227,80427,6,0,P|131:261|123:295,1,70,2|0,0:0|0:0,0:0:0:0:
69,360,81158,1,0,0:0:0:0:
151,376,81524,2,0,L|290:363,1,140
350,300,82581,1,0,0:0:0:0:
310,226,82938,1,0,0:0:0:0:
361,156,83307,6,0,P|363:121|350:88,1,70
284,37,84021,1,0,0:0:0:0:
232,106,84309,2,0,P|132:125|52:61,1,210
2,129,85737,1,0,0:0:0:0:
73,178,86122,6,0,L|77:247,1,70,2|0,0:0|0:0,0:0:0:0:
133,310,86836,1,0,0:0:0:0:
204,266,87193,1,0,0:0:0:0:
272,314,87550,2,0,P|306:315|339:303,1,70
384,232,88264,2,0,L|388:162,1,70
306,76,88979,5,0,0:0:0:0:
409,18,89336,1,0,0:0:0:0:
306,76,89693,1,0,0:0:0:0:
195,32,90050,2,0,P|160:29|126:37,1,70
80,107,90764,2,0,L|88:176,1,70
236,97,91836,6,0,P|270:93|304:103,1,70,2|0,0:0|0:0,0:0:0:0:
369,157,92520,1,0,0:0:0:0:
450,138,92904,1,0,0:0:0:0:
429,220,93289,2,0,B|412:253|428:286|428:286|444:320|428:354,1,140
350,320,94289,1,0,0:0:0:0:
273,354,94668,6,0,L|179:346,1,70
130,305,95382,1,0,0:0:0:0:
195,250,95721,2,0,P|201:181|174:117,1,140
100,77,96792,1,0,0:0:0:0:
172,34,97149,1,0,0:0:0:0:
261,86,97461,6,0,L|400:72,1,140,2|0,0:0|0:0,0:0:0:0:
476,107,98532,2,0,P|483:175|447:233,1,140,2|0,0:0|0:0,0:0:0:0:
370,267,99603,1,2,0:0:0:0:
302,216,99961,1,0,0:0:0:0:
368,117,100318,6,0,L|364:47,1,70,2|0,0:0|0:0,0:0:0:0:
286,15,101032,1,0,0:0:0:0:
224,70,101389,2,0,P|189:75|155:68,1,70,2|0,0:0|0:0,0:0:0:0:
78,34,102103,1,0,0:0:0:0:
36,107,102461,2,0,P|38:141|32:176,1,70,2|0,0:0|0:0,0:0:0:0:
71,279,103151,6,0,B|104:296|137:280|137:280|171:264|205:280,1,140,2|0,0:0|0:0,0:0:0:0:
268,336,104222,2,0,L|406:318,1,140,2|0,0:0|0:0,0:0:0:0:
461,254,105293,1,2,0:0:0:0:
411,186,105651,1,0,0:0:0:0:
304,204,105975,6,0,L|234:197,1,70,2|0,0:0|0:0,0:0:0:0:
171,141,106689,1,0,0:0:0:0:
145,61,107046,2,0,P|92:102|92:170,1,140,2|0,0:0|0:0,0:0:0:0:
156,228,108080,1,2,0:0:0:0:
234,197,108437,1,0,0:0:0:0:
266,82,108794,6,0,L|335:86,1,70,2|0,0:0|0:0,0:0:0:0:
402,136,109508,1,0,0:0:0:0:
337,190,109865,2,0,P|329:258|352:324,1,140,2|0,0:0|0:0,0:0:0:0:
431,358,110909,1,2,0:0:0:0:
486,295,111266,1,0,0:0:0:0:
467,185,111599,6,0,L|471:115,1,70,2|0,0:0|0:0,0:0:0:0:
421,47,112313,1,0,0:0:0:0:
355,99,112636,2,0,B|320:113|287:95|287:95|254:77|221:92,1,140,2|0,2:0|0:0,0:0:0:0:
90,199,114064,1,0,0:0:0:0:
141,268,114457,6,0,L|362:250,1,210,2|0,0:0|0:0,0:0:0:0:
35,91,116956,1,0,0:0:0:0:
34,91,117275,6,0,P|0:186|52:273,1,210,2|0,0:0|0:0,0:0:0:0:
129,311,118765,1,0,0:0:0:0:
256,192,121108,12,0,126822,0:0:0:0:
