osu file format v14

[General]
AudioFilename: audio.mp3
AudioLeadIn: 0
PreviewTime: 33694
Countdown: 0
SampleSet: Soft
StackLeniency: 0.7
Mode: 0
LetterboxInBreaks: 0
EpilepsyWarning: 1
WidescreenStoryboard: 1

[Editor]
DistanceSpacing: 1.2
BeatDivisor: 8
GridSize: 32
TimelineZoom: 1.600006

[Metadata]
Title:True Colours
TitleUnicode:True Colours
Artist:Marina And The Diamonds
ArtistUnicode:Marina And The Diamonds
Creator:Wafu
Version:Easy
Source:
Tags:Μαρίνα-Λαμπρινή Διαμαντή Lambrini Diamandis froot indie Cyndi Lauper Cover
BeatmapID:962499
BeatmapSetID:448305

[Difficulty]
HPDrainRate:0.5
CircleSize:3
OverallDifficulty:0.5
ApproachRate:1.3
SliderMultiplier:0.8
SliderTickRate:1

[Events]
//Background and Video events
0,0,"bg.jpg",0,0
//Break Periods
//Storyboard Layer 0 (Background)
//Storyboard Layer 1 (Fail)
//Storyboard Layer 2 (Pass)
//Storyboard Layer 3 (Foreground)
//Storyboard Sound Samples

[TimingPoints]
674,714.285714285714,4,2,2,50,1,0
1388,-100,4,2,4,50,0,0
1745,-100,4,2,2,50,0,0
2816,-100,4,2,4,50,0,0
3173,-100,4,2,2,50,0,0
4602,-100,4,2,6,50,0,0
5316,-100,4,2,5,50,0,0
5673,-100,4,2,4,50,0,0
6388,-100,4,2,2,50,0,0
7102,-100,4,2,4,50,0,0
7459,-100,4,2,2,50,0,0
8531,-100,4,2,4,50,0,0
9245,740.740740740741,4,2,2,50,1,0
9985,-100,4,2,4,50,0,0
10356,-100,4,2,6,50,0,0
10761,731.707317073171,4,2,1,25,1,0
12205,731.707317073171,4,2,6,50,1,0
12936,-100,4,2,1,25,0,0
13302,-100,4,2,5,50,0,0
15035,722.89156626506,4,2,10,50,1,0
15721,722.89156626506,4,2,1,25,1,0
16119,722.89156626506,4,2,7,50,1,0
17246,731.707317073171,4,2,1,25,1,0
17886,714.285714285714,4,2,12,50,1,0
20653,714.285714285714,4,2,4,50,1,0
21024,-100,4,2,1,25,0,0
21724,-100,4,2,3,50,0,0
23504,697.674418604651,4,2,10,50,1,0
24201,-100,4,2,1,25,0,0
24899,-100,4,2,9,50,0,0
26294,714.285714285714,4,2,8,50,1,0
26651,-100,4,2,1,25,0,0
27365,-100,4,2,7,50,0,0
27722,-100,4,2,1,25,0,0
29153,731.707317073171,4,2,12,50,1,0
29884,-100,4,2,1,25,0,0
30250,-100,4,2,11,50,0,0
31630,638.297872340426,4,2,1,25,1,0
32231,731.707317073171,4,2,10,50,1,0
32962,-100,4,2,1,25,0,0
33328,-100,4,2,13,50,0,0
34426,-100,4,2,8,50,0,0
35177,722.89156626506,4,2,12,50,1,0
35899,-100,4,2,1,25,0,0
36261,-100,4,2,13,50,0,0
38029,731.707317073171,4,2,8,50,1,0
38394,-100,4,2,1,25,0,0
40955,-100,4,2,10,50,0,0
41991,731.707317073171,4,2,13,50,1,0
42722,-100,4,2,1,25,0,0
43516,731.707317073171,4,2,1,25,1,0
43820,731.707317073171,4,2,10,50,1,0
44185,-100,4,2,1,25,0,0
44917,-100,4,2,13,50,0,0
45958,731.707317073171,4,2,11,50,1,0
46654,731.707317073171,4,2,10,50,1,0
47385,-100,4,2,1,25,0,0
47751,-100,4,2,13,50,0,0
49183,731.707317073171,4,2,1,25,1,0
49510,714.285714285714,4,2,9,50,1,0
50594,731.707317073171,4,2,10,50,1,0
52346,714.285714285714,4,2,10,50,1,0
53060,-100,4,2,1,25,0,0
53417,-100,4,2,13,50,0,0
55203,-100,4,2,10,50,0,0
55917,-100,4,2,1,25,0,0
56274,-100,4,2,13,50,0,0
58172,750,4,2,13,50,1,0
58922,-100,4,2,1,25,0,0
59672,-100,4,2,9,50,0,0
63261,714.285714285714,4,2,2,50,1,0
63975,-100,4,2,4,50,0,0
64332,-100,4,2,2,50,0,0
65403,-100,4,2,4,50,0,0
65761,-100,4,2,2,50,0,0
67189,740.740740740741,4,2,6,25,1,0
67929,-100,4,2,5,50,0,0
68300,-100,4,2,4,50,0,0
69040,714.285714285714,4,2,2,25,1,0
69754,-100,4,2,4,50,0,0
70444,714.285714285714,4,2,2,50,1,0
71158,-100,4,2,4,50,0,0
71872,740.740740740741,4,2,2,50,1,0
72612,-100,4,2,4,50,0,0
72983,-100,4,2,6,50,0,0
73353,731.707317073171,4,2,1,25,1,0
74832,731.707317073171,4,2,12,50,1,0
75563,-100,4,2,1,25,0,0
75929,-100,4,2,11,50,0,0
77594,722.89156626506,4,2,10,50,1,0
77955,-100,4,2,1,25,0,0
78678,-100,4,2,7,50,0,0
79039,-100,4,2,1,25,0,0
80427,731.707317073171,4,2,12,50,1,0
80792,-100,4,2,1,25,0,0
81524,-100,4,2,12,50,0,0
82581,714.285714285714,4,2,6,50,1,0
83307,714.285714285714,4,2,12,50,1,0
84309,714.285714285714,4,2,10,50,1,0
85023,-100,4,2,1,25,0,0
85380,-100,4,2,11,50,0,0
86122,714.285714285714,4,2,10,50,1,0
86836,-100,4,2,14,50,0,0
87550,-100,4,2,9,50,0,0
88264,-100,4,2,12,50,0,0
88979,-100,4,2,7,50,0,0
89693,-100,4,2,5,50,0,0
90050,-100,4,2,4,50,0,0
91122,-100,4,2,10,50,0,0
91836,-100,4,2,8,50,0,0
92520,769.230769230769,4,2,1,25,1,0
93289,666.666666666667,4,2,1,25,1,0
93955,-100,4,2,11,50,0,0
94668,714.285714285714,4,2,10,50,1,0
95721,714.285714285714,4,2,10,50,1,0
96792,-100,4,2,7,50,0,0
97461,714.285714285714,4,2,6,60,1,1
98175,-100,4,2,10,60,0,1
98532,-100,4,2,6,60,0,1
99603,-100,4,2,8,50,0,1
100318,-100,4,2,8,60,0,1
101032,-100,4,2,8,60,0,1
101389,-100,4,2,9,60,0,1
102461,-100,4,2,8,60,0,1
103151,714.285714285714,4,2,6,60,1,1
103865,-100,4,2,10,60,0,1
104222,-100,4,2,6,60,0,1
105293,-100,4,2,8,60,0,1
105975,714.285714285714,4,2,6,60,1,1
106689,-100,4,2,10,60,0,1
107046,-100,4,2,6,60,0,1
108080,714.285714285714,4,2,11,60,1,1
108794,714.285714285714,4,2,2,60,1,1
109508,-100,4,2,4,60,0,1
110909,714.285714285714,4,2,4,60,1,1
111599,714.285714285714,4,2,12,60,1,1
112636,714.285714285714,4,2,4,60,1,1
114457,666.666666666667,4,2,10,50,1,0
115123,-100,4,2,1,25,0,0
115457,-100,4,2,10,50,0,0
116956,714.285714285714,4,2,1,25,1,0
117275,714.285714285714,4,2,8,50,1,0
118765,714.285714285714,4,2,9,50,1,0
121108,714.285714285714,4,2,1,25,1,0
121822,-100,4,2,1,20,0,0
122536,-100,4,2,1,15,0,0
123250,-100,4,2,1,10,0,0
123965,-100,4,2,1,5,0,0

[Colours]
Combo1 : 34,100,255
Combo2 : 164,64,244
Combo3 : 235,94,247
Combo4 : 255,40,46
Combo5 : 247,124,72
Combo6 : 240,255,55
Combo7 : 94,255,70
Combo8 : 62,255,236

[HitObjects]
419,272,674,6,0,P|459:206|437:131,2,160,2|0|0,0:0|0:0|0:0,0:0:0:0:
281,314,4602,2,0,L|161:305,1,120,0|0,0:0|0:0,0:0:0:0:
91,236,6388,6,0,P|86:197|96:159,1,80,2|0,0:0|0:0,0:0:0:0:
172,101,7816,1,0,0:0:0:0:
254,150,8531,1,0,0:0:0:0:
341,119,9245,2,0,P|342:177|307:225,1,120
68,194,12205,6,0,L|60:74,1,120,2|0,0:0|0:0,0:0:0:0:
287,32,15035,1,0,0:0:0:0:
147,68,16119,2,0,P|123:121|129:180,1,124.8
173,260,17886,5,2,0:0:0:0:
478,198,20653,2,0,B|465:170|478:140|478:140|491:110|478:82,1,120
237,42,23504,6,0,P|170:83|152:159,1,160,2|0,0:0|0:0,0:0:0:0:
273,301,26294,2,0,L|391:284,1,120,0|0,0:0|0:0,0:0:0:0:
347,53,29153,6,0,P|290:33|232:43,1,120,2|0,0:0|0:0,0:0:0:0:
33,208,32231,2,0,L|41:327,1,120,0|0,0:0|0:0,0:0:0:0:
182,359,34426,1,0,0:0:0:0:
244,281,35177,6,0,L|235:161,1,120,2|2,0:0|0:0,0:0:0:0:
431,37,38029,2,0,P|465:84|458:142,1,120,2|0,0:0|0:0,0:0:0:0:
275,297,40955,5,2,0:0:0:0:
149,348,41991,2,0,L|69:337,1,80,2|0,0:0|0:0,0:0:0:0:
31,198,43820,2,0,P|84:173|141:187,1,120,2|2,0:0|0:0,0:0:0:0:
205,308,45958,1,2,0:0:0:0:
266,240,46654,6,0,B|279:212|266:182|266:182|253:152|266:124,1,120,2|2,0:0|0:0,0:0:0:0:
487,42,49510,1,2,0:0:0:0:
422,169,50594,1,2,0:0:0:0:
259,340,52346,6,0,P|201:348|150:319,1,120,2|0,0:0|0:0,0:0:0:0:
93,86,55203,2,0,P|151:77|202:106,1,120,2|0,0:0|0:0,0:0:0:0:
410,232,58172,6,0,B|430:193|410:155|410:155|390:117|410:79,1,160,2|0,0:0|0:0,0:0:0:0:
100,235,63261,6,0,L|89:75,2,160,2|0|0,0:0|0:0|0:0,0:0:0:0:
198,332,67189,2,0,P|257:333|311:307,1,120,0|0,0:0|0:0,0:0:0:0:
352,216,69040,6,0,L|356:136,1,80,2|0,0:0|0:0,0:0:0:0:
279,84,70444,2,0,P|239:87|200:77,1,80,0|0,0:0|0:0,0:0:0:0:
111,53,71872,2,0,B|98:81|111:111|111:111|124:141|111:169,1,120,0|0,0:0|0:0,0:0:0:0:
276,346,74832,6,0,L|395:335,1,120,2|0,0:0|0:0,0:0:0:0:
388,114,77594,2,0,L|507:103,2,120,0|0|0,0:0|0:0|0:0,0:0:0:0:
329,178,80427,6,0,P|271:192|216:170,1,120,2|0,0:0|0:0,0:0:0:0:
135,53,82581,1,0,0:0:0:0:
56,110,83307,1,0,0:0:0:0:
49,244,84309,2,0,P|72:297|126:319,1,120
225,302,86122,6,0,L|232:142,1,160,2|0,0:0|0:0,0:0:0:0:
298,72,88264,1,0,0:0:0:0:
379,21,88979,2,0,P|394:77|372:132,1,120,0|0,0:0|0:0,0:0:0:0:
243,199,91122,1,0,0:0:0:0:
148,186,91836,6,0,L|71:186,1,76.65,2|0,0:0|0:0,0:0:0:0:
24,287,93289,2,0,L|103:285,1,80
197,309,94668,1,0,0:0:0:0:
249,177,95721,2,0,P|306:162|362:182,1,120,0|0,0:0|0:0,0:0:0:0:
449,202,97461,6,0,L|457:82,1,120,2|2,0:0|0:0,0:0:0:0:
326,23,99603,1,2,0:0:0:0:
259,92,100318,2,0,P|200:104|144:86,1,120,2|2,0:0|0:0,0:0:0:0:
40,186,102461,1,2,0:0:0:0:
100,256,103151,6,0,L|219:247,1,120,2|2,0:0|0:0,0:0:0:0:
358,285,105293,1,0,0:0:0:0:
445,256,105975,2,0,B|458:228|445:198|445:198|432:168|445:140,1,120,2|2,0:0|0:0,0:0:0:0:
344,44,108080,1,2,0:0:0:0:
301,129,108794,6,0,P|224:143|156:103,1,160,2|0,0:0|0:0,0:0:0:0:
100,30,110909,1,2,0:0:0:0:
63,115,111599,1,2,0:0:0:0:
127,238,112636,1,2,2:0:0:0:
385,191,114457,6,0,L|391:71,1,120,2|0,0:0|0:0,0:0:0:0:
145,28,117275,1,2,0:0:0:0:
180,225,118765,1,0,0:0:0:0:
256,192,121108,12,0,126822,0:0:0:0:
