osu file format v14

[General]
AudioFilename: Lonely Hearts Club.mp3
AudioLeadIn: 0
PreviewTime: 33820
Countdown: 0
SampleSet: Soft
StackLeniency: 0.7
Mode: 0
LetterboxInBreaks: 0
WidescreenStoryboard: 1

[Editor]
Bookmarks: 9882,53082,62682,101082,120282,129882,139482,149082,158682
DistanceSpacing: 1.1
BeatDivisor: 4
GridSize: 4
TimelineZoom: 1.9

[Metadata]
Title:Lonely Hearts Club
TitleUnicode:Lonely Hearts Club
Artist:Marina And The Diamonds
ArtistUnicode:Marina And The Diamonds
Creator:Desperate-kun
Version:Twin Hard
Source:
Tags:Mao Sieg Electra Heart Marina Lambrini Diamandis Μαρίνα Λαμπρινή Διαμαντή Electro Synthie
BeatmapID:1155137
BeatmapSetID:369678

[Difficulty]
HPDrainRate:6
CircleSize:3.5
OverallDifficulty:6
ApproachRate:7
SliderMultiplier:1.5
SliderTickRate:2

[Events]
//Background and Video events
0,0,"bg.jpg",0,0
//Break Periods
2,53132,61782
2,120482,128982
//Storyboard Layer 0 (Background)
//Storyboard Layer 1 (Fail)
//Storyboard Layer 2 (Pass)
//Storyboard Layer 3 (Foreground)
//Storyboard Sound Samples

[TimingPoints]
9882,300,4,2,0,50,1,0
33882,-100,4,2,0,80,0,1
43407,-100,4,2,0,80,0,0
43482,-100,4,2,0,80,0,1
53082,-100,4,2,0,50,0,0
81882,-100,4,2,0,80,0,1
91407,-100,4,2,0,80,0,0
91482,-100,4,2,0,80,0,1
101082,-117.647058823529,4,2,0,50,0,0
120282,-142.857142857143,4,2,0,5,0,0
129882,-142.857142857143,4,2,0,40,0,0
130932,-142.857142857143,4,2,0,5,0,0
131082,-142.857142857143,4,2,0,40,0,0
132132,-142.857142857143,4,2,0,5,0,0
132282,-142.857142857143,4,2,0,40,0,0
133332,-142.857142857143,4,2,0,5,0,0
133482,-142.857142857143,4,2,0,40,0,0
134532,-142.857142857143,4,2,0,5,0,0
134682,-142.857142857143,4,2,0,40,0,0
138882,-100,4,2,0,50,0,0
139482,-100,4,2,0,80,0,1
149007,-100,4,2,0,80,0,0
149082,-100,4,2,0,80,0,1
158607,-100,4,2,0,80,0,0
158682,-100,4,2,0,80,0,1
158757,-100,4,2,0,80,0,0

[Colours]
Combo1 : 9,247,20
Combo2 : 252,99,82
Combo3 : 49,104,249
Combo4 : 255,255,0

[HitObjects]
307,169,9882,5,4,3:2:0:0:
344,295,10182,2,0,P|416:306|472:260,2,150,0|2|0,1:0|0:0|1:0,0:0:0:0:
276,248,10932,2,0,P|203:236|147:282,1,150,2|0,0:0|0:0,0:0:0:0:
122,361,11382,2,0,B|109:288|109:288|56:234|56:234|41:155,1,225,0|4,1:0|0:3,0:0:0:0:
29,78,11982,1,0,1:0:0:0:
151,21,12282,5,0,3:0:0:0:
195,148,12582,2,0,P|258:196|411:72,1,300,0|0,1:0|1:0,0:0:0:0:
286,7,13482,2,0,L|293:82,1,75,0|4,3:0|0:3,0:0:0:0:
351,140,13782,2,0,B|336:213|336:213|283:267|283:267|270:340,1,225,0|4,1:0|0:3,0:0:0:0:
191,363,14382,1,0,1:0:0:0:
366,311,14682,5,4,3:2:0:0:
255,169,14982,2,0,P|217:124|234:33,2,150,0|2|0,1:0|0:0|1:0,0:0:0:0:
336,183,15732,2,0,P|265:203|234:268,1,150,2|0,0:0|0:0,0:0:0:0:
190,338,16182,2,0,L|40:324,1,150,0|2,1:0|0:0,0:0:0:0:
12,247,16632,1,4,0:3:0:0:
87,212,16782,1,0,1:0:0:0:
38,86,17082,5,0,3:0:0:0:
152,14,17382,2,0,B|167:125|167:125|220:179|220:179|240:310,1,300,0|0,1:0|1:0,0:0:0:0:
301,342,18132,2,0,P|352:319|378:225,1,150,4|4,0:3|0:3,0:0:0:0:
326,171,18582,2,0,L|302:20,1,150,0|0,1:0|0:0,0:0:0:0:
383,8,19032,1,4,0:3:0:0:
453,51,19182,2,0,P|464:89|455:134,1,75,0|0,1:0|0:0,0:0:0:0:
408,188,19482,5,4,3:2:0:0:
462,332,19782,1,0,1:0:0:0:
392,376,19932,2,0,P|322:355|297:279,1,150,2|2,0:0|0:0,0:0:0:0:
255,215,20382,1,0,1:0:0:0:
214,288,20532,2,0,P|187:355|118:376,1,150,2|0,0:0|0:0,0:0:0:0:
48,330,20982,2,0,B|35:271|35:271|43:241|43:241|30:178,1,150,0|2,1:0|0:0,0:0:0:0:
12,102,21432,1,4,0:3:0:0:
72,45,21582,2,0,P|108:40|143:53,1,75,0|0,1:0|1:0,0:0:0:0:
176,129,21882,5,0,3:0:0:0:
178,266,22182,2,0,P|300:330|399:204,1,300,0|0,1:0|1:0,0:0:0:0:
359,154,22932,2,0,P|343:91|398:25,1,150,4|4,0:3|0:3,0:0:0:0:
466,63,23382,2,0,B|477:120|477:120|469:150|469:150|482:209,1,150,0|4,1:0|0:3,0:0:0:0:
423,335,23982,2,0,L|339:329,1,75,0|0,1:0|1:0,0:0:0:0:
279,282,24282,5,4,3:2:0:0:
173,365,24582,1,0,1:0:0:0:
90,358,24732,2,0,P|59:333|60:226,1,150,2|2,0:0|0:0,0:0:0:0:
129,191,25182,1,0,1:0:0:0:
201,151,25332,2,0,P|213:79|167:23,1,150,2|0,0:0|0:0,0:0:0:0:
85,17,25782,2,0,P|29:64|30:136,1,150,0|2,1:0|0:0,0:0:0:0:
85,198,26232,1,4,0:3:0:0:
142,257,26382,2,0,P|149:297|133:344,1,75,0|0,1:0|1:0,0:0:0:0:
73,376,26682,5,0,3:0:0:0:
8,255,26982,2,0,P|43:166|209:209,1,300,0|0,1:0|1:0,0:0:0:0:
222,289,27732,2,0,P|261:331|364:326,1,150,4|4,0:3|0:3,0:0:0:0:
419,289,28182,2,0,B|432:230|432:230|424:200|424:200|435:142,1,150,0|4,1:0|0:3,0:0:0:0:
488,79,28632,1,0,0:0:0:0:
427,23,28782,2,0,P|386:21|351:42,1,75,0|0,1:0|0:0,0:0:0:0:
321,111,29082,6,0,L|160:97,1,150,4|0,3:2|1:0,0:0:0:0:
34,190,29682,2,0,L|183:202,1,150,2|0,0:0|1:0,0:0:0:0:
347,216,30282,2,0,P|298:246|286:333,1,150,2|0,3:2|1:0,0:0:0:0:
375,382,30732,2,0,P|424:352|436:265,1,150,4|4,0:3|0:3,0:0:0:0:
361,299,31182,1,0,1:0:0:0:
210,362,31482,6,0,B|151:349|151:349|121:357|121:357|63:346,1,150,4|0,3:2|1:0,0:0:0:0:
1,193,32082,2,0,B|60:180|60:180|90:188|90:188|148:177,1,150,2|0,0:0|1:0,0:0:0:0:
227,157,32532,1,0,0:0:0:0:
204,236,32682,1,0,0:0:0:0:
403,123,33882,6,0,P|375:191|403:259,2,150,4|0|4,3:1|1:0|3:0,0:0:0:0:
481,150,34632,1,0,0:3:0:0:
481,232,34782,1,0,1:0:0:0:
312,331,35082,2,0,P|241:315|211:249,1,150,4|0,3:2|1:0,0:0:0:0:
298,249,35532,2,0,P|268:315|197:331,1,150,4|4,0:3|0:3,0:0:0:0:
131,281,35982,1,0,1:0:0:0:
75,98,36282,6,0,B|73:74|43:58|10:69|-8:100|-6:135|14:166|61:175|67:220|67:220|96:185|140:200|175:183|194:155|192:117|169:92|135:90|125:108,1,450,4|0,0:2|1:0,0:0:0:0:
255,15,37482,1,4,0:0:0:0:
324,59,37632,1,4,0:3:0:0:
395,103,37782,2,0,P|454:191|395:279,1,225,0|4,1:0|0:3,0:0:0:0:
324,323,38382,1,0,1:0:0:0:
184,234,38682,6,0,P|145:242|115:277,1,75,4|0,3:2|0:0,0:0:0:0:
184,148,38982,2,0,P|145:140|115:105,1,75,0|0,1:0|0:0,0:0:0:0:
75,191,39282,2,0,L|-5:191,2,75,2|4|0,3:2|0:3|1:2,0:0:0:0:
196,41,39882,2,0,P|267:54|297:120,1,150,2|0,3:2|1:0,0:0:0:0:
255,191,40332,1,4,0:3:0:0:
213,261,40482,2,0,P|242:327|313:340,1,150,2|0,3:2|1:0,0:0:0:0:
326,148,41082,6,0,P|365:140|395:105,1,75,4|0,3:2|0:0,0:0:0:0:
326,234,41382,2,0,P|365:242|395:277,1,75,0|0,1:0|0:0,0:0:0:0:
435,191,41682,2,0,L|515:191,2,75,2|4|0,3:2|0:3|1:0,0:0:0:0:
314,41,42282,1,2,3:2:0:0:
235,15,42432,1,4,0:3:0:0:
196,88,42582,1,0,1:0:0:0:
275,114,42732,1,0,1:0:0:0:
209,181,42882,2,0,P|168:180|128:204,1,75,4|4,0:3|1:2,0:0:0:0:
301,201,43182,2,0,P|342:202|382:178,1,75,4|0,0:3|1:0,0:0:0:0:
235,268,43482,6,0,B|203:264|163:297|187:319|146:351|115:348,1,150,4|0,3:1|1:0,0:0:0:0:
36,331,43932,1,0,0:0:0:0:
94,269,44082,2,0,P|106:223|38:139,1,150,0|0,3:0|1:0,0:0:0:0:
171,22,44682,2,0,P|163:94|213:147,1,150,4|0,3:2|1:0,0:0:0:0:
255,76,45132,1,4,0:3:0:0:
296,147,45282,2,0,P|346:94|339:22,1,150,0|0,3:0|1:0,0:0:0:0:
458,143,45882,6,0,P|408:196|416:269,1,150,4|0,3:2|1:0,0:0:0:0:
474,331,46332,1,4,0:3:0:0:
392,348,46482,2,0,B|363:351|322:319|346:297|306:264|275:268,1,150,0|0,0:0|1:0,0:0:0:0:
139,363,47082,1,4,3:2:0:0:
60,337,47232,1,4,0:3:0:0:
123,283,47382,2,0,P|179:191|123:99,1,225,0|4,1:0|0:3,0:0:0:0:
60,45,47982,1,0,1:0:0:0:
139,19,48132,1,0,1:0:0:0:
209,61,48282,6,0,P|247:75|294:64,1,75,4|0,3:2|0:0,0:0:0:0:
373,15,48582,2,0,P|372:55|399:95,1,75,0|0,1:0|0:0,0:0:0:0:
472,153,48882,2,0,P|433:166|404:205,2,75,2|4|0,3:2|0:3|1:0,0:0:0:0:
431,313,49482,2,0,B|401:301|353:322|371:350|324:370|294:359,1,150,4|0,3:2|1:0,0:0:0:0:
255,288,49932,1,4,0:3:0:0:
213,360,50082,2,0,B|185:370|138:350|156:322|108:301|79:313,1,150,2|0,3:2|1:0,0:0:0:0:
37,152,50682,6,0,P|73:164|98:191,1,75,4|0,3:2|0:0,0:0:0:0:
121,85,50982,2,0,P|137:52|137:15,1,75,0|0,1:0|0:0,0:0:0:0:
229,70,51282,2,0,P|266:73|301:59,2,75,2|4|0,3:2|0:3|1:0,0:0:0:0:
471,39,51882,1,2,3:2:0:0:
420,104,52032,1,4,0:3:0:0:
453,179,52182,1,0,1:0:0:0:
402,244,52332,1,0,1:0:0:0:
435,338,52482,2,0,P|391:340|360:362,1,75,4|4,0:3|1:2,0:0:0:0:
210,340,52782,2,0,P|247:339|280:322,1,75,4|0,0:3|1:0,0:0:0:0:
493,47,62682,5,4,3:2:0:0:
449,174,62982,1,0,1:0:0:0:
396,110,63132,2,0,P|326:131|301:207,1,150,2|2,0:0|0:0,0:0:0:0:
256,268,63582,1,0,1:0:0:0:
212,197,63732,2,0,P|185:130|116:110,1,150,2|0,0:0|0:0,0:0:0:0:
48,157,64182,2,0,B|14:308,1,150,0|2,1:0|0:0,0:0:0:0:
42,381,64632,1,4,0:3:0:0:
99,322,64782,2,0,P|130:308|172:321,1,75,0|0,1:0|1:0,0:0:0:0:
228,374,65082,5,0,3:0:0:0:
364,370,65382,2,0,P|418:358|445:131,1,300,0|0,1:0|1:0,0:0:0:0:
402,271,66282,2,0,P|363:290|329:282,1,75,0|4,3:0|0:3,0:0:0:0:
310,206,66582,2,0,B|297:147|297:147|305:117|305:117|294:60,1,150,0|4,1:0|0:3,0:0:0:0:
162,29,67182,2,0,L|178:102,1,75,0|0,1:0|1:0,0:0:0:0:
197,180,67482,5,4,3:2:0:0:
83,251,67782,1,0,1:0:0:0:
117,325,67932,2,0,P|151:350|256:341,1,150,2|2,0:0|0:0,0:0:0:0:
315,286,68382,1,0,1:0:0:0:
288,207,68532,2,0,B|301:148|301:148|293:118|293:118|304:61,1,150,2|2,0:0|0:0,0:0:0:0:
386,53,68982,2,0,B|373:112|373:112|381:142|381:142|370:199,1,150,0|2,1:0|3:2,0:0:0:0:
434,250,69432,1,4,0:3:0:0:
410,329,69582,2,0,P|371:353|333:352,1,75,0|0,1:0|0:0,0:0:0:0:
266,330,69882,5,0,3:2:0:0:
206,208,70182,2,0,P|89:157|14:288,1,300,0|0,1:0|1:0,0:0:0:0:
116,368,71082,2,0,P|161:349|192:355,1,75,0|4,3:0|0:3,0:0:0:0:
262,382,71382,2,0,P|310:379|360:290,1,150,0|4,1:0|0:3,0:0:0:0:
334,221,71832,1,0,0:0:0:0:
414,202,71982,2,0,L|489:181,1,75,0|0,1:0|0:0,0:0:0:0:
507,101,72282,6,0,P|474:52|376:55,1,150,4|0,3:2|1:0,0:0:0:0:
239,126,72882,2,0,P|166:127|120:71,1,150,2|0,3:2|1:0,0:0:0:0:
19,201,73482,2,0,B|32:260|32:260|24:290|24:290|35:347,1,150,2|0,3:2|1:0,0:0:0:0:
164,379,73932,2,0,B|151:320|151:320|159:290|159:290|148:233,1,150,4|4,0:3|0:3,0:0:0:0:
96,166,74382,1,0,1:0:0:0:
201,38,74682,6,0,L|358:51,1,150,4|0,3:2|1:0,0:0:0:0:
428,195,75282,2,0,L|271:182,1,150,2|0,3:2|1:0,0:0:0:0:
117,219,75882,2,0,P|175:262|178:335,1,150,2|0,3:2|1:0,0:0:0:0:
89,384,76332,2,0,P|30:340|27:267,1,150,4|4,0:3|0:3,0:0:0:0:
102,301,76782,1,0,1:0:0:0:
265,329,77082,6,0,B|322:340|322:340|352:332|352:332|411:345,1,150,4|0,3:2|1:0,0:0:0:0:
486,197,77682,2,0,B|427:210|427:210|397:202|397:202|340:213,1,150,2|0,3:2|1:0,0:0:0:0:
238,82,78282,2,0,P|194:44|98:74,1,150,2|0,3:2|1:0,0:0:0:0:
94,158,78732,2,0,P|138:196|234:166,1,150,4|4,0:3|0:3,0:0:0:0:
166,120,79182,1,0,1:0:0:0:
335,41,79482,6,0,B|348:100|348:100|340:130|340:130|351:188,1,150,4|0,3:2|1:0,0:0:0:0:
505,130,80082,2,0,B|492:189|492:189|500:219|500:219|489:277,1,150,2|0,3:2|1:0,0:0:0:0:
474,357,80532,1,0,0:0:0:0:
411,302,80682,1,0,0:0:0:0:
173,54,81882,6,0,P|105:26|37:54,2,150,4|0|4,3:1|1:0|3:0,0:0:0:0:
224,118,82632,1,0,0:3:0:0:
142,130,82782,1,0,1:0:0:0:
109,291,83082,2,0,P|172:311|214:384,1,150,4|0,3:2|1:0,0:0:0:0:
298,380,83532,2,0,P|333:315|403:291,1,150,4|4,0:3|0:3,0:0:0:0:
481,317,83982,1,0,1:0:0:0:
437,98,84282,6,0,B|439:74|469:58|502:69|520:100|518:135|498:166|451:175|445:220|445:220|416:185|372:200|337:183|318:155|320:117|343:92|377:90|387:108,1,450,4|0,3:2|1:0,0:0:0:0:
255,15,85482,1,2,3:2:0:0:
194,71,85632,1,4,0:3:0:0:
125,25,85782,2,0,P|16:89|17:199,1,225,0|4,1:0|0:3,0:0:0:0:
31,257,86382,1,0,1:0:0:0:
190,300,86682,6,0,P|204:325|210:372,1,75,4|0,3:2|0:0,0:0:0:0:
322,300,86982,2,0,P|308:325|302:372,1,75,0|0,1:0|0:0,0:0:0:0:
256,248,87282,2,0,L|256:168,2,75,2|4|0,3:2|0:3|1:0,0:0:0:0:
381,354,87882,2,0,P|455:320|464:242,1,150,2|0,3:2|1:0,0:0:0:0:
417,192,88332,1,4,0:3:0:0:
468,125,88482,2,0,P|448:56|381:30,1,150,2|0,3:2|1:0,0:0:0:0:
190,84,89082,6,0,P|204:59|210:12,1,75,4|0,3:2|0:0,0:0:0:0:
322,84,89382,2,0,P|308:59|302:12,1,75,0|0,1:0|0:0,0:0:0:0:
256,136,89682,2,0,L|256:216,2,75,2|4|0,3:2|0:3|1:0,0:0:0:0:
360,263,90282,1,2,3:2:0:0:
330,339,90432,1,4,0:3:0:0:
256,377,90582,1,0,1:0:0:0:
182,339,90732,1,0,1:0:0:0:
152,263,90882,2,0,P|116:244|70:250,1,75,4|4,0:3|1:2,0:0:0:0:
30,138,91182,2,0,P|66:157|112:151,1,75,4|0,0:3|1:0,0:0:0:0:
168,30,91482,6,0,L|211:181,1,150,4|0,3:1|1:0,0:0:0:0:
256,242,91932,1,0,0:0:0:0:
302,174,92082,2,0,L|344:30,1,150,0|0,3:0|1:0,0:0:0:0:
449,157,92682,2,0,P|457:229|422:296,1,150,4|0,3:2|1:0,0:0:0:0:
361,351,93132,1,4,0:3:0:0:
295,301,93282,2,0,P|243:272|144:306,1,150,0|0,3:0|1:0,0:0:0:0:
75,98,93882,6,0,B|73:74|43:58|10:69|-8:100|-6:135|14:166|61:175|67:220|67:220|96:185|140:200|175:183|194:155|192:117|169:92|135:90|125:108,1,450,4|0,3:2|1:0,0:0:0:0:
257,15,95082,1,4,3:2:0:0:
339,23,95232,1,4,0:3:0:0:
295,92,95382,2,0,B|313:135|382:165|394:118|465:149|482:193,1,225,0|4,1:0|3:3,0:0:0:0:
492,275,95982,1,0,1:0:0:0:
327,279,96282,6,0,P|301:311|298:348,1,75,4|0,3:2|0:0,0:0:0:0:
193,364,96582,2,0,P|178:325|147:304,1,75,0|0,1:0|0:0,0:0:0:0:
186,205,96882,2,0,P|226:211|260:195,2,75,2|4|0,3:2|0:3|1:0,0:0:0:0:
76,81,97482,2,0,B|105:93|153:72|135:44|182:24|210:34,1,150,2|0,3:2|1:0,0:0:0:0:
256,101,97932,1,4,0:3:0:0:
302,34,98082,2,0,B|330:24|377:44|359:72|407:93|436:81,1,150,2|0,3:2|1:0,0:0:0:0:
499,214,98682,6,0,P|475:242|467:281,1,75,4|0,3:2|0:0,0:0:0:0:
361,238,98982,2,0,P|363:274|385:308,1,75,0|0,1:0|0:0,0:0:0:0:
280,352,99282,2,0,P|308:376|347:384,2,75,2|4|0,3:2|0:3|1:0,0:0:0:0:
114,340,99882,1,2,3:2:0:0:
154,268,100032,1,4,0:3:0:0:
99,206,100182,1,0,1:0:0:0:
139,134,100332,1,0,1:0:0:0:
79,67,100482,2,0,P|41:67|9:85,1,75,4|4,0:3|1:2,0:0:0:0:
167,49,100782,2,0,P|204:48|236:30,1,75,4|0,0:3|1:0,0:0:0:0:
335,12,101082,6,0,P|320:58|354:132,1,127.50000243187,4|0,0:3|0:0,0:0:0:0:
428,153,101532,1,4,0:3:0:0:
369,211,101682,2,0,L|289:222,2,63.7500012159348,0|0|4,1:0|0:0|0:3,0:0:0:0:
483,326,102282,2,0,L|348:316,1,127.50000243187,4|0,0:3|0:0,0:0:0:0:
284,360,102732,1,4,0:3:0:0:
215,313,102882,2,0,P|152:315|106:357,1,127.50000243187,0|4,1:0|0:3,0:0:0:0:
19,252,103482,6,0,L|90:240,1,63.7500012159348,4|0,0:3|3:0,0:0:0:0:
139,181,103782,2,0,P|96:135|94:72,1,127.50000243187,4|0,0:3|1:0,0:0:0:0:
161,24,104232,1,0,1:0:0:0:
210,91,104382,2,0,L|275:97,1,63.7500012159348,4|0,0:3|1:0,0:0:0:0:
335,42,104682,2,0,L|475:31,1,127.50000243187,4|4,0:3|0:0,0:0:0:0:
496,107,105132,1,4,0:3:0:0:
428,154,105282,2,0,P|417:203|461:274,1,127.50000243187,4|4,1:0|0:3,0:0:0:0:
315,351,105882,6,0,L|175:340,1,127.50000243187,4|0,0:3|0:0,0:0:0:0:
147,268,106332,1,4,0:3:0:0:
223,235,106482,2,0,P|265:241|293:267,2,63.7500012159348,0|0|4,1:0|0:0|0:3,0:0:0:0:
134,100,107082,2,0,P|187:109|258:67,1,127.50000243187,4|0,0:3|0:0,0:0:0:0:
296,6,107532,1,4,0:3:0:0:
349,68,107682,2,0,L|343:205,1,127.50000243187,0|4,1:0|0:3,0:0:0:0:
399,257,108132,1,0,0:0:0:0:
357,328,108282,6,0,P|316:329|279:351,1,63.7500012159348,4|0,0:3|0:0,0:0:0:0:
214,358,108582,2,0,L|63:343,1,127.50000243187,4|0,0:3|1:0,0:0:0:0:
29,284,109032,1,0,1:0:0:0:
78,217,109182,2,0,P|119:218|156:240,1,63.7500012159348,4|0,0:3|1:0,0:0:0:0:
208,273,109482,1,4,0:3:0:0:
257,206,109632,1,0,0:0:0:0:
188,159,109782,2,0,P|168:123|168:88,1,63.7500012159348,4|4,0:0|0:3,0:0:0:0:
216,34,110082,2,0,P|279:26|333:65,1,127.50000243187,4|4,1:0|0:3,0:0:0:0:
452,172,110682,6,0,P|389:164|335:203,1,127.50000243187,4|0,0:3|0:0,0:0:0:0:
319,279,111132,1,4,0:3:0:0:
395,310,111282,2,0,P|408:281|410:250,2,63.7500012159348,0|0|4,1:0|0:0|0:3,0:0:0:0:
231,335,111882,2,0,L|84:352,1,127.50000243187,4|0,0:3|0:0,0:0:0:0:
28,315,112332,1,4,0:3:0:0:
59,238,112482,2,0,L|206:255,1,127.50000243187,0|4,1:0|0:3,0:0:0:0:
287,121,113082,6,0,L|219:128,1,63.7500012159348,4|0,0:3|3:0,0:0:0:0:
145,156,113382,2,0,P|83:143|38:69,1,127.50000243187,4|0,0:3|1:0,0:0:0:0:
70,16,113832,1,0,1:0:0:0:
152,9,113982,2,0,L|166:82,1,63.7500012159348,4|0,0:3|1:0,0:0:0:0:
223,127,114282,2,0,L|213:265,1,127.50000243187,4|4,0:3|0:0,0:0:0:0:
243,332,114732,1,4,0:3:0:0:
164,358,114882,2,0,P|102:350|57:276,1,127.50000243187,4|4,1:0|0:3,0:0:0:0:
4,146,115482,6,0,P|66:154|111:228,1,127.50000243187,4|0,0:3|0:0,0:0:0:0:
179,240,115932,1,4,0:3:0:0:
226,172,116082,2,0,L|216:104,2,63.7500012159348,0|0|4,1:0|0:0|0:3,0:0:0:0:
319,298,116682,2,0,P|359:250|421:242,1,127.50000243187,4|0,0:3|0:0,0:0:0:0:
487,192,117132,1,4,0:3:0:0:
420,142,117282,2,0,P|358:133|319:86,1,127.50000243187,0|4,1:0|0:3,0:0:0:0:
256,192,117882,12,0,120282,0:0:0:0:
420,106,129882,6,0,B|411:91|384:93|365:113|363:144|379:167|407:181|443:169|467:197|467:197|472:160|510:153|527:128|528:99|514:74|487:65|462:78|460:98,1,367.49998878479,0|0,0:0|0:0,0:0:0:0:
420,27,131082,2,0,B|367:16|282:54|288:119|308:171|308:175|308:179|344:231|335:285|280:320,1,367.49998878479,0|0,0:0|0:0,0:0:0:0:
219,310,132282,2,0,B|177:285|168:231|204:179|204:175|204:171|224:119|230:54|145:16|92:27,1,367.49998878479,0|0,0:0|0:0,0:0:0:0:
52,98,133482,2,0,B|50:78|25:65|-2:74|-16:99|-15:128|2:153|40:160|45:197|45:197|69:169|105:181|133:167|149:144|147:113|128:93|101:91|92:106,1,367.49998878479,0|0,0:0|0:0,0:0:0:0:
91,24,134682,5,0,0:0:0:0:
205,75,134982,1,0,0:0:0:0:
256,189,135282,1,0,0:0:0:0:
307,75,135582,1,0,0:0:0:0:
421,24,135882,2,0,P|463:69|462:219,1,209.999993591309,0|0,0:0|0:0,0:0:0:0:
193,361,137082,5,0,0:0:0:0:
154,242,137382,1,0,0:0:0:0:
256,168,137682,1,0,0:0:0:0:
358,242,137982,1,0,0:0:0:0:
319,361,138282,2,0,P|268:326|256:286,1,104.999996795654,0|0,0:0|0:0,0:0:0:0:
256,168,138882,6,0,L|256:96,3,50
58,41,139482,22,0,P|39:106|82:174,2,150,4|0|4,3:1|1:0|3:0,0:0:0:0:
140,52,140232,1,0,0:3:0:0:
153,133,140382,1,0,1:0:0:0:
109,291,140682,2,0,P|172:311|214:384,1,150,4|0,3:2|1:0,0:0:0:0:
298,380,141132,2,0,P|333:315|403:291,1,150,4|4,0:3|0:3,0:0:0:0:
481,317,141582,1,0,1:0:0:0:
437,98,141882,6,0,B|439:74|469:58|502:69|520:100|518:135|498:166|451:175|445:220|445:220|416:185|372:200|337:183|318:155|320:117|343:92|377:90|387:108,1,450,4|0,0:2|1:0,0:0:0:0:
255,15,143082,1,4,0:0:0:0:
194,71,143232,1,4,0:3:0:0:
125,25,143382,2,0,P|16:89|17:199,1,225,0|4,1:0|0:3,0:0:0:0:
31,257,143982,1,0,1:0:0:0:
210,370,144282,6,0,P|206:333|190:300,1,75,4|0,3:2|0:0,0:0:0:0:
322,300,144582,2,0,P|308:325|302:372,1,75,0|0,1:0|0:0,0:0:0:0:
256,248,144882,2,0,L|256:168,2,75,2|4|0,3:2|0:3|1:2,0:0:0:0:
381,354,145482,2,0,P|455:320|464:242,1,150,2|0,3:2|1:0,0:0:0:0:
417,192,145932,1,4,0:3:0:0:
468,125,146082,2,0,P|448:56|381:30,1,150,2|0,3:2|1:0,0:0:0:0:
210,13,146682,6,0,P|206:50|190:84,1,75,4|0,3:2|0:0,0:0:0:0:
322,84,146982,2,0,P|308:59|302:12,1,75,0|0,1:0|0:0,0:0:0:0:
256,136,147282,2,0,L|256:216,2,75,2|4|0,3:2|0:3|1:0,0:0:0:0:
198,343,147882,1,2,3:2:0:0:
277,369,148032,1,4,0:3:0:0:
316,296,148182,1,0,1:0:0:0:
237,270,148332,1,0,1:0:0:0:
303,203,148482,2,0,P|344:204|384:180,1,75,4|4,0:3|1:2,0:0:0:0:
211,183,148782,2,0,P|170:182|130:206,1,75,4|0,0:3|1:0,0:0:0:0:
277,116,149082,6,0,B|309:120|349:87|325:65|366:33|397:36,1,150,4|0,3:1|1:0,0:0:0:0:
476,53,149532,1,0,0:0:0:0:
418,115,149682,2,0,P|406:161|474:245,1,150,0|0,3:0|1:0,0:0:0:0:
341,362,150282,2,0,P|349:290|299:237,1,150,4|0,3:2|1:0,0:0:0:0:
257,308,150732,1,4,0:3:0:0:
216,237,150882,2,0,P|166:290|173:362,1,150,0|0,3:0|1:0,0:0:0:0:
54,241,151482,6,0,P|104:188|96:115,1,150,4|0,3:2|1:0,0:0:0:0:
38,53,151932,1,4,0:3:0:0:
120,36,152082,2,0,B|149:33|190:65|166:87|206:120|237:116,1,150,0|0,0:0|1:0,0:0:0:0:
373,21,152682,1,4,3:2:0:0:
452,47,152832,1,4,0:3:0:0:
389,101,152982,2,0,P|333:193|389:285,1,225,0|4,1:0|0:3,0:0:0:0:
452,339,153582,1,0,1:0:0:0:
373,365,153732,1,0,1:0:0:0:
303,323,153882,6,0,P|265:309|218:320,1,75,4|0,3:2|0:0,0:0:0:0:
139,369,154182,2,0,P|140:329|113:289,1,75,0|0,1:0|0:0,0:0:0:0:
40,231,154482,2,0,P|79:218|108:179,2,75,2|4|0,3:2|0:3|1:0,0:0:0:0:
76,81,155082,2,0,B|105:93|153:72|135:44|182:24|210:34,1,150,4|0,3:2|1:0,0:0:0:0:
256,101,155532,1,4,0:3:0:0:
302,34,155682,2,0,B|330:24|377:44|359:72|407:93|436:81,1,150,2|0,3:2|1:0,0:0:0:0:
499,214,156282,6,0,P|475:242|467:281,1,75,4|0,3:2|0:0,0:0:0:0:
361,238,156582,2,0,P|363:274|385:308,1,75,0|0,1:0|0:0,0:0:0:0:
280,352,156882,2,0,P|308:376|347:384,2,75,2|4|0,3:2|0:3|1:0,0:0:0:0:
114,340,157482,1,2,3:2:0:0:
154,268,157632,1,4,0:3:0:0:
99,206,157782,1,0,1:0:0:0:
139,134,157932,1,0,1:0:0:0:
74,67,158082,2,0,B|105:23|180:19|207:63|207:67|207:70|235:114|309:110|341:67,1,300,4|4,0:3|3:1,0:0:0:0:
