osu file format v14

[General]
AudioFilename: Lonely Hearts Club.mp3
AudioLeadIn: 0
PreviewTime: 33820
Countdown: 0
SampleSet: Soft
StackLeniency: 0.7
Mode: 0
LetterboxInBreaks: 0
WidescreenStoryboard: 0

[Editor]
Bookmarks: 9882,53082,62682,120282,129882,158682
DistanceSpacing: 0.8
BeatDivisor: 4
GridSize: 4
TimelineZoom: 1.9

[Metadata]
Title:Lonely Hearts Club
TitleUnicode:Lonely Hearts Club
Artist:Marina And The Diamonds
ArtistUnicode:Marina And The Diamonds
Creator:Desperate-kun
Version:Insane
Source:
Tags:Mao Sieg Electra Heart Marina Lambrini Diamandis Μαρίνα Λαμπρινή Διαμαντή Electro Synthie
BeatmapID:810027
BeatmapSetID:369678

[Difficulty]
HPDrainRate:7
CircleSize:3.8
OverallDifficulty:7
ApproachRate:8.4
SliderMultiplier:1.9
SliderTickRate:2

[Events]
//Background and Video events
0,0,"bg.jpg",0,0
//Break Periods
2,53132,61992
2,120482,129192
//Storyboard Layer 0 (Background)
//Storyboard Layer 1 (Fail)
//Storyboard Layer 2 (Pass)
//Storyboard Layer 3 (Foreground)
//Storyboard Sound Samples

[TimingPoints]
9882,300,4,2,0,50,1,0
12282,-133.333333333333,4,2,0,50,0,0
14682,-100,4,2,0,50,0,0
17082,-133.333333333333,4,2,0,50,0,0
19482,-100,4,2,0,50,0,0
21882,-133.333333333333,4,2,0,50,0,0
24282,-100,4,2,0,50,0,0
26682,-133.333333333333,4,2,0,50,0,0
29082,-100,4,2,0,50,0,0
32682,-133.333333333333,4,2,0,40,0,0
33882,-100,4,2,0,80,0,1
43407,-100,4,2,0,80,0,0
43482,-100,4,2,0,80,0,1
53082,-100,4,2,0,50,0,0
65082,-133.333333333333,4,2,0,50,0,0
67482,-100,4,2,0,50,0,0
69882,-133.333333333333,4,2,0,50,0,0
72282,-100,4,2,0,50,0,0
80682,-133.333333333333,4,2,0,40,0,0
81882,-100,4,2,0,80,0,1
91407,-100,4,2,0,80,0,0
91482,-100,4,2,0,80,0,1
101082,-133.333333333333,4,2,0,50,0,0
104682,-100,4,2,0,50,0,0
105882,-133.333333333333,4,2,0,50,0,0
109482,-100,4,2,0,50,0,0
110682,-133.333333333333,4,2,0,50,0,0
114282,-100,4,2,0,50,0,0
115482,-133.333333333333,4,2,0,50,0,0
120282,-133.333333333333,4,2,0,5,0,0
129882,-133.333333333333,4,2,0,40,0,0
130932,-133.333333333333,4,2,0,5,0,0
131082,-133.333333333333,4,2,0,40,0,0
132132,-133.333333333333,4,2,0,5,0,0
132282,-133.333333333333,4,2,0,40,0,0
133332,-133.333333333333,4,2,0,5,0,0
133482,-133.333333333333,4,2,0,40,0,0
134532,-133.333333333333,4,2,0,5,0,0
134682,-133.333333333333,4,2,0,40,0,0
138882,-80,4,2,0,50,0,0
139482,-100,4,2,0,80,0,1
149007,-100,4,2,0,80,0,0
149082,-100,4,2,0,80,0,1
158607,-100,4,2,0,80,0,0
158682,-100,4,2,0,80,0,1
158757,-100,4,2,0,80,0,0

[Colours]
Combo1 : 9,247,20
Combo2 : 252,99,82
Combo3 : 49,104,249
Combo4 : 255,255,0

[HitObjects]
317,203,9882,5,4,3:2:0:0:
232,76,10182,2,0,P|143:57|83:125,1,190,0|2,1:0|0:0,0:0:0:0:
82,277,10782,1,0,1:0:0:0:
137,328,10932,1,2,0:0:0:0:
154,255,11082,1,0,3:0:0:0:
297,289,11382,2,0,P|383:260|400:171,1,190,0|2,1:0|0:0,0:0:0:0:
368,102,11832,1,4,0:3:0:0:
402,34,11982,1,0,1:0:0:0:
455,291,12282,5,0,3:0:0:0:
317,202,12582,2,0,B|211:216|211:216|166:270|166:270|55:284,1,285.000010871888,0|0,1:0|1:0,0:0:0:0:
6,136,13482,1,0,3:0:0:0:
70,91,13632,1,4,0:3:0:0:
126,145,13782,2,0,P|200:143|236:17,1,213.750008153916,0|4,1:0|0:3,0:0:0:0:
162,19,14382,1,0,1:0:0:0:
428,35,14682,5,4,3:2:0:0:
477,177,14982,2,0,L|438:369,1,190,0|2,1:0|0:0,0:0:0:0:
217,313,15582,1,0,1:0:0:0:
256,246,15732,1,2,0:0:0:0:
295,313,15882,1,0,3:0:0:0:
72,364,16182,2,0,L|35:178,1,190,0|2,1:0|0:0,0:0:0:0:
74,112,16632,1,4,0:3:0:0:
113,47,16782,1,0,1:0:0:0:
325,206,17082,5,0,3:0:0:0:
176,256,17382,2,0,P|237:357|397:343,1,285.000010871888,0|0,1:0|1:0,0:0:0:0:
427,280,18132,1,4,0:3:0:0:
463,210,18282,2,0,L|451:138,1,71.2500027179719,0|4,3:0|0:3,0:0:0:0:
372,139,18582,2,0,L|360:67,1,71.2500027179719,0|0,1:0|1:0,0:0:0:0:
233,134,18882,2,0,L|245:205,1,71.2500027179719,0|4,0:0|0:3,0:0:0:0:
324,205,19183,2,0,L|336:276,1,71.2500027179719,0|0,1:0|1:0,0:0:0:0:
224,352,19482,5,4,3:2:0:0:
149,363,19632,1,0,0:0:0:0:
82,331,19782,1,0,1:0:0:0:
43,267,19932,2,0,L|14:76,1,190,2|2,0:0|0:0,0:0:0:0:
88,67,20382,1,0,1:0:0:0:
155,99,20532,1,2,0:0:0:0:
194,163,20682,1,0,3:0:0:0:
326,237,20982,2,0,P|393:242|454:142,1,190,0|2,1:0|0:0,0:0:0:0:
424,77,21432,1,4,0:3:0:0:
348,84,21582,1,0,1:0:0:0:
314,15,21732,1,0,1:0:0:0:
236,24,21882,5,0,3:0:0:0:
227,180,22182,2,0,B|205:239|130:289|93:201|19:251|0:311,1,285.000010871888,0|0,1:0|1:0,0:0:0:0:
60,360,22932,1,4,0:3:0:0:
135,337,23082,1,0,0:0:0:0:
200,379,23232,1,4,0:3:0:0:
275,356,23382,2,0,B|356:336|330:386|413:366,1,142.500005435944,0|4,1:0|0:3,0:0:0:0:
448,293,23832,1,0,0:0:0:0:
482,220,23982,1,0,1:0:0:0:
420,171,24132,1,0,1:0:0:0:
358,122,24282,5,4,3:2:0:0:
500,68,24582,1,0,1:0:0:0:
436,26,24732,2,0,P|373:11|285:103,1,190,2|2,0:0|0:0,0:0:0:0:
272,163,25182,1,0,1:0:0:0:
204,198,25332,1,2,0:0:0:0:
133,168,25482,1,0,3:0:0:0:
52,41,25782,2,0,P|144:44|193:121,1,190,0|2,1:0|0:0,0:0:0:0:
204,198,26232,1,4,0:3:0:0:
215,274,26382,1,0,1:0:0:0:
148,311,26532,1,0,1:0:0:0:
82,348,26682,5,0,3:0:0:0:
27,212,26982,2,0,B|133:220|133:220|181:272|181:272|292:280,1,285.000010871888,0|0,1:0|1:0,0:0:0:0:
355,322,27732,1,4,0:3:0:0:
422,362,27882,1,0,3:0:0:0:
446,287,28032,1,4,0:3:0:0:
471,212,28182,2,0,P|416:194|384:115,1,142.500005435944,0|4,1:0|0:3,0:0:0:0:
394,42,28632,1,0,0:0:0:0:
471,28,28782,1,0,1:0:0:0:
207,66,29082,6,0,B|135:75|135:75|100:103|100:103|24:112,1,190,4|0,3:2|1:0,0:0:0:0:
305,318,29682,2,0,B|377:309|377:309|412:281|412:281|488:272,1,190,2|0,0:0|1:0,0:0:0:0:
173,152,30282,2,0,B|182:224|182:224|210:259|210:259|219:335,1,190,2|0,3:2|1:0,0:0:0:0:
339,232,30732,2,0,B|330:160|330:160|302:125|302:125|293:49,1,190,4|4,0:3|0:3,0:0:0:0:
256,192,31182,1,0,1:0:0:0:
155,55,31482,6,0,P|87:44|9:127,1,190,4|0,3:2|1:0,0:0:0:0:
357,328,32082,2,0,P|425:339|503:256,1,190,2|0,0:0|1:0,0:0:0:0:
453,198,32532,1,0,0:0:0:0:
402,136,32682,2,0,B|319:116|345:166|260:145,1,142.500005435944
248,238,33132,2,0,B|167:218|193:268|110:248,1,142.500005435944
31,97,33882,6,0,P|50:54|88:27,1,95,4|0,3:1|0:0,0:0:0:0:
167,65,34182,2,0,P|209:44|256:48,1,95,0|0,1:0|0:0,0:0:0:0:
291,129,34482,2,0,P|337:140|371:173,1,95,4|0,3:0|0:3,0:0:0:0:
345,256,34782,2,0,P|374:294|379:341,1,95,0|0,1:0|1:0,0:0:0:0:
133,341,35082,6,0,P|137:294|166:256,1,95,4|0,3:2|0:0,0:0:0:0:
141,172,35382,2,0,P|174:140|220:129,1,95,0|4,1:0|0:3,0:0:0:0:
255,48,35683,2,0,P|302:44|344:65,1,95,0|4,3:0|0:3,0:0:0:0:
424,26,35982,2,0,P|461:54|480:97,1,95,0|0,1:0|1:0,0:0:0:0:
212,164,36282,6,0,B|192:128|144:140|124:180|152:212|152:212|189:255,1,190,4|0,0:2|1:0,0:0:0:0:
300,164,36732,2,0,B|320:128|368:140|388:180|360:212|360:212|322:255,1,190,4|4,0:3|0:3,0:0:0:0:
256,332,37182,1,0,1:0:0:0:
88,112,37482,5,4,0:0:0:0:
59,213,37632,1,4,0:3:0:0:
125,295,37782,1,0,1:0:0:0:
424,112,38082,1,0,3:0:0:0:
453,213,38232,1,4,0:3:0:0:
387,295,38382,1,0,1:0:0:0:
161,62,38682,6,0,L|218:140,1,95,4|0,3:2|0:0,0:0:0:0:
407,241,38982,2,0,L|316:212,1,95,0|0,1:0|0:0,0:0:0:0:
104,241,39282,2,0,L|196:212,1,95,2|4,3:2|0:3,0:0:0:0:
350,62,39583,2,0,L|293:140,1,95,0|0,1:2|0:0,0:0:0:0:
180,312,39882,6,0,P|256:360|332:312,1,190,2|0,3:2|1:0,0:0:0:0:
256,192,40332,1,4,0:3:0:0:
179,72,40482,2,0,P|255:24|332:72,1,190,2|0,3:2|1:0,0:0:0:0:
82,249,41082,6,0,L|173:219,1,95,4|0,3:2|0:0,0:0:0:0:
430,249,41382,2,0,L|338:219,1,95,0|0,1:0|0:0,0:0:0:0:
113,130,41682,2,0,L|204:100,1,95,2|4,3:2|0:3,0:0:0:0:
399,130,41982,2,0,L|307:100,1,95,0|0,1:0|0:0,0:0:0:0:
256,344,42282,5,2,3:2:0:0:
343,323,42432,1,4,0:3:0:0:
366,236,42582,1,0,1:0:0:0:
298,177,42732,1,0,1:0:0:0:
214,207,42882,1,4,0:3:0:0:
146,148,43032,1,4,1:2:0:0:
169,61,43182,1,4,0:3:0:0:
256,40,43332,1,0,1:0:0:0:
403,46,43482,6,0,B|375:78|371:138|435:130|431:190|403:222,1,190,4|0,3:1|1:0,0:0:0:0:
477,281,43932,2,0,P|440:310|383:314,1,95,0|0,0:0|3:0,0:0:0:0:
300,295,44232,1,4,0:3:0:0:
271,204,44382,2,0,P|273:157|299:118,1,95,0|0,1:0|1:0,0:0:0:0:
109,46,44682,6,0,B|137:78|141:138|77:130|81:190|109:222,1,190,4|0,3:2|1:0,0:0:0:0:
35,281,45132,2,0,P|72:310|129:314,1,95,4|0,0:3|3:0,0:0:0:0:
212,295,45432,1,4,0:3:0:0:
240,204,45582,2,0,P|238:157|213:118,1,95,0|0,1:0|1:0,0:0:0:0:
460,71,45882,6,0,B|488:41|531:65|540:109|505:132|505:132|457:164,1,190,4|0,3:2|1:0,0:0:0:0:
375,49,46332,2,0,B|364:9|315:8|285:41|304:79|304:79|329:130,1,190,4|4,0:3|0:3,0:0:0:0:
374,222,46782,1,0,1:0:0:0:
25,165,47082,5,4,3:2:0:0:
7,269,47232,1,4,0:3:0:0:
96,323,47382,1,0,1:0:0:0:
150,76,47682,1,0,3:0:0:0:
239,19,47832,1,4,0:3:0:0:
306,100,47982,1,0,1:0:0:0:
256,192,48132,1,0,1:0:0:0:
206,283,48282,6,0,P|193:329|205:374,1,95,4|0,3:2|0:0,0:0:0:0:
392,245,48582,2,0,P|404:200|392:155,1,95,0|0,1:0|0:0,0:0:0:0:
120,155,48882,2,0,P|107:200|119:245,1,95,2|4,3:2|0:3,0:0:0:0:
306,374,49182,2,0,P|318:329|305:283,1,95,0|0,1:0|0:0,0:0:0:0:
194,76,49482,6,0,B|235:77|281:117|229:157|275:197|317:200,1,190,4|0,3:2|1:0,0:0:0:0:
449,130,49932,1,4,0:3:0:0:
318,75,50082,2,0,B|276:76|231:116|282:156|236:196|194:199,1,190,2|0,3:2|1:0,0:0:0:0:
63,130,50532,1,4,0:3:0:0:
206,291,50682,6,0,P|219:337|207:382,1,95,4|0,3:2|0:0,0:0:0:0:
408,202,50982,2,0,P|451:181|497:185,1,95,0|0,1:0|0:0,0:0:0:0:
327,293,51282,2,0,P|370:312|397:350,1,95,2|4,3:2|0:3,0:0:0:0:
388,81,51582,2,0,P|399:34|432:1,1,95,0|0,1:0|0:0,0:0:0:0:
286,160,51882,5,2,3:2:0:0:
258,69,52032,1,4,0:3:0:0:
196,141,52182,1,0,1:0:0:0:
116,90,52332,1,0,1:0:0:0:
114,185,52482,1,4,0:3:0:0:
20,197,52632,1,4,1:2:0:0:
79,271,52782,1,4,0:3:0:0:
15,340,52932,1,0,1:0:0:0:
33,357,62682,5,4,3:2:0:0:
159,272,62982,1,0,1:0:0:0:
222,229,63132,2,0,P|279:209|363:292,1,190,2|2,0:0|0:0,0:0:0:0:
416,343,63582,1,0,1:0:0:0:
438,270,63732,1,2,0:0:0:0:
461,197,63882,1,0,3:0:0:0:
504,51,64182,2,0,P|447:31|363:114,1,190,0|2,1:0|0:0,0:0:0:0:
318,173,64632,1,4,0:3:0:0:
256,128,64782,1,0,1:0:0:0:
194,173,64932,1,0,1:0:0:0:
148,112,65082,5,0,3:0:0:0:
8,51,65382,2,0,B|21:160|21:160|71:206|71:206|84:312,1,285.000010871888,0|0,1:0|1:0,0:0:0:0:
162,303,66132,1,4,0:3:0:0:
221,354,66282,1,0,3:0:0:0:
289,316,66432,1,4,0:3:0:0:
358,352,66582,2,0,P|411:343|441:258,1,142.500005435944,0|4,1:0|0:3,0:0:0:0:
377,225,67032,1,0,0:0:0:0:
349,154,67182,1,0,1:0:0:0:
376,83,67332,1,0,1:0:0:0:
445,49,67482,5,4,3:2:0:0:
256,28,67782,1,0,1:0:0:0:
256,104,67932,2,0,P|204:178|115:165,1,190,2|2,0:0|0:0,0:0:0:0:
95,91,68382,1,0,1:0:0:0:
172,100,68532,1,2,0:0:0:0:
169,263,68832,2,0,B|201:291|261:295|253:231|313:235|345:263,1,190,4|4,0:0|0:3,0:0:0:0:
398,316,69282,1,2,3:2:0:0:
453,368,69432,1,4,0:3:0:0:
471,294,69582,1,0,1:0:0:0:
465,28,69882,5,0,3:2:0:0:
387,166,70182,2,0,B|339:207|249:213|261:118|172:124|124:166,1,285.000010871888,0|0,1:0|1:0,0:0:0:0:
84,235,70932,1,4,0:3:0:0:
47,304,71082,1,0,3:0:0:0:
115,341,71232,1,4,0:3:0:0:
183,378,71382,2,0,P|245:373|291:305,1,142.500005435944,0|4,1:0|0:3,0:0:0:0:
256,241,71832,1,0,0:0:0:0:
222,170,71982,1,0,1:0:0:0:
445,37,72282,6,0,B|439:123|439:123|425:137|425:137|418:242,1,190,4|0,3:2|1:0,0:0:0:0:
67,37,72882,2,0,B|73:123|73:123|87:137|87:137|94:242,1,190,2|0,3:2|1:0,0:0:0:0:
476,288,73482,2,0,P|387:303|331:233,1,190,2|0,3:2|1:0,0:0:0:0:
181,233,73932,2,0,P|124:303|35:288,1,190,4|4,0:3|0:3,0:0:0:0:
92,220,74382,1,0,1:0:0:0:
149,152,74532,1,0,1:0:0:0:
205,83,74682,6,0,B|291:77|291:77|305:63|305:63|410:56,1,190,4|0,3:2|1:0,0:0:0:0:
307,301,75282,2,0,B|221:307|221:307|207:321|207:321|102:328,1,190,2|0,3:2|1:0,0:0:0:0:
43,60,75882,1,2,3:2:0:0:
25,144,76032,1,4,0:3:0:0:
78,212,76182,1,0,1:0:0:0:
164,205,76332,2,0,B|248:200|248:200|262:186|262:186|348:180,1,190,4|4,0:3|0:3,0:0:0:0:
434,172,76782,1,0,1:0:0:0:
220,45,77082,6,0,P|147:40|117:140,1,190,4|0,3:2|1:0,0:0:0:0:
292,339,77682,2,0,P|365:344|395:244,1,190,2|0,3:2|1:0,0:0:0:0:
192,120,78282,2,0,L|319:262,1,190,2|0,3:2|1:0,0:0:0:0:
327,128,78732,2,0,P|343:41|431:36,1,190,4|4,0:3|0:3,0:0:0:0:
432,144,79182,1,0,1:0:0:0:
192,263,79482,6,0,P|175:349|87:354,1,190,4|0,3:2|1:0,0:0:0:0:
87,29,80082,2,0,P|175:34|192:121,1,190,2|0,3:2|1:0,0:0:0:0:
113,157,80532,1,0,0:0:0:0:
34,192,80682,2,0,L|137:307,1,142.500005435944
200,236,81132,2,0,L|303:351,1,142.500005435944
512,94,81882,6,0,P|466:91|428:64,1,95,4|0,3:1|0:0,0:0:0:0:
355,110,82182,2,0,P|316:84|297:42,1,95,0|0,1:0|0:0,0:0:0:0:
215,41,82482,2,0,P|196:83|157:110,1,95,4|0,3:0|0:0,0:0:0:0:
84,63,82782,2,0,P|46:90|0:94,1,95,0|0,1:0|1:0,0:0:0:0:
0,290,83082,6,0,P|46:293|84:320,1,95,4|0,3:2|0:0,0:0:0:0:
156,273,83382,2,0,P|194:298|213:340,1,95,0|4,1:0|0:3,0:0:0:0:
298,342,83682,2,0,P|317:299|356:273,1,95,0|4,3:0|0:3,0:0:0:0:
427,320,83982,2,0,P|465:293|511:290,1,95,0|0,1:0|1:0,0:0:0:0:
318,170,84282,6,0,B|256:241|256:241|193:170,1,190,4|0,3:2|1:0,0:0:0:0:
146,75,84732,2,0,P|179:55|217:95,1,95,4|0,0:3|3:0,0:0:0:0:
366,75,85032,2,0,P|333:55|295:95,1,95,4|0,0:3|1:0,0:0:0:0:
32,225,85482,5,2,3:2:0:0:
74,320,85632,1,4,0:3:0:0:
177,309,85782,1,0,1:0:0:0:
455,181,86082,1,2,3:2:0:0:
477,282,86232,1,4,0:3:0:0:
387,334,86382,1,0,1:0:0:0:
310,264,86532,1,0,1:0:0:0:
353,169,86682,6,0,L|365:74,1,95,4|0,3:2|0:0,0:0:0:0:
310,264,86982,2,0,L|297:358,1,95,0|0,1:0|0:0,0:0:0:0:
501,263,87282,2,0,L|406:250,1,95,2|4,3:2|0:3,0:0:0:0:
161,169,87582,2,0,L|256:182,1,95,0|0,1:0|0:0,0:0:0:0:
478,119,87882,6,0,P|415:53|326:69,1,190,2|0,3:2|1:0,0:0:0:0:
256,182,88332,1,4,0:3:0:0:
186,69,88482,2,0,P|96:53|33:119,1,190,2|0,3:2|1:0,0:0:0:0:
256,182,89082,6,0,L|350:169,1,95,4|0,3:2|0:0,0:0:0:0:
105,250,89383,2,0,L|11:263,1,95,0|0,1:0|0:0,0:0:0:0:
214,358,89682,2,0,L|202:264,1,95,2|4,3:2|0:3,0:0:0:0:
146,74,89982,2,0,L|159:169,1,95,0|0,1:0|0:0,0:0:0:0:
317,322,90282,5,2,3:2:0:0:
405,288,90432,1,4,0:3:0:0:
333,225,90582,1,0,1:0:0:0:
406,164,90732,1,0,1:0:0:0:
317,127,90882,1,4,0:3:0:0:
366,46,91032,1,4,1:2:0:0:
271,45,91182,1,4,0:3:0:0:
222,130,91332,1,0,1:0:0:0:
132,296,91482,6,0,P|81:303|14:198,1,190,4|0,3:1|1:0,0:0:0:0:
38,109,91932,2,0,L|68:17,1,95,0|0,0:0|3:0,0:0:0:0:
146,74,92232,1,4,0:3:0:0:
222,130,92382,2,0,L|192:220,1,95,0|0,1:0|1:0,0:0:0:0:
380,297,92682,6,0,P|431:304|498:199,1,190,4|0,3:2|1:0,0:0:0:0:
474,109,93132,2,0,L|444:17,1,95,4|0,0:3|3:0,0:0:0:0:
366,74,93432,1,4,0:3:0:0:
290,130,93582,2,0,L|319:220,1,95,0|0,1:0|1:0,0:0:0:0:
165,310,93882,6,0,B|86:362|86:362|44:277,1,190,4|0,3:2|1:0,0:0:0:0:
23,173,94332,2,0,P|60:162|86:210,1,95,4|0,0:3|3:0,0:0:0:0:
235,230,94632,2,0,P|208:202|161:230,1,95,4|0,0:3|1:0,0:0:0:0:
467,277,95082,5,4,3:2:0:0:
428,374,95232,1,4,0:3:0:0:
346,309,95382,1,0,1:0:0:0:
489,173,95682,2,0,P|451:162|425:210,1,95,0|4,3:0|3:3,0:0:0:0:
277,230,95982,2,0,P|303:202|350:230,1,95,0|0,1:0|1:0,0:0:0:0:
356,101,96282,6,0,L|333:8,1,95,4|0,3:2|0:0,0:0:0:0:
179,8,96582,2,0,L|156:101,1,95,0|0,1:0|0:0,0:0:0:0:
362,278,96882,2,0,P|385:238|386:191,1,95,2|4,3:2|0:3,0:0:0:0:
149,278,97182,2,0,P|126:238|125:191,1,95,0|0,1:0|0:0,0:0:0:0:
293,56,97482,6,0,B|304:96|283:152|228:118|206:174|218:214,1,190,2|0,3:2|1:0,0:0:0:0:
256,342,97932,1,4,0:3:0:0:
293,214,98082,2,0,B|305:174|283:118|228:152|207:96|219:56,1,190,2|0,3:2|1:0,0:0:0:0:
423,19,98682,6,0,L|372:100,1,95,4|0,3:2|0:0,0:0:0:0:
89,19,98982,2,0,L|140:100,1,95,0|0,1:0|0:0,0:0:0:0:
386,198,99282,2,0,L|335:279,1,95,2|4,3:2|0:3,0:0:0:0:
177,279,99582,2,0,L|126:198,1,95,0|0,1:0|0:0,0:0:0:0:
256,40,99882,5,2,3:2:0:0:
343,61,100032,1,4,0:3:0:0:
366,148,100182,1,0,1:0:0:0:
298,207,100332,1,0,1:0:0:0:
214,177,100482,1,4,0:3:0:0:
146,236,100632,1,4,1:2:0:0:
169,323,100782,1,4,0:3:0:0:
256,344,100932,1,0,1:0:0:0:
322,289,101082,6,0,P|388:283|454:322,1,142.500005435944,4|0,0:3|0:0,0:0:0:0:
495,254,101532,1,4,0:3:0:0:
455,186,101682,2,0,L|445:115,1,71.2500027179719,0|0,1:0|0:0,0:0:0:0:
466,39,101982,1,4,0:3:0:0:
369,163,102282,1,4,0:3:0:0:
246,65,102582,2,0,L|173:70,1,71.2500027179719,0|4,0:0|0:3,0:0:0:0:
142,141,102882,2,0,L|-4:127,1,142.500005435944,0|4,1:0|0:3,0:0:0:0:
101,315,103482,5,4,0:3:0:0:
137,308,103632,1,0,3:0:0:0:
173,301,103782,1,4,0:3:0:0:
326,333,104082,1,0,1:0:0:0:
402,316,104232,1,0,1:0:0:0:
409,238,104382,1,4,0:3:0:0:
336,207,104532,1,0,1:0:0:0:
283,266,104682,1,4,0:3:0:0:
192,144,104982,2,0,L|181:48,1,95,0|4,0:0|0:3,0:0:0:0:
253,24,105282,2,0,P|322:26|334:150,1,190,4|4,1:0|0:3,0:0:0:0:
176,255,105882,6,0,P|121:250|43:294,1,142.500005435944,4|0,0:3|0:0,0:0:0:0:
1,225,106332,1,4,0:3:0:0:
45,160,106482,2,0,L|36:86,1,71.2500027179719,0|0,1:0|0:0,0:0:0:0:
74,21,106782,1,4,0:3:0:0:
191,113,107082,2,0,L|174:265,1,142.500005435944,4|0,0:3|0:0,0:0:0:0:
211,324,107532,1,4,0:3:0:0:
276,280,107682,2,0,P|331:275|409:319,1,142.500005435944,0|4,1:0|0:3,0:0:0:0:
465,263,108132,1,0,0:0:0:0:
438,189,108282,5,4,0:3:0:0:
475,36,108582,1,4,0:3:0:0:
323,76,108882,1,0,1:0:0:0:
294,147,109032,1,0,1:0:0:0:
229,188,109182,1,4,0:3:0:0:
152,184,109332,1,0,1:0:0:0:
92,135,109482,1,4,0:3:0:0:
72,61,109632,2,0,L|78:8,2,47.5
19,115,109932,1,4,0:3:0:0:
38,188,110082,2,0,P|29:257|136:301,1,190,4|4,1:0|0:3,0:0:0:0:
299,227,110682,6,0,P|302:281|361:354,1,142.500005435944,4|0,0:3|0:0,0:0:0:0:
431,359,111132,1,4,0:3:0:0:
469,290,111282,2,0,L|459:216,1,71.2500027179719,0|0,1:0|0:0,0:0:0:0:
497,150,111582,1,4,0:3:0:0:
355,81,111882,1,4,0:3:0:0:
299,227,112182,2,0,L|220:234,1,71.2500027179719,0|4,0:0|0:3,0:0:0:0:
184,298,112482,2,0,L|31:281,1,142.500005435944,0|4,1:0|0:3,0:0:0:0:
139,91,113082,5,4,0:3:0:0:
175,84,113232,1,0,3:0:0:0:
211,77,113382,1,4,0:3:0:0:
345,157,113682,1,0,1:0:0:0:
421,137,113832,1,0,1:0:0:0:
401,212,113982,1,4,0:3:0:0:
477,192,114132,1,0,1:0:0:0:
459,265,114282,2,0,P|437:313|310:308,1,190,4|0,0:3|0:0,0:0:0:0:
256,264,114732,1,4,0:3:0:0:
196,313,114882,2,0,P|109:335|53:265,1,190,4|4,1:0|0:3,0:0:0:0:
203,117,115482,6,0,P|271:139|351:123,1,142.500005435944,4|0,0:3|0:0,0:0:0:0:
378,60,115932,1,4,0:3:0:0:
419,126,116082,2,0,L|411:201,1,71.2500027179719,0|0,1:0|0:0,0:0:0:0:
452,263,116382,1,4,0:3:0:0:
328,359,116682,1,4,0:3:0:0:
204,262,116982,2,0,L|133:269,1,71.2500027179719,0|4,0:0|0:3,0:0:0:0:
68,313,117282,2,0,P|38:282|34:186,1,142.500005435944,0|4,1:0|0:3,0:0:0:0:
256,192,117882,12,0,120282,0:0:0:0:
75,242,129882,6,0,B|61:220|24:222|-2:250|-3:291|18:323|56:342|105:324|136:364|136:364|144:314|195:304|219:269|221:231|199:196|163:185|130:202|129:227,1,498.750019025803
79,153,131082,2,0,B|43:144|6:158|6:158|-23:111|-14:41|58:-2|125:21|153:75|151:122|151:122|185:119|213:134|213:134|213:73,1,498.750019025803
299,75,132282,2,0,B|299:134|299:134|327:119|361:122|361:122|359:75|387:21|454:-2|526:41|535:111|506:158|506:158|469:144|433:153,1,498.750019025803
383,227,133482,2,0,B|382:202|349:185|313:196|291:231|293:269|317:304|368:314|376:364|376:364|407:324|456:342|494:323|515:291|514:250|488:222|451:220|437:242,1,498.750019025803
433,153,134682,5,0,0:0:0:0:
327,57,134982,1,0,0:0:0:0:
185,57,135282,1,0,0:0:0:0:
79,153,135582,1,0,0:0:0:0:
148,276,135882,2,0,P|236:352|364:276,1,285.000010871888
256,236,137082,5,0,0:0:0:0:
256,92,137382,1,0,0:0:0:0:
379,165,137682,1,0,0:0:0:0:
328,31,137982,1,0,0:0:0:0:
184,31,138282,2,0,P|163:75|200:168,1,142.500005435944
296,324,138882,6,0,L|216:324,3,79.1666666666667
31,97,139482,22,0,P|50:54|88:27,1,95,4|0,3:1|0:0,0:0:0:0:
255,47,139782,2,0,P|208:44|167:65,1,95,0|0,1:0|0:0,0:0:0:0:
291,129,140082,2,0,P|337:140|371:173,1,95,4|0,3:0|0:3,0:0:0:0:
379,339,140382,2,0,P|373:293|345:256,1,95,0|0,1:0|1:0,0:0:0:0:
165,256,140682,6,0,P|136:294|133:341,1,95,4|0,3:2|0:0,0:0:0:0:
140,172,140982,2,0,P|174:139|220:129,1,95,0|4,1:0|0:3,0:0:0:0:
343,64,141283,2,0,P|301:43|255:48,1,95,0|4,3:0|0:3,0:0:0:0:
423,25,141582,2,0,P|461:54|480:97,1,95,0|0,1:0|1:0,0:0:0:0:
211,168,141882,6,0,B|191:132|143:144|123:184|151:216|151:216|188:259,1,190,4|0,0:2|1:0,0:0:0:0:
255,336,142332,1,4,0:3:0:0:
299,168,142483,2,0,B|319:132|367:144|387:184|359:216|359:216|321:259,1,190,0|0,3:0|1:0,0:0:0:0:
129,82,143082,5,4,0:0:0:0:
63,164,143232,1,4,0:3:0:0:
92,265,143382,1,0,1:0:0:0:
383,82,143682,1,0,3:0:0:0:
449,164,143832,1,4,0:3:0:0:
420,265,143982,1,0,1:0:0:0:
161,322,144282,6,0,L|218:244,1,95,4|0,3:2|0:0,0:0:0:0:
407,143,144582,2,0,L|316:172,1,95,0|0,1:0|0:0,0:0:0:0:
104,143,144882,2,0,L|196:172,1,95,2|4,3:2|0:3,0:0:0:0:
350,322,145183,2,0,L|293:244,1,95,0|0,1:2|0:0,0:0:0:0:
180,72,145482,6,0,P|256:24|332:72,1,190,2|0,3:2|1:0,0:0:0:0:
256,192,145932,1,4,0:3:0:0:
179,312,146082,2,0,P|255:360|332:312,1,190,2|0,3:2|1:0,0:0:0:0:
82,135,146682,6,0,L|173:165,1,95,4|0,3:2|0:0,0:0:0:0:
430,135,146982,2,0,L|338:165,1,95,0|0,1:0|0:0,0:0:0:0:
113,254,147282,2,0,L|204:284,1,95,2|4,3:2|0:3,0:0:0:0:
399,254,147582,2,0,L|307:284,1,95,0|0,1:0|0:0,0:0:0:0:
256,40,147882,5,2,3:2:0:0:
343,61,148032,1,4,0:3:0:0:
366,148,148182,1,0,1:0:0:0:
298,207,148332,1,0,1:0:0:0:
214,177,148482,1,4,0:3:0:0:
146,236,148632,1,4,1:2:0:0:
169,323,148782,1,4,0:3:0:0:
256,344,148932,1,0,1:0:0:0:
403,338,149082,6,0,B|431:306|435:246|371:254|375:194|403:162,1,190,4|0,3:1|1:0,0:0:0:0:
477,103,149532,2,0,P|440:74|383:70,1,95,0|0,0:0|3:0,0:0:0:0:
300,89,149832,1,4,0:3:0:0:
271,180,149982,2,0,P|273:227|299:266,1,95,0|0,1:0|1:0,0:0:0:0:
109,338,150282,6,0,B|81:306|77:246|141:254|137:194|109:162,1,190,4|0,3:2|1:0,0:0:0:0:
35,103,150732,2,0,P|72:74|129:70,1,95,4|0,0:3|3:0,0:0:0:0:
212,89,151032,1,4,0:3:0:0:
240,180,151182,2,0,P|238:227|213:266,1,95,0|0,1:0|1:0,0:0:0:0:
383,73,151482,6,0,B|372:33|323:32|293:65|312:103|312:103|337:154,1,190,4|0,3:2|1:0,0:0:0:0:
468,95,151933,2,0,B|496:65|539:89|548:133|513:156|513:156|465:188,1,190,4|4,0:3|0:3,0:0:0:0:
382,246,152382,1,0,1:0:0:0:
25,219,152682,5,4,3:2:0:0:
7,115,152832,1,4,0:3:0:0:
96,61,152982,1,0,1:0:0:0:
150,308,153282,1,0,3:0:0:0:
239,365,153432,1,4,0:3:0:0:
306,284,153582,1,0,1:0:0:0:
256,192,153732,1,0,1:0:0:0:
206,101,153882,6,0,P|193:55|205:10,1,95,4|0,3:2|0:0,0:0:0:0:
392,139,154182,2,0,P|404:184|392:229,1,95,0|0,1:0|0:0,0:0:0:0:
120,229,154482,2,0,P|107:184|119:139,1,95,2|4,3:2|0:3,0:0:0:0:
306,10,154782,2,0,P|318:55|305:101,1,95,0|0,1:0|0:0,0:0:0:0:
194,308,155082,6,0,B|195:267|235:221|275:273|315:227|318:185,1,190,4|0,3:2|1:0,0:0:0:0:
449,254,155532,1,4,0:3:0:0:
318,309,155682,2,0,B|276:308|231:268|282:228|236:188|194:185,1,190,2|0,3:2|1:0,0:0:0:0:
63,254,156132,1,4,0:3:0:0:
206,93,156282,6,0,P|219:47|207:2,1,95,4|0,3:2|0:0,0:0:0:0:
408,182,156582,2,0,P|451:203|497:199,1,95,0|0,1:0|0:0,0:0:0:0:
327,91,156882,2,0,P|370:72|397:34,1,95,2|4,3:2|0:3,0:0:0:0:
388,303,157182,2,0,P|399:350|432:383,1,95,0|0,1:0|0:0,0:0:0:0:
286,224,157482,5,2,3:2:0:0:
265,323,157632,1,4,0:3:0:0:
166,302,157782,1,0,1:0:0:0:
187,203,157932,1,0,1:0:0:0:
203,370,158082,5,4,0:3:0:0:
89,308,158232,1,4,1:2:0:0:
49,190,158382,1,4,0:3:0:0:
102,78,158532,1,4,1:2:0:0:
256,36,158682,5,4,3:1:0:0:
