osu file format v14

[General]
AudioFilename: Lonely Hearts Club.mp3
AudioLeadIn: 0
PreviewTime: 33820
Countdown: 0
SampleSet: Soft
StackLeniency: 0.7
Mode: 0
LetterboxInBreaks: 0
WidescreenStoryboard: 1

[Editor]
Bookmarks: 9882,53082,62682,120282,129882,158682
DistanceSpacing: 1
BeatDivisor: 4
GridSize: 4
TimelineZoom: 1.9

[Metadata]
Title:Lonely Hearts Club
TitleUnicode:Lonely Hearts Club
Artist:Marina And The Diamonds
ArtistUnicode:Marina And The Diamonds
Creator:Desperate-kun
Version:Easy
Source:
Tags:Mao Sieg Electra Heart Marina Lambrini Diamandis Μαρίνα Λαμπρινή Διαμαντή Electro Synthie
BeatmapID:1124845
BeatmapSetID:369678

[Difficulty]
HPDrainRate:2
CircleSize:2.6
OverallDifficulty:2
ApproachRate:3
SliderMultiplier:0.9
SliderTickRate:1

[Events]
//Background and Video events
0,0,"bg.jpg",0,0
//Break Periods
2,52982,61242
2,120482,128442
//Storyboard Layer 0 (Background)
//Storyboard Layer 1 (Fail)
//Storyboard Layer 2 (Pass)
//Storyboard Layer 3 (Foreground)
//Storyboard Sound Samples

[TimingPoints]
9882,300,4,2,0,50,1,0
33882,-100,4,2,0,80,0,1
43407,-100,4,2,0,80,0,0
43482,-100,4,2,0,80,0,1
53082,-100,4,2,0,50,0,0
81882,-100,4,2,0,80,0,1
91407,-100,4,2,0,80,0,0
91482,-100,4,2,0,80,0,1
101082,-100,4,2,0,50,0,0
120282,-100,4,2,0,5,0,0
129882,-125,4,2,0,40,0,0
138882,-100,4,2,0,50,0,0
139482,-100,4,2,0,80,0,1
149007,-100,4,2,0,80,0,0
149082,-100,4,2,0,80,0,1
158607,-100,4,2,0,80,0,0
158682,-100,4,2,0,80,0,1
158757,-100,4,2,0,80,0,0

[Colours]
Combo1 : 9,247,20
Combo2 : 252,99,82
Combo3 : 49,104,249
Combo4 : 255,255,0

[HitObjects]
45,208,9882,5,4,3:2:0:0:
63,294,10182,2,0,P|137:340|219:310,1,180,0|0,1:0|1:0,0:0:0:0:
256,227,11082,1,0,3:0:0:0:
293,144,11382,2,0,P|374:113|448:159,1,180,0|0,1:0|1:0,0:0:0:0:
467,246,12282,5,0,3:0:0:0:
420,323,12582,2,0,B|353:340|353:340|312:326|312:326|241:343,1,180,0|0,1:0|1:0,0:0:0:0:
120,213,13782,2,0,B|186:195|186:195|227:209|227:209|298:192,1,180,0|0,1:0|1:0,0:0:0:0:
379,221,14682,5,4,3:2:0:0:
442,156,14982,2,0,P|460:97|387:2,1,180,0|0,1:0|1:0,0:0:0:0:
307,2,15882,1,0,3:0:0:0:
298,91,16182,2,0,P|233:149|147:135,1,180,0|0,1:0|1:0,0:0:0:0:
89,66,17082,5,0,3:0:0:0:
37,139,17382,2,0,L|66:322,1,180,0|0,1:0|1:0,0:0:0:0:
140,365,18282,2,0,P|181:357|217:322,1,90,0|0,3:0|1:0,0:0:0:0:
182,240,18882,2,0,P|205:205|206:155,1,90,0|0,0:0|1:0,0:0:0:0:
154,85,19482,5,4,3:2:0:0:
225,30,19782,2,0,P|291:19|367:101,1,180,0|0,1:0|1:0,0:0:0:0:
341,180,20682,1,0,3:0:0:0:
316,266,20982,2,0,P|370:334|457:330,1,180,0|0,1:0|1:0,0:0:0:0:
504,253,21882,5,0,3:0:0:0:
450,181,22182,2,0,B|383:165|383:165|342:179|342:179|276:161,1,180,0|0,1:0|1:0,0:0:0:0:
179,313,23382,2,0,L|83:331,1,90,0|4,1:0|0:3,0:0:0:0:
28,264,23982,1,0,1:0:0:0:
102,213,24282,5,4,3:2:0:0:
49,139,24582,2,0,P|61:75|164:40,1,180,0|0,1:0|1:0,0:0:0:0:
237,84,25482,1,0,3:0:0:0:
314,129,25782,2,0,L|295:318,1,180,0|0,1:0|1:0,0:0:0:0:
375,350,26682,5,0,3:0:0:0:
445,293,26982,2,0,P|463:208|406:143,1,180,0|0,1:0|1:0,0:0:0:0:
229,108,28182,2,0,P|231:145|257:189,1,90,0|4,1:0|0:3,0:0:0:0:
329,244,28782,1,0,1:0:0:0:
289,325,29082,6,0,L|196:340,1,90,4|0,3:2|1:0,0:0:0:0:
127,286,29682,2,0,L|34:271,1,90,2|0,0:0|1:0,0:0:0:0:
9,186,30282,1,2,3:2:0:0:
66,116,30582,2,0,P|130:101|211:170,1,180,0|0,1:0|1:0,0:0:0:0:
211,260,31482,6,0,P|219:301|251:339,1,90,4|0,3:2|1:0,0:0:0:0:
328,295,32082,2,0,P|362:318|412:322,1,90,2|0,0:0|1:0,0:0:0:0:
474,259,32682,1,0,0:0:0:0:
356,184,33882,6,0,P|256:107|156:184,1,270,4|0,3:1|1:0,0:0:0:0:
156,276,35082,2,0,P|256:352|357:276,1,270,2|0,3:2|1:0,0:0:0:0:
300,204,36282,6,0,B|373:135|373:135|412:97|390:44|330:24|301:68,1,270,4|0,0:2|1:0,0:0:0:0:
213,68,37482,2,0,B|185:23|124:43|102:96|141:134|141:134|214:203,1,270,2|0,0:0|1:0,0:0:0:0:
256,282,38682,5,4,3:2:0:0:
202,353,38982,1,0,1:0:0:0:
113,353,39282,2,0,P|69:337|42:294,1,90,2|0,3:2|1:2,0:0:0:0:
86,222,39882,2,0,B|118:182|90:138|86:138|82:138|54:94|86:54,1,180,2|2,3:2|3:2,0:0:0:0:
256,102,41082,5,4,3:2:0:0:
310,31,41382,1,0,1:0:0:0:
399,31,41682,2,0,P|443:47|470:90,1,90,2|0,3:2|1:0,0:0:0:0:
426,162,42282,2,0,B|394:202|422:246|426:246|430:246|458:290|426:330,1,180,2|4,3:2|0:3,0:0:0:0:
339,355,43182,1,4,0:3:0:0:
262,304,43482,6,0,B|278:256|258:212|214:192|214:192|258:172|278:128|262:80,1,270,4|0,3:1|1:0,0:0:0:0:
170,104,44682,2,0,P|85:192|170:280,1,270,2|0,3:2|1:0,0:0:0:0:
245,234,45882,6,0,B|314:307|314:307|352:346|405:324|425:263|380:235,1,270,4|0,3:2|1:0,0:0:0:0:
381,146,47082,2,0,B|425:117|405:57|352:35|314:74|314:74|245:147,1,270,2|0,3:2|1:0,0:0:0:0:
168,192,48282,5,4,3:2:0:0:
106,126,48582,1,0,1:0:0:0:
32,176,48882,2,0,P|21:211|39:270,1,90,2|0,3:2|1:0,0:0:0:0:
88,333,49482,2,0,B|128:301|172:329|172:333|172:337|216:365|256:333,1,180,2|2,3:2|3:2,0:0:0:0:
344,192,50682,5,4,3:2:0:0:
406,126,50982,1,0,1:0:0:0:
480,176,51282,2,0,P|491:211|473:270,1,90,2|0,3:2|1:0,0:0:0:0:
424,333,51882,2,0,B|384:301|340:329|340:333|340:337|296:365|256:333,1,180,2|4,3:2|0:3,0:0:0:0:
210,254,52782,1,4,0:3:0:0:
293,102,62682,5,4,3:2:0:0:
363,159,62983,2,0,P|388:242|341:316,1,180,0|0,1:0|1:0,0:0:0:0:
256,344,63882,1,0,3:0:0:0:
171,316,64182,2,0,P|123:242|148:159,1,180,0|0,1:0|1:0,0:0:0:0:
237,143,65082,5,0,3:0:0:0:
182,71,65382,2,0,B|113:66|113:66|80:38|80:38|12:33,1,180,0|0,1:0|1:0,0:0:0:0:
2,122,66282,2,0,P|13:166|45:199,1,90,0|0,3:0|1:0,0:0:0:0:
41,287,66882,2,0,P|84:299|129:288,1,90,4|0,0:3|1:0,0:0:0:0:
183,359,67482,5,4,3:2:0:0:
256,307,67782,2,0,P|273:216|206:142,1,180,0|0,1:0|1:0,0:0:0:0:
133,143,68682,1,0,0:0:0:0:
180,66,68982,2,0,L|363:55,1,180,0|0,1:0|1:0,0:0:0:0:
440,16,69882,5,0,3:2:0:0:
483,94,70182,2,0,P|481:138|370:196,1,180,0|0,1:0|1:0,0:0:0:0:
297,148,71082,2,0,L|200:156,1,90,0|0,3:0|1:0,0:0:0:0:
260,241,71682,2,0,L|197:315,1,90,4|0,0:3|1:0,0:0:0:0:
299,332,72282,6,0,P|338:340|395:316,1,90,4|0,3:2|1:0,0:0:0:0:
452,265,72882,2,0,P|466:227|452:167,1,90,2|0,3:2|1:0,0:0:0:0:
404,108,73482,1,2,3:2:0:0:
331,160,73782,2,0,B|262:165|262:165|229:193|229:193|161:198,1,180,0|0,1:0|1:0,0:0:0:0:
74,173,74682,6,0,P|42:148|24:89,1,90,4|0,3:2|1:0,0:0:0:0:
66,22,75282,2,0,P|109:14|151:29,1,90,2|0,3:2|1:0,0:0:0:0:
202,104,75882,1,2,3:2:0:0:
164,186,76182,2,0,P|166:255|253:321,1,180,0|0,1:0|1:0,0:0:0:0:
337,315,77082,6,0,P|379:317|418:349,1,90,4|0,3:2|1:0,0:0:0:0:
490,295,77682,2,0,L|485:194,1,90,2|0,3:2|1:0,0:0:0:0:
436,129,78282,1,2,3:2:0:0:
364,184,78582,2,0,P|290:195|218:117,1,180,0|0,1:0|1:0,0:0:0:0:
202,37,79482,6,0,L|111:32,1,90,4|0,3:2|1:0,0:0:0:0:
81,119,80082,2,0,P|41:121|-2:152,1,90,2|0,3:2|1:0,0:0:0:0:
69,213,80682,1,0,0:0:0:0:
236,98,81882,6,0,P|351:47|430:144,1,270,4|0,3:1|1:0,0:0:0:0:
430,239,83082,2,0,P|351:336|236:285,1,270,2|0,3:2|1:0,0:0:0:0:
256,197,84282,6,0,B|308:111|308:111|336:64|301:19|238:15|221:65,1,270,4|0,3:2|1:0,0:0:0:0:
137,88,85482,2,0,B|98:51|44:86|37:143|84:170|84:170|172:218,1,270,2|0,3:2|1:0,0:0:0:0:
256,197,86682,5,4,3:2:0:0:
303,273,86982,1,0,1:0:0:0:
248,344,87282,2,0,L|146:369,1,90,2|0,3:2|1:0,0:0:0:0:
78,328,87882,2,0,B|110:288|82:244|78:244|74:244|46:200|78:160,1,180,2|2,3:2|3:2,0:0:0:0:
256,187,89082,5,4,3:2:0:0:
209,111,89382,1,0,1:0:0:0:
264,40,89682,2,0,L|366:15,1,90,2|0,3:2|1:0,0:0:0:0:
434,56,90282,2,0,B|402:96|430:140|434:140|438:140|466:184|434:224,1,180,2|4,3:2|0:3,0:0:0:0:
275,98,91482,6,0,P|160:47|81:144,1,270,4|0,3:1|1:0,0:0:0:0:
81,238,92682,2,0,P|161:335|275:284,1,270,2|0,3:2|1:0,0:0:0:0:
255,196,93882,6,0,B|202:111|202:111|175:64|210:18|273:15|289:65,1,270,4|0,3:2|1:0,0:0:0:0:
374,87,95082,2,0,B|413:51|467:86|474:143|427:170|427:170|338:217,1,270,2|0,3:2|1:0,0:0:0:0:
256,197,96282,5,4,3:2:0:0:
209,119,96582,1,0,1:0:0:0:
124,89,96882,2,0,L|75:7,1,90,2|0,3:2|1:0,0:0:0:0:
8,68,97482,2,0,P|7:128|97:204,1,180,2|2,3:2|3:2,0:0:0:0:
256,197,98682,5,4,3:2:0:0:
303,119,98982,1,0,1:0:0:0:
388,89,99282,2,0,L|437:7,1,90,2|0,3:2|1:0,0:0:0:0:
504,68,99882,2,0,P|505:128|415:204,1,180,2|4,3:2|0:3,0:0:0:0:
339,241,100782,1,4,0:3:0:0:
323,329,101082,6,0,P|244:333|154:381,1,180,4|0,0:3|1:0,0:0:0:0:
85,323,101982,2,0,P|44:341|0:345,1,90,4|4,0:3|0:3,0:0:0:0:
0,175,102882,1,0,1:0:0:0:
136,72,103482,2,0,P|256:125|376:72,1,270,4|4,0:3|0:3,0:0:0:0:
459,38,104682,5,4,0:3:0:0:
256,20,105282,1,4,1:0:0:0:
342,205,105882,2,0,P|325:277|256:356,1,180,4|0,0:3|1:0,0:0:0:0:
197,289,106782,2,0,P|190:244|170:205,1,90,4|4,0:3|0:3,0:0:0:0:
15,297,107682,1,0,1:0:0:0:
50,104,108282,2,0,B|110:55|177:97|177:104|177:110|243:152|304:104,1,270,4|4,0:3|0:3,0:0:0:0:
354,30,109482,5,4,0:3:0:0:
480,192,110082,1,4,1:0:0:0:
354,354,110682,2,0,P|272:312|171:309,1,180,4|0,0:3|1:0,0:0:0:0:
100,335,111582,1,4,0:3:0:0:
38,269,111882,1,4,0:3:0:0:
146,125,112482,1,0,1:0:0:0:
292,229,113082,2,0,P|407:177|440:43,1,270,4|4,0:3|0:3,0:0:0:0:
361,4,114282,5,4,0:3:0:0:
151,4,114882,1,4,1:0:0:0:
296,110,115482,2,0,P|232:172|145:186,1,180,4|0,0:3|1:0,0:0:0:0:
55,180,116382,1,4,0:3:0:0:
17,262,116682,1,4,0:3:0:0:
167,361,117282,1,0,1:0:0:0:
256,192,117882,12,0,120282,0:0:0:0:
473,245,129882,54,0,P|400:318|300:293,1,216
300,204,131082,2,0,B|359:148|359:148|390:118|373:75|325:59|301:94,1,216
212,94,132282,2,0,B|188:59|140:75|123:118|154:148|154:148|212:204,1,216,0|0,0:0|0:0,0:0:0:0:
212,293,133482,2,0,P|170:318|37:235,1,216,0|0,0:0|0:0,0:0:0:0:
40,155,134682,6,0,P|53:100|129:41,1,144,0|0,0:0|0:0,0:0:0:0:
203,72,135582,1,0,0:0:0:0:
287,102,135882,2,0,P|358:93|410:44,1,144,0|0,0:0|0:0,0:0:0:0:
472,229,137082,6,0,P|459:284|383:343,1,144,0|0,0:0|0:0,0:0:0:0:
309,312,137982,1,0,0:0:0:0:
225,282,138282,2,0,P|155:290|103:339,1,144,0|0,0:0|0:0,0:0:0:0:
156,184,139482,38,0,P|256:107|356:184,1,270,4|0,3:1|1:0,0:0:0:0:
356,276,140682,2,0,P|256:352|155:276,1,270,2|0,3:2|1:0,0:0:0:0:
212,204,141882,6,0,B|139:135|139:135|100:97|122:44|182:24|211:68,1,270,4|0,0:2|1:0,0:0:0:0:
299,68,143082,2,0,B|327:23|388:43|410:96|371:134|371:134|298:203,1,270,2|0,0:0|1:0,0:0:0:0:
256,282,144282,5,4,3:2:0:0:
310,353,144582,1,0,1:0:0:0:
399,353,144882,2,0,P|443:337|470:294,1,90,2|0,3:2|1:2,0:0:0:0:
426,222,145482,2,0,B|394:182|422:138|426:138|430:138|458:94|426:54,1,180,2|2,3:2|3:2,0:0:0:0:
256,102,146682,5,4,3:2:0:0:
202,31,146982,1,0,1:0:0:0:
113,31,147282,2,0,P|69:47|42:90,1,90,2|0,3:2|1:0,0:0:0:0:
86,162,147882,2,0,B|118:202|90:246|86:246|82:246|54:290|86:330,1,180,2|4,3:2|0:3,0:0:0:0:
173,355,148782,1,4,0:3:0:0:
250,304,149082,6,0,B|234:256|254:212|298:192|298:192|254:172|234:128|250:80,1,270,4|0,3:1|1:0,0:0:0:0:
342,104,150282,2,0,P|427:192|342:280,1,270,2|0,3:2|1:0,0:0:0:0:
267,234,151482,6,0,B|198:307|198:307|160:346|107:324|87:263|132:235,1,270,4|0,3:2|1:0,0:0:0:0:
131,146,152682,2,0,B|87:117|107:57|160:35|198:74|198:74|267:147,1,270,2|0,3:2|1:0,0:0:0:0:
344,192,153882,5,4,3:2:0:0:
406,126,154182,1,0,1:0:0:0:
480,176,154482,2,0,P|491:211|473:270,1,90,2|0,3:2|1:0,0:0:0:0:
424,333,155082,2,0,B|384:301|340:329|340:333|340:337|296:365|256:333,1,180,2|2,3:2|3:2,0:0:0:0:
168,192,156282,5,4,3:2:0:0:
106,126,156582,1,0,1:0:0:0:
32,176,156882,2,0,P|21:211|39:270,1,90,2|0,3:2|1:0,0:0:0:0:
88,333,157482,2,0,B|128:301|172:329|172:333|172:337|216:365|256:333,1,180,2|4,3:2|0:3,0:0:0:0:
301,254,158382,1,4,0:3:0:0:
211,254,158682,1,4,3:1:0:0:
