osu file format v14

[General]
AudioFilename: audio.mp3
AudioLeadIn: 0
PreviewTime: 244636
Countdown: 0
SampleSet: Soft
StackLeniency: 0.7
Mode: 0
LetterboxInBreaks: 0
WidescreenStoryboard: 0

[Editor]
DistanceSpacing: 2.1
BeatDivisor: 4
GridSize: 32
TimelineZoom: 2.5

[Metadata]
Title:Towa Yori Towa Ni
TitleUnicode:永久より永遠に
Artist:marina
ArtistUnicode:marina
Creator:Twiggykun
Version:Forever...
Source:少女神域∽少女天獄 -The Garden of Fifth Zoa-
Tags:shoujo shiniki tengoku eikyuu yori eien ni eroge visual novel full ver.
BeatmapID:1783732
BeatmapSetID:853471

[Difficulty]
HPDrainRate:5
CircleSize:4
OverallDifficulty:8.8
ApproachRate:9.5
SliderMultiplier:1.9
SliderTickRate:1

[Events]
//Background and Video events
0,0,"bg.jpg",0,0
//Break Periods
2,85832,90507
2,201636,206311
2,229685,234361
//Storyboard Layer 0 (Background)
//Storyboard Layer 1 (Fail)
//Storyboard Layer 2 (Pass)
//Storyboard Layer 3 (Foreground)
//Storyboard Sound Samples

[TimingPoints]
12436,300,4,2,0,50,1,0
12436,-100,4,2,0,50,0,0
14686,300,4,2,0,50,1,0
22636,-83.3333333333333,4,2,0,50,0,0
23086,-90.9090909090909,4,2,0,50,0,0
28032,300,4,2,0,50,1,0
35236,-100,4,2,0,50,0,0
36436,-76.9230769230769,4,2,0,50,0,0
37036,-100,4,2,0,50,0,0
37336,-125,4,2,0,50,0,0
56832,-100,4,2,0,50,0,0
65236,-83.3333333333333,4,2,0,50,0,0
74832,-100,4,2,0,50,0,0
76036,-83.3333333333333,4,2,0,50,0,0
98236,300,4,2,0,50,1,0
98236,-90.9090909090909,4,2,0,50,0,1
112336,-83.3333333333333,4,2,0,50,0,0
116236,-100,4,2,0,50,0,0
116836,-83.3333333333333,4,2,0,50,0,0
117436,-100,4,2,0,50,0,0
125836,-90.9090909090909,4,2,0,50,0,0
127036,-90.9090909090909,4,2,0,50,0,0
136636,-90.9090909090909,4,2,0,50,0,1
140986,-111.111111111111,4,2,0,50,0,1
141436,-90.9090909090909,4,2,0,50,0,0
143836,-83.3333333333333,4,2,0,50,0,0
144886,300,4,2,0,50,1,0
148636,300,4,2,0,50,1,0
149686,300,4,2,0,50,1,0
153436,300,4,2,0,50,1,0
170236,-83.3333333333333,4,2,0,50,0,0
191386,-100,4,2,0,50,0,0
196036,-90.9090909090909,4,2,0,50,0,0
214036,300,4,2,0,50,1,0
214036,-83.3333333333333,4,2,0,50,0,0
218536,-76.9230769230769,4,2,0,50,0,0
219136,-71.4285714285714,4,2,0,50,0,0
220036,-66.6666666666667,4,2,0,50,0,0
220336,-83.3333333333333,4,2,0,50,0,0
220636,-90.9090909090909,4,2,0,50,0,0
221236,-83.3333333333333,4,2,0,50,0,0
227086,300,4,2,0,50,1,0
227086,-83.3333333333333,4,2,0,50,0,0
227986,-105.263157894737,4,2,0,50,0,0
234886,-83.3333333333333,4,2,0,50,0,0
245686,300,4,2,0,50,1,0
251686,-90.9090909090909,4,2,0,50,0,0
263986,-133.333333333333,4,2,0,50,0,0
264286,-76.9230769230769,4,2,0,50,0,0
264886,-90.9090909090909,4,2,0,50,0,0
268936,-90.9090909090909,4,2,0,50,0,0
274186,-83.3333333333333,4,2,0,50,0,0
279286,-83.3333333333333,4,2,0,50,0,0
283486,-76.9230769230769,4,2,0,50,0,0
291286,-100,4,2,0,50,0,0
292336,300,4,2,0,50,1,0
300736,-90.9090909090909,4,2,0,50,0,0
305686,300,4,2,0,50,1,0
306736,300,4,2,0,50,1,0
310036,-76.9230769230769,4,2,0,50,0,0
310486,-181.818181818181,4,2,0,50,0,0

[Colours]
Combo1 : 145,81,108
Combo2 : 124,121,234
Combo3 : 17,208,166
Combo4 : 34,31,54

[HitObjects]
272,44,12436,5,0,0:0:0:0:
272,44,12511,1,0,0:0:0:0:
272,44,12586,1,0,0:0:0:0:
252,210,12736,1,0,0:0:0:0:
151,110,12886,5,0,0:0:0:0:
151,110,12961,1,0,0:0:0:0:
151,110,13036,1,0,0:0:0:0:
131,276,13186,1,0,0:0:0:0:
0,169,13336,5,0,0:0:0:0:
107,354,13486,1,0,0:0:0:0:
184,112,13636,6,0,P|234:57|332:45,1,142.5
362,60,13936,2,0,P|425:73|474:62,1,95
409,268,14236,2,0,P|370:226|364:181,1,95
382,60,14536,1,0,0:0:0:0:
283,268,14686,6,0,P|220:333|106:334,1,190
41,196,15136,2,0,P|74:233|83:277,1,95
185,165,15436,2,0,P|236:130|278:126,1,95
410,160,15736,1,0,0:0:0:0:
214,84,15886,6,0,B|142:63|98:137|-4:85,1,190
106,181,16336,2,0,P|124:231|116:286,1,95
257,357,16636,2,0,P|239:307|247:252,1,95
312,144,16936,1,0,0:0:0:0:
119,279,17086,6,0,P|34:253|19:138,1,190
195,111,17536,2,0,L|298:97,1,95
406,254,17836,1,0,0:0:0:0:
365,277,17911,1,0,0:0:0:0:
318,280,17986,1,0,0:0:0:0:
274,262,18061,1,0,0:0:0:0:
243,226,18136,1,0,0:0:0:0:
231,181,18211,1,0,0:0:0:0:
241,135,18286,1,0,0:0:0:0:
270,98,18361,1,0,0:0:0:0:
314,79,18436,6,0,B|419:60|419:60|515:91,1,190
410,187,18886,1,0,0:0:0:0:
279,117,19036,2,0,P|213:104|152:124,1,95
76,227,19336,1,0,0:0:0:0:
218,307,19486,6,0,P|303:331|416:286,1,190
499,195,19936,2,0,P|494:258|518:309,1,95
390,165,20236,2,0,P|395:102|371:51,1,95
269,17,20536,1,0,0:0:0:0:
168,151,20686,6,0,P|152:224|218:341,1,190
37,288,21136,2,0,P|64:228|69:182,1,95
204,376,21436,2,0,P|177:316|172:270,1,95
231,162,21736,1,0,0:0:0:0:
350,344,21886,6,0,P|361:278|446:196,1,142.5
446,199,22186,1,0,0:0:0:0:
182,274,22336,2,0,P|101:276|33:218,1,142.5
18,173,22636,1,0,0:0:0:0:
23,117,22711,1,0,0:0:0:0:
59,73,22786,1,0,0:0:0:0:
112,56,22861,1,0,0:0:0:0:
166,70,22936,1,0,0:0:0:0:
204,112,23011,1,0,0:0:0:0:
212,168,23086,6,0,P|213:238|309:341,1,209.000006378174
169,255,23536,2,0,P|105:238|37:251,1,104.500003189087
241,331,23836,1,0,0:0:0:0:
98,133,23986,1,0,0:0:0:0:
28,342,24136,1,0,0:0:0:0:
190,177,24286,6,0,P|281:141|407:165,1,209.000006378174
467,341,24736,2,0,P|425:289|418:230,1,104.500003189087
437,85,25036,1,0,0:0:0:0:
312,311,25186,1,0,0:0:0:0:
463,237,25336,1,0,0:0:0:0:
198,179,25486,6,0,B|99:157|93:266|-22:236,1,209.000006378174
177,268,25936,2,0,P|226:293|266:348,1,104.500003189087
198,179,26236,1,0,0:0:0:0:
139,359,26386,1,0,0:0:0:0:
66,110,26536,1,0,0:0:0:0:
282,246,26686,6,0,P|351:245|425:131,1,209.000006378174
425,111,27061,1,0,0:0:0:0:
423,79,27136,2,0,P|434:41|452:21,1,52.2500015945435
331,95,27286,2,0,P|320:133|302:153,1,52.2500015945435
269,169,27436,1,0,0:0:0:0:
217,173,27511,1,0,0:0:0:0:
171,151,27586,1,0,0:0:0:0:
124,130,27661,1,0,0:0:0:0:
74,141,27736,1,0,0:0:0:0:
42,182,27811,1,0,0:0:0:0:
42,233,27886,1,0,0:0:0:0:
74,273,27961,1,0,0:0:0:0:
124,285,28032,6,0,B|200:300|200:300|223:297|223:297|282:307,1,142.5
330,318,28332,2,0,L|429:333,1,95
331,167,28632,1,0,0:0:0:0:
216,358,28782,1,0,0:0:0:0:
182,70,28932,1,0,0:0:0:0:
308,267,29082,6,0,P|374:262|433:147,1,190
361,86,29532,1,0,0:0:0:0:
364,323,29682,1,0,0:0:0:0:
236,131,29832,1,0,0:0:0:0:
131,335,29982,1,0,0:0:0:0:
367,169,30132,1,0,0:0:0:0:
69,74,30282,6,0,L|113:261,1,190
193,85,30732,1,0,0:0:0:0:
0,225,30882,1,0,0:0:0:0:
291,280,31032,1,0,0:0:0:0:
74,121,31182,1,2,0:0:0:0:
197,361,31332,1,0,0:0:0:0:
267,117,31482,6,0,P|306:73|449:67,1,190
430,57,31857,1,0,0:0:0:0:
430,57,31932,1,0,0:0:0:0:
401,245,32082,1,0,0:0:0:0:
369,210,32157,1,0,0:0:0:0:
325,191,32232,1,0,0:0:0:0:
278,193,32307,1,0,0:0:0:0:
236,213,32382,1,0,0:0:0:0:
195,237,32457,1,0,0:0:0:0:
148,239,32532,1,0,0:0:0:0:
106,219,32607,1,0,0:0:0:0:
77,182,32682,1,0,0:0:0:0:
69,136,32757,1,0,0:0:0:0:
83,91,32832,6,0,P|200:60|260:120,1,190
247,98,33432,1,0,0:0:0:0:
247,98,33732,1,0,0:0:0:0:
209,300,33882,1,0,0:0:0:0:
386,243,34032,5,0,0:0:0:0:
209,300,34182,1,0,0:0:0:0:
258,108,34332,1,0,0:0:0:0:
258,108,34632,1,0,0:0:0:0:
133,190,34932,5,0,0:0:0:0:
131,43,35082,1,0,0:0:0:0:
217,221,35232,2,0,L|221:290,3,47.5
249,225,35532,2,0,L|253:294,3,47.5
281,229,35832,2,0,L|285:298,3,47.5
313,233,36132,2,0,L|317:302,3,47.5
323,319,36432,5,0,0:0:0:0:
374,351,36507,1,0,0:0:0:0:
435,350,36582,1,0,0:0:0:0:
486,316,36657,1,0,0:0:0:0:
510,260,36732,1,0,0:0:0:0:
499,200,36807,1,0,0:0:0:0:
458,155,36882,1,0,0:0:0:0:
399,140,36957,1,0,0:0:0:0:
342,159,37032,5,0,0:0:0:0:
306,191,37107,1,0,0:0:0:0:
261,202,37182,1,0,0:0:0:0:
215,191,37257,1,0,0:0:0:0:
180,160,37332,1,0,0:0:0:0:
161,127,37407,1,0,0:0:0:0:
161,90,37482,1,0,0:0:0:0:
178,57,37557,1,0,0:0:0:0:
209,36,37632,5,0,0:0:0:0:
77,284,37932,1,0,0:0:0:0:
77,284,38232,2,0,P|162:277|225:323,1,152
314,374,38682,6,0,P|320:257|367:213,1,152
467,140,39132,1,0,0:0:0:0:
459,328,39432,2,0,P|392:305|333:222,1,152
234,101,40032,6,0,P|155:161|153:236,1,152
183,351,40482,2,0,P|159:300|62:235,1,152
284,319,40932,2,0,P|382:318|260:210,1,380
333,251,41832,2,0,P|385:273|433:273,1,76
368,151,42132,5,0,0:0:0:0:
252,182,42282,1,0,0:0:0:0:
232,300,42432,1,0,0:0:0:0:
126,157,42732,5,0,0:0:0:0:
126,157,43032,2,0,P|125:229|182:299,1,152
301,353,43482,2,0,P|337:261|403:224,1,152
403,32,43932,2,0,P|367:124|301:161,1,152
142,174,44532,1,0,0:0:0:0:
142,174,44832,6,0,L|171:337,1,152
51,233,45282,2,0,L|80:70,1,152
226,179,45732,2,0,P|304:203|426:104,1,228
252,159,46332,2,0,P|270:239|417:295,1,228
296,172,46932,2,0,P|236:227|236:322,1,152
50,338,47532,5,0,0:0:0:0:
50,338,47832,2,0,P|117:288|133:198,1,152
206,77,48282,2,0,P|241:131|225:240,1,152
154,352,48732,1,0,0:0:0:0:
272,266,49032,2,0,B|329:230|382:283|439:245,1,152
176,269,49632,6,0,P|189:315|302:357,1,152
234,173,50082,2,0,P|221:127|108:85,1,152
317,223,50532,2,0,P|377:250|345:80,1,380
201,163,51432,2,0,P|110:178|30:138,1,152
175,48,51882,1,0,0:0:0:0:
261,222,52032,2,0,P|297:255|350:269,1,76
162,92,52332,5,0,0:0:0:0:
180,189,52482,1,0,0:0:0:0:
219,127,52632,5,0,0:0:0:0:
237,224,52782,1,0,0:0:0:0:
311,159,52932,5,0,0:0:0:0:
259,277,53082,1,0,0:0:0:0:
351,206,53232,5,0,0:0:0:0:
299,324,53382,1,0,0:0:0:0:
167,174,53532,1,0,0:0:0:0:
326,268,53682,1,0,0:0:0:0:
105,288,53832,1,0,0:0:0:0:
197,106,53982,1,0,0:0:0:0:
195,331,54132,1,0,0:0:0:0:
8,198,54282,1,0,0:0:0:0:
285,160,54432,5,0,0:0:0:0:
104,361,54582,1,0,0:0:0:0:
135,124,54732,1,0,0:0:0:0:
283,344,54882,1,0,0:0:0:0:
287,57,55032,1,0,0:0:0:0:
178,275,55182,1,0,0:0:0:0:
412,263,55332,1,0,0:0:0:0:
130,210,55482,1,0,0:0:0:0:
308,53,55632,5,0,0:0:0:0:
180,377,55782,1,0,0:0:0:0:
59,188,55932,1,0,0:0:0:0:
414,296,56082,5,0,0:0:0:0:
195,304,56232,1,0,0:0:0:0:
464,68,56382,1,0,0:0:0:0:
357,240,56532,5,0,0:0:0:0:
90,40,56682,1,0,0:0:0:0:
265,89,56832,6,0,P|286:131|276:210,1,95
152,295,57132,1,0,0:0:0:0:
189,152,57282,1,0,0:0:0:0:
331,294,57432,2,0,P|387:312|486:209,1,190
309,178,57882,1,0,0:0:0:0:
203,317,58032,6,0,P|131:348|89:336,1,95
0,175,58332,2,0,P|72:144|114:156,1,95
241,233,58632,1,0,0:0:0:0:
63,244,58782,1,0,0:0:0:0:
218,82,58932,1,0,0:0:0:0:
288,318,59082,1,0,0:0:0:0:
99,146,59232,6,0,L|199:123,1,95
339,98,59532,1,0,0:0:0:0:
173,21,59682,1,0,0:0:0:0:
265,218,59832,2,0,P|262:285|164:361,1,190
11,297,60282,1,0,0:0:0:0:
144,126,60432,5,0,0:0:0:0:
232,314,60582,1,0,0:0:0:0:
51,192,60732,1,0,0:0:0:0:
253,86,60882,1,0,0:0:0:0:
126,288,61032,2,0,L|-2:301,1,95
203,206,61332,2,0,L|331:219,1,95
459,115,61632,6,0,L|331:128,1,95
187,142,61932,1,0,0:0:0:0:
323,23,62082,1,0,0:0:0:0:
256,269,62232,1,0,0:0:0:0:
79,96,62382,1,0,0:0:0:0:
283,119,62532,1,0,0:0:0:0:
147,292,62682,1,0,0:0:0:0:
185,98,62832,6,0,P|216:46|274:21,1,95
380,147,63132,2,0,P|358:189|320:216,1,95
151,261,63432,1,0,0:0:0:0:
278,118,63582,1,0,0:0:0:0:
347,304,63732,1,0,0:0:0:0:
186,163,63882,1,0,0:0:0:0:
391,102,64032,5,0,0:0:0:0:
266,353,64182,1,0,0:0:0:0:
110,120,64332,1,0,0:0:0:0:
417,181,64482,5,0,0:0:0:0:
184,337,64632,1,0,0:0:0:0:
165,56,64782,1,0,0:0:0:0:
401,263,64932,5,0,0:0:0:0:
120,282,65082,1,0,0:0:0:0:
244,29,65232,1,0,0:0:0:0:
301,23,65307,1,0,0:0:0:0:
352,47,65382,1,0,0:0:0:0:
385,93,65457,1,0,0:0:0:0:
389,149,65532,1,0,0:0:0:0:
364,200,65607,1,0,0:0:0:0:
317,230,65682,2,0,P|274:230|239:206,1,56.9999982604981
156,142,65832,5,0,0:0:0:0:
99,135,65907,1,0,0:0:0:0:
48,159,65982,1,0,0:0:0:0:
16,205,66057,1,0,0:0:0:0:
11,261,66132,1,0,0:0:0:0:
36,311,66207,1,0,0:0:0:0:
83,342,66282,2,0,P|122:349|166:327,1,56.9999982604981
239,288,66432,5,0,0:0:0:0:
239,288,66582,1,0,0:0:0:0:
181,129,66732,1,0,0:0:0:0:
181,129,66882,1,0,0:0:0:0:
347,158,67032,1,0,0:0:0:0:
347,158,67182,1,0,0:0:0:0:
138,234,67332,5,0,0:0:0:0:
138,234,67482,1,0,0:0:0:0:
278,68,67632,5,0,0:0:0:0:
278,68,67782,1,0,0:0:0:0:
351,273,67932,1,0,0:0:0:0:
351,273,68082,1,0,0:0:0:0:
161,116,68232,5,0,0:0:0:0:
422,172,68382,1,0,0:0:0:0:
163,201,68532,1,0,0:0:0:0:
404,58,68682,1,0,0:0:0:0:
217,271,68832,5,0,0:0:0:0:
217,271,68982,1,0,0:0:0:0:
343,186,69132,1,0,0:0:0:0:
343,186,69282,1,0,0:0:0:0:
207,118,69432,1,0,0:0:0:0:
207,118,69582,1,0,0:0:0:0:
308,317,69732,5,0,0:0:0:0:
308,317,69882,1,0,0:0:0:0:
338,84,70032,1,0,0:0:0:0:
338,84,70182,1,0,0:0:0:0:
121,174,70332,1,0,0:0:0:0:
121,174,70482,1,0,0:0:0:0:
279,203,70632,5,0,0:0:0:0:
71,331,70782,1,0,0:0:0:0:
43,176,70932,1,0,0:0:0:0:
202,349,71082,1,0,0:0:0:0:
239,118,71232,5,0,0:0:0:0:
272,266,71382,1,0,0:0:0:0:
278,119,71532,1,0,0:0:0:0:
233,264,71682,1,0,0:0:0:0:
311,140,71832,1,0,0:0:0:0:
200,243,71982,1,0,0:0:0:0:
329,175,72132,1,0,0:0:0:0:
182,208,72282,1,0,0:0:0:0:
327,213,72432,5,0,0:0:0:0:
183,168,72582,1,0,0:0:0:0:
307,246,72732,1,0,0:0:0:0:
205,135,72882,1,0,0:0:0:0:
139,286,73032,5,0,0:0:0:0:
66,83,73182,1,0,0:0:0:0:
229,232,73332,1,0,0:0:0:0:
193,44,73482,1,0,0:0:0:0:
98,195,73632,5,0,0:0:0:0:
98,195,73782,1,0,0:0:0:0:
254,194,73932,5,0,0:0:0:0:
254,194,74082,1,0,0:0:0:0:
403,196,74232,1,0,0:0:0:0:
403,196,74382,5,0,0:0:0:0:
434,99,74532,5,0,0:0:0:0:
480,130,74607,1,0,0:0:0:0:
503,182,74682,1,0,0:0:0:0:
495,237,74757,1,0,0:0:0:0:
458,280,74832,6,0,L|247:345,1,190
97,235,75432,2,0,L|207:256,1,95
304,135,75732,2,0,L|191:163,1,95
5,217,76032,5,0,0:0:0:0:
136,33,76182,1,0,0:0:0:0:
166,254,76332,2,0,L|181:376,1,113.999996520996
238,187,76632,2,0,P|179:156|115:171,1,113.999996520996
94,316,76932,2,0,P|153:347|217:332,1,113.999996520996
355,131,77232,5,0,0:0:0:0:
304,357,77382,1,0,0:0:0:0:
248,147,77532,2,0,L|211:26,1,113.999996520996
153,193,77832,2,0,P|197:245|255:253,1,113.999996520996
162,97,78132,2,0,P|94:109|59:155,1,113.999996520996
208,314,78432,5,0,0:0:0:0:
264,73,78582,1,0,0:0:0:0:
91,283,78732,1,0,0:0:0:0:
359,330,78882,1,0,0:0:0:0:
225,180,79032,2,0,L|106:154,1,113.999996520996
247,354,79332,2,0,L|366:328,1,113.999996520996
189,107,79632,5,0,0:0:0:0:
163,323,79782,1,0,0:0:0:0:
400,118,79932,2,0,L|318:28,1,113.999996520996
354,280,80232,2,0,P|436:297|497:263,1,113.999996520996
278,138,80532,2,0,P|196:121|135:155,1,113.999996520996
39,285,80832,5,0,0:0:0:0:
142,34,80982,1,0,0:0:0:0:
220,346,81132,5,0,0:0:0:0:
127,106,81282,1,0,0:0:0:0:
120,346,81432,5,0,0:0:0:0:
265,110,81582,1,0,0:0:0:0:
375,319,81732,5,0,0:0:0:0:
270,41,81882,1,0,0:0:0:0:
197,283,82032,5,0,0:0:0:0:
458,109,82182,1,0,0:0:0:0:
161,133,82332,5,0,0:0:0:0:
444,258,82482,1,0,0:0:0:0:
107,268,82632,5,0,0:0:0:0:
383,170,82782,1,0,0:0:0:0:
13,121,82932,5,0,0:0:0:0:
312,303,83082,1,0,0:0:0:0:
168,38,83232,5,0,0:0:0:0:
37,337,83382,1,0,0:0:0:0:
201,113,83532,5,0,0:0:0:0:
286,364,83682,1,0,0:0:0:0:
354,40,83832,5,0,0:0:0:0:
199,324,83982,1,0,0:0:0:0:
318,112,84132,5,0,0:0:0:0:
418,348,84282,1,0,0:0:0:0:
178,184,84432,5,0,0:0:0:0:
178,184,84507,1,0,0:0:0:0:
178,184,84582,1,0,0:0:0:0:
379,108,84732,1,0,0:0:0:0:
324,335,84882,5,0,0:0:0:0:
324,335,84957,1,0,0:0:0:0:
324,335,85032,1,0,0:0:0:0:
297,164,85182,1,0,0:0:0:0:
123,271,85332,5,0,0:0:0:0:
178,92,85482,1,0,0:0:0:0:
51,42,85632,1,0,0:0:0:0:
195,91,91032,5,0,0:0:0:0:
235,310,91182,1,0,0:0:0:0:
292,132,91332,2,0,P|326:72|374:44,1,113.999996520996
450,224,91632,2,0,P|416:284|368:312,1,113.999996520996
171,172,91932,5,0,0:0:0:0:
352,226,92082,1,0,0:0:0:0:
111,282,92232,2,0,L|-17:307,1,113.999996520996
105,90,92532,2,0,L|233:115,1,113.999996520996
407,169,92832,5,0,0:0:0:0:
214,252,92982,1,0,0:0:0:0:
385,76,93132,2,0,P|453:83|493:120,1,113.999996520996
431,260,93432,2,0,P|363:253|323:216,1,113.999996520996
238,75,93732,5,0,0:0:0:0:
243,331,93882,1,0,0:0:0:0:
156,146,94032,2,0,P|99:103|32:98,1,113.999996520996
167,254,94332,2,0,P|232:226|270:170,1,113.999996520996
259,194,94557,1,0,0:0:0:0:
259,194,94632,5,0,0:0:0:0:
409,60,94782,1,0,0:0:0:0:
452,267,94932,1,0,0:0:0:0:
154,111,95082,5,0,0:0:0:0:
422,140,95232,1,0,0:0:0:0:
252,368,95382,1,0,0:0:0:0:
237,45,95532,5,0,0:0:0:0:
391,313,95682,1,0,0:0:0:0:
82,302,95832,1,0,0:0:0:0:
361,47,95982,1,0,0:0:0:0:
34,155,96132,1,0,0:0:0:0:
415,223,96282,1,0,0:0:0:0:
415,223,96732,5,0,0:0:0:0:
85,270,96882,1,0,0:0:0:0:
297,25,97032,1,0,0:0:0:0:
189,358,97182,1,0,0:0:0:0:
51,141,97332,6,0,L|178:161,1,113.999996520996
267,176,97632,2,0,L|394:196,1,113.999996520996
462,322,97932,2,0,L|335:302,1,113.999996520996
106,260,98236,6,0,P|190:226|218:186,1,104.500003189087
263,71,98536,1,0,0:0:0:0:
255,259,98686,1,0,0:0:0:0:
309,135,98836,1,0,0:0:0:0:
360,306,98986,1,0,0:0:0:0:
205,106,99136,1,0,0:0:0:0:
130,348,99286,1,0,0:0:0:0:
100,131,99436,6,0,L|72:-5,1,104.500003189087
219,215,99736,1,0,0:0:0:0:
173,28,99886,1,0,0:0:0:0:
137,250,100036,1,0,0:0:0:0:
351,68,100186,1,0,0:0:0:0:
160,165,100336,1,0,0:0:0:0:
390,214,100486,6,0,P|453:192|497:135,1,104.500003189087
296,164,100786,1,0,0:0:0:0:
343,341,100936,1,0,0:0:0:0:
209,123,101086,1,0,0:0:0:0:
170,327,101236,1,0,0:0:0:0:
270,68,101386,1,0,0:0:0:0:
38,148,101536,1,0,0:0:0:0:
255,313,101686,1,0,0:0:0:0:
102,52,101836,6,0,L|88:112,1,52.2500015945435
169,160,101986,2,0,L|152:227,1,52.2500015945435
62,197,102136,2,0,L|48:257,1,52.2500015945435
129,305,102286,2,0,L|112:372,1,52.2500015945435
231,237,102436,5,0,0:0:0:0:
281,226,102511,1,0,0:0:0:0:
330,243,102586,1,0,0:0:0:0:
362,284,102661,1,0,0:0:0:0:
368,335,102736,1,0,0:0:0:0:
351,286,102811,1,0,0:0:0:0:
354,234,102886,1,0,0:0:0:0:
376,187,102961,1,0,0:0:0:0:
414,152,103036,6,0,P|460:118|481:39,1,104.500003189087
213,90,103336,2,4,P|259:124|280:203,1,104.500003189087,0|0,0:0|0:0,0:0:0:0:
257,340,103636,1,0,0:0:0:0:
171,190,103786,1,0,0:0:0:0:
47,354,103936,1,0,0:0:0:0:
14,116,104086,1,0,0:0:0:0:
186,287,104236,6,0,P|242:257|262:158,1,156.750004783631
248,115,104536,2,0,P|260:50|302:16,1,104.500003189087
451,243,104836,2,0,P|439:308|397:342,1,104.500003189087
347,102,105136,2,0,L|484:135,1,104.500003189087
210,251,105436,5,0,0:0:0:0:
151,52,105586,1,0,0:0:0:0:
330,217,105736,1,0,0:0:0:0:
89,300,105886,1,0,0:0:0:0:
315,126,106036,2,0,P|379:136|415:182,1,104.500003189087
455,296,106336,2,0,P|462:244|472:227,1,52.2500015945435
368,353,106486,2,0,P|361:301|351:284,1,52.2500015945435
268,286,106636,6,0,P|275:338|285:355,1,52.2500015945435
330,217,106786,1,0,0:0:0:0:
283,193,106861,1,0,0:0:0:0:
232,199,106936,1,0,0:0:0:0:
192,231,107011,1,0,0:0:0:0:
176,280,107086,6,0,P|152:329|134:341,1,52.2500015945435
60,327,107236,1,0,0:0:0:0:
17,298,107311,1,0,0:0:0:0:
2,249,107386,1,0,0:0:0:0:
20,202,107461,1,0,0:0:0:0:
65,177,107536,2,0,P|126:158|140:144,1,52.2500015945435
196,120,107686,2,0,P|221:122|246:132,1,52.2500015945435
332,233,107836,5,0,0:0:0:0:
291,40,107986,1,0,0:0:0:0:
435,274,108136,1,0,0:0:0:0:
321,118,108286,1,0,0:0:0:0:
275,333,108436,1,0,0:0:0:0:
416,187,108586,1,0,0:0:0:0:
173,154,108736,2,0,L|26:133,1,104.500003189087
0,328,109036,6,0,L|147:307,1,104.500003189087
273,83,109336,2,0,L|126:62,1,104.500003189087
221,335,109636,2,0,L|368:314,1,104.500003189087
113,156,109936,2,0,L|134:303,1,104.500003189087
384,260,110236,6,0,L|399:156,1,104.500003189087
423,40,110536,1,0,0:0:0:0:
258,133,110686,2,0,P|211:198|214:261,1,104.500003189087
218,347,110986,1,0,0:0:0:0:
110,155,111136,2,0,P|57:126|0:123,1,104.500003189087
277,289,111436,5,0,0:0:0:0:
148,62,111586,1,0,0:0:0:0:
10,288,111736,1,0,0:0:0:0:
98,222,111886,5,0,0:0:0:0:
144,198,111961,1,0,0:0:0:0:
195,189,112036,1,0,0:0:0:0:
247,195,112111,1,0,0:0:0:0:
295,215,112186,1,0,0:0:0:0:
336,248,112261,1,0,0:0:0:0:
365,291,112336,5,0,0:0:0:0:
413,319,112411,1,0,0:0:0:0:
467,306,112486,1,0,0:0:0:0:
498,260,112561,1,0,0:0:0:0:
487,205,112636,6,0,P|456:140|458:49,1,113.999996520996
225,299,112936,2,0,P|256:233|254:142,1,113.999996520996
213,63,113236,1,0,0:0:0:0:
334,275,113386,1,0,0:0:0:0:
184,129,113536,1,0,0:0:0:0:
114,335,113686,1,0,0:0:0:0:
84,118,113836,6,0,P|106:59|153:28,1,113.999996520996
288,80,114136,1,0,0:0:0:0:
215,269,114286,2,0,P|132:264|41:149,1,227.999993041992
274,204,114736,2,0,P|304:265|288:320,1,113.999996520996
117,341,115036,5,0,0:0:0:0:
357,286,115186,1,0,0:0:0:0:
118,242,115336,2,0,P|29:194|-2:153,1,113.999996520996
256,114,115636,2,0,L|403:97,1,113.999996520996
415,351,115936,2,0,L|268:334,1,113.999996520996
108,315,116236,5,0,0:0:0:0:
80,277,116311,1,0,0:0:0:0:
72,230,116386,1,0,0:0:0:0:
87,185,116461,1,0,0:0:0:0:
120,152,116536,1,0,0:0:0:0:
165,138,116611,1,0,0:0:0:0:
212,146,116686,1,0,0:0:0:0:
249,174,116761,1,0,0:0:0:0:
270,217,116836,5,0,0:0:0:0:
309,258,116911,1,0,0:0:0:0:
363,276,116986,1,0,0:0:0:0:
419,266,117061,1,0,0:0:0:0:
463,232,117136,1,0,0:0:0:0:
486,180,117211,1,0,0:0:0:0:
481,124,117286,1,0,0:0:0:0:
451,76,117361,1,0,0:0:0:0:
403,50,117436,6,0,L|277:67,1,95
160,80,117736,1,0,0:0:0:0:
407,127,117886,1,0,0:0:0:0:
188,186,118036,1,0,0:0:0:0:
330,281,118186,1,0,0:0:0:0:
264,69,118336,1,0,0:0:0:0:
171,333,118486,1,0,0:0:0:0:
147,171,118636,6,0,L|116:52,1,95
30,289,118936,1,0,0:0:0:0:
25,133,119086,1,0,0:0:0:0:
115,351,119236,1,0,0:0:0:0:
176,104,119386,1,0,0:0:0:0:
104,261,119536,1,0,0:0:0:0:
0,56,119686,1,0,0:0:0:0:
177,84,119836,6,0,L|303:108,1,95
436,138,120136,1,0,0:0:0:0:
290,19,120286,1,0,0:0:0:0:
272,240,120436,1,0,0:0:0:0:
397,47,120586,1,0,0:0:0:0:
445,264,120736,1,0,0:0:0:0:
317,122,120886,1,0,0:0:0:0:
259,308,121036,6,0,L|367:326,1,95
352,323,121261,1,0,0:0:0:0:
352,323,121336,1,0,0:0:0:0:
165,332,121486,5,0,0:0:0:0:
118,336,121561,1,0,0:0:0:0:
73,320,121636,1,0,0:0:0:0:
39,288,121711,1,0,0:0:0:0:
21,244,121786,1,0,0:0:0:0:
23,197,121861,1,0,0:0:0:0:
44,155,121936,1,0,0:0:0:0:
80,125,122011,1,0,0:0:0:0:
126,113,122086,1,0,0:0:0:0:
172,121,122161,1,0,0:0:0:0:
211,147,122236,6,0,P|292:180|337:171,1,95
434,72,122536,2,0,P|353:39|308:48,1,95
286,273,122836,1,0,0:0:0:0:
363,129,122986,1,0,0:0:0:0:
418,336,123136,1,0,0:0:0:0:
274,163,123286,1,0,0:0:0:0:
165,348,123436,6,0,P|177:281|171:235,1,95
9,114,123736,2,0,P|-3:181|3:227,1,95
123,79,124036,2,0,P|206:52|278:69,1,142.5
314,88,124336,2,0,P|376:95|413:80,1,95
308,241,124636,5,0,0:0:0:0:
442,44,124786,1,0,0:0:0:0:
402,313,124936,1,0,0:0:0:0:
176,134,125086,5,0,0:0:0:0:
412,191,125236,1,0,0:0:0:0:
104,326,125386,1,0,0:0:0:0:
246,87,125536,5,0,0:0:0:0:
256,321,125686,1,0,0:0:0:0:
36,188,125836,6,0,P|12:132|13:120,1,52.2500015945435
124,213,125986,2,0,P|87:261|76:266,1,52.2500015945435
101,124,126136,2,8,P|161:131|171:138,1,52.2500015945435
229,191,126286,5,0,0:0:0:0:
280,192,126361,1,0,0:0:0:0:
326,168,126436,1,0,0:0:0:0:
352,124,126511,1,0,0:0:0:0:
353,72,126586,2,0,L|331:21,1,52.2500015945435
247,83,126736,5,0,0:0:0:0:
259,133,126811,1,0,0:0:0:0:
294,170,126886,1,0,0:0:0:0:
343,186,126961,1,0,0:0:0:0:
394,176,127036,6,0,B|455:158|455:158|493:119,1,104.500003189087
218,248,127336,2,0,B|262:282|262:282|348:297,1,104.500003189087
219,136,127636,1,0,0:0:0:0:
46,286,127786,1,0,0:0:0:0:
219,136,127936,1,0,0:0:0:0:
22,74,128086,1,0,0:0:0:0:
260,225,128236,6,0,P|305:183|315:126,1,104.500003189087
165,217,128536,2,0,P|178:276|223:314,1,104.500003189087
358,232,128836,2,0,P|344:172|299:134,1,104.500003189087
191,112,129136,5,0,0:0:0:0:
386,126,129286,2,0,P|466:98|501:48,1,104.500003189087
296,47,129586,5,0,0:0:0:0:
222,233,129736,2,0,P|225:303|255:348,1,104.500003189087
319,200,130036,1,0,0:0:0:0:
116,189,130186,1,0,0:0:0:0:
204,349,130336,1,0,0:0:0:0:
192,143,130486,1,0,0:0:0:0:
5,288,130636,6,0,L|125:276,1,104.500003189087
108,277,130861,1,0,0:0:0:0:
108,277,130936,1,0,0:0:0:0:
260,260,131086,1,0,0:0:0:0:
303,231,131161,1,0,0:0:0:0:
330,187,131236,1,0,0:0:0:0:
334,135,131311,1,0,0:0:0:0:
314,87,131386,6,0,P|275:46|264:44,1,52.2500015945435
182,35,131536,1,0,0:0:0:0:
137,61,131611,1,0,0:0:0:0:
109,105,131686,1,0,0:0:0:0:
105,156,131761,1,0,0:0:0:0:
124,204,131836,6,0,P|155:267|40:347,1,209.000006378174
239,263,132286,2,0,B|328:256|328:256|376:266|376:266|475:255,1,209.000006378174
281,133,132736,1,0,0:0:0:0:
338,356,132886,1,0,0:0:0:0:
382,144,133036,6,0,P|355:63|222:48,1,209.000006378174
128,134,133486,2,0,B|79:210|147:267|110:337,1,209.000006378174
202,193,133936,1,0,0:0:0:0:
26,284,134086,1,0,0:0:0:0:
244,261,134236,6,0,P|315:267|357:298,1,104.500003189087
342,283,134461,1,0,0:0:0:0:
342,283,134536,1,0,0:0:0:0:
289,97,134686,2,0,P|248:155|200:176,1,104.500003189087
220,170,134911,1,0,0:0:0:0:
220,170,134986,1,0,0:0:0:0:
408,217,135136,2,0,P|377:152|383:100,1,104.500003189087
378,120,135361,1,0,0:0:0:0:
378,120,135436,5,0,0:0:0:0:
294,256,135586,1,0,0:0:0:0:
297,56,135736,1,0,0:0:0:0:
355,338,135886,5,0,0:0:0:0:
307,358,135961,1,0,0:0:0:0:
256,351,136036,1,0,0:0:0:0:
215,320,136111,1,0,0:0:0:0:
195,272,136186,1,0,0:0:0:0:
203,221,136261,1,0,0:0:0:0:
184,172,136336,1,0,0:0:0:0:
144,141,136411,1,0,0:0:0:0:
92,134,136486,1,0,0:0:0:0:
45,154,136561,1,0,0:0:0:0:
14,195,136636,5,0,0:0:0:0:
204,40,136786,1,0,0:0:0:0:
111,309,136936,5,0,0:0:0:0:
82,42,137086,1,0,0:0:0:0:
171,252,137236,5,0,0:0:0:0:
340,32,137386,1,0,0:0:0:0:
319,333,137536,5,0,0:0:0:0:
244,99,137686,1,0,0:0:0:0:
501,140,137836,5,0,0:0:0:0:
257,263,137986,1,0,0:0:0:0:
482,237,138136,5,0,0:0:0:0:
169,184,138286,1,0,0:0:0:0:
378,135,138436,5,0,0:0:0:0:
65,288,138586,1,0,0:0:0:0:
246,87,138736,5,0,0:0:0:0:
167,368,138886,1,0,0:0:0:0:
111,28,139036,5,0,0:0:0:0:
282,352,139186,1,0,0:0:0:0:
282,352,139336,1,0,0:0:0:0:
290,28,139486,5,0,0:0:0:0:
119,352,139636,1,0,0:0:0:0:
119,352,139786,1,0,0:0:0:0:
440,201,139936,5,0,0:0:0:0:
104,91,140086,2,0,L|-6:79,1,104.500003189087
446,97,140386,5,0,0:0:0:0:
127,249,140536,2,0,L|18:274,1,104.500003189087
176,157,140836,1,0,0:0:0:0:
176,157,140986,2,0,P|230:220|204:326,1,170.999994781494
323,317,141436,6,0,P|384:282|419:225,1,104.500003189087
364,120,141736,1,0,0:0:0:0:
226,242,141886,2,0,P|165:207|130:150,1,104.500003189087
172,43,142186,1,0,0:0:0:0:
324,253,142336,2,0,P|294:317|228:340,1,104.500003189087
109,332,142636,5,0,0:0:0:0:
424,244,142786,2,0,P|394:180|328:157,1,104.500003189087
199,135,143086,1,0,0:0:0:0:
199,135,143161,1,0,0:0:0:0:
199,135,143236,2,0,P|120:103|104:62,1,104.500003189087
271,83,143536,2,0,P|282:167|255:201,1,104.500003189087
151,264,143836,6,0,L|15:240,1,113.999996520996
229,356,144136,2,0,L|365:332,1,113.999996520996
413,136,144436,1,0,0:0:0:0:
248,252,144586,1,0,0:0:0:0:
481,240,144736,1,0,0:0:0:0:
190,161,144886,6,0,L|64:123,1,95
230,56,145186,1,0,0:0:0:0:
358,242,145336,2,0,L|320:368,1,95
116,334,145636,1,0,0:0:0:0:
269,141,145786,1,0,0:0:0:0:
222,323,145936,1,0,0:0:0:0:
146,94,146086,6,0,P|112:38|57:-2,1,95
38,197,146386,1,0,0:0:0:0:
285,224,146536,2,0,P|341:190|381:135,1,95
342,18,146836,1,0,0:0:0:0:
373,303,146986,1,0,0:0:0:0:
425,89,147136,1,0,0:0:0:0:
231,306,147286,6,0,P|168:335|104:326,1,95
69,276,147511,1,0,0:0:0:0:
69,276,147586,2,0,P|132:247|196:256,1,95
282,240,147886,6,0,P|331:245|354:230,1,47.5
394,159,148036,1,0,0:0:0:0:
391,112,148111,1,0,0:0:0:0:
367,71,148186,1,0,0:0:0:0:
328,45,148261,1,0,0:0:0:0:
281,38,148336,1,0,0:0:0:0:
237,53,148411,1,0,0:0:0:0:
203,86,148486,1,0,0:0:0:0:
188,131,148561,1,0,0:0:0:0:
193,180,148636,6,0,L|237:347,1,142.5
307,351,148936,2,0,L|330:236,1,95
355,118,149236,1,0,0:0:0:0:
195,283,149386,1,0,0:0:0:0:
451,226,149536,1,0,0:0:0:0:
246,47,149686,6,0,P|161:37|56:88,1,190
43,251,150136,1,0,0:0:0:0:
122,35,150286,1,0,0:0:0:0:
283,225,150436,1,0,0:0:0:0:
129,139,150586,1,0,0:0:0:0:
105,350,150736,1,0,0:0:0:0:
260,129,150886,6,0,P|325:135|378:266,1,190
172,296,151336,1,0,0:0:0:0:
318,71,151486,1,0,0:0:0:0:
440,317,151636,1,0,0:0:0:0:
311,183,151786,1,0,0:0:0:0:
231,354,151936,1,0,0:0:0:0:
412,54,152086,6,0,L|391:167,1,95
383,208,152311,1,0,0:0:0:0:
383,208,152386,1,0,0:0:0:0:
251,304,152536,1,0,0:0:0:0:
139,199,152686,1,0,0:0:0:0:
109,162,152761,1,0,0:0:0:0:
110,116,152836,1,0,0:0:0:0:
141,81,152911,1,0,0:0:0:0:
187,74,152986,5,0,0:0:0:0:
226,99,153061,1,0,0:0:0:0:
240,143,153136,1,0,0:0:0:0:
255,188,153211,1,0,0:0:0:0:
287,222,153286,1,0,0:0:0:0:
331,239,153361,1,0,0:0:0:0:
378,234,153436,6,0,P|428:206|453:152,1,95
442,66,153736,1,0,0:0:0:0:
141,128,154036,2,0,P|128:200|173:292,1,142.5
177,299,154336,6,0,P|242:321|291:311,1,95
378,255,154636,1,0,0:0:0:0:
275,164,154786,1,0,0:0:0:0:
400,119,154936,1,0,0:0:0:0:
162,46,155236,2,0,P|125:89|117:178,1,142.5
127,216,155536,2,0,L|159:326,1,95
358,307,155836,6,0,L|385:216,1,95
417,111,156136,1,0,0:0:0:0:
417,111,156286,1,0,0:0:0:0:
285,133,156436,2,0,L|124:162,1,142.5
102,168,156736,6,0,L|-2:186,1,95
121,277,157036,1,0,0:0:0:0:
209,201,157186,1,0,0:0:0:0:
326,208,157336,2,0,L|427:225,1,95
512,141,157636,2,0,L|343:115,1,142.5
325,111,157936,2,0,L|224:94,1,95
36,227,158236,6,0,L|132:211,1,95
254,189,158536,1,0,0:0:0:0:
254,189,158686,1,0,0:0:0:0:
383,207,158836,2,0,P|439:239|472:318,1,142.5
472,354,159136,6,0,P|394:334|370:296,1,95
337,216,159436,1,0,0:0:0:0:
280,313,159586,1,0,0:0:0:0:
159,318,159736,2,0,P|109:297|82:258,1,95
61,189,160036,2,0,P|79:119|140:68,1,142.5
175,49,160336,2,0,P|187:105|169:151,1,95
281,256,160636,6,0,P|284:209|311:170,1,95
451,126,160936,1,0,0:0:0:0:
451,126,161086,1,0,0:0:0:0:
347,41,161236,2,0,L|189:24,1,142.5
169,26,161536,6,0,L|65:41,1,95
0,204,161836,2,0,L|104:189,1,95
290,174,162136,2,0,L|394:189,1,95
459,352,162436,2,0,L|355:337,1,95
184,311,162736,1,0,0:0:0:0:
352,96,162886,1,0,0:0:0:0:
352,96,162961,1,0,0:0:0:0:
352,96,163036,6,0,L|456:111,1,95
300,237,163336,1,0,0:0:0:0:
190,124,163486,1,0,0:0:0:0:
238,313,163636,2,0,P|282:336|344:328,1,95
206,216,163936,1,0,0:0:0:0:
128,358,164086,1,0,0:0:0:0:
117,180,164236,6,0,P|93:121|40:81,1,95
242,125,164536,2,0,P|266:66|319:26,1,95
433,126,164836,2,0,P|409:185|356:225,1,95
170,288,165136,2,0,L|280:300,1,95
97,174,165436,6,0,L|-27:194,1,95
92,291,165736,1,0,0:0:0:0:
220,194,165886,1,0,0:0:0:0:
341,291,166036,2,0,P|392:316|450:315,1,95
347,194,166336,1,0,0:0:0:0:
218,275,166486,1,0,0:0:0:0:
91,199,166636,6,0,P|51:161|36:108,1,95
177,27,166936,2,0,P|217:65|232:118,1,95
242,210,167236,1,0,0:0:0:0:
381,69,167386,1,0,0:0:0:0:
405,235,167536,1,0,0:0:0:0:
247,59,167686,1,0,0:0:0:0:
446,155,167836,6,0,P|488:196|493:262,1,95
293,212,168136,1,0,0:0:0:0:
467,71,168286,1,0,0:0:0:0:
213,111,168436,2,0,P|155:99|109:70,1,95
109,264,168736,1,0,0:0:0:0:
79,59,168886,1,0,0:0:0:0:
209,262,169036,6,0,P|196:320|135:366,1,95
340,197,169336,2,0,P|396:179|467:209,1,95
218,116,169636,2,0,P|175:76|165:0,1,95
297,284,169936,1,0,0:0:0:0:
162,31,170086,1,0,0:0:0:0:
0,255,170236,6,0,B|68:227|68:227|127:237|178:196|178:196|236:170|323:203|323:203,1,284.999991302491
365,223,170686,2,0,B|430:247|472:200|472:200|492:212|492:212|522:122|444:80,1,284.999991302491
349,46,171136,2,0,B|266:31|266:31|281:83|261:158|261:158,1,170.999994781494
258,159,171436,5,0,0:0:0:0:
193,241,171636,1,0,0:0:0:0:
73,264,171836,1,0,0:0:0:0:
110,149,172036,5,0,0:0:0:0:
268,105,172236,1,0,0:0:0:0:
426,189,172436,1,0,0:0:0:0:
200,35,172636,6,0,P|170:100|186:152,1,113.999996520996
299,247,172936,1,0,0:0:0:0:
132,210,173086,1,0,0:0:0:0:
378,108,173236,2,0,P|440:96|491:118,1,113.999996520996
406,253,173536,2,0,P|344:265|293:243,1,113.999996520996
184,72,173836,6,0,L|139:192,1,113.999996520996
79,305,174136,1,0,0:0:0:0:
46,112,174286,1,0,0:0:0:0:
183,309,174436,2,0,P|239:346|308:342,1,113.999996520996
143,178,174736,2,0,P|82:207|51:269,1,113.999996520996
276,208,175036,6,0,P|280:141|242:83,1,113.999996520996
129,35,175336,1,0,0:0:0:0:
194,252,175486,1,0,0:0:0:0:
299,83,175636,2,0,P|361:51|427:54,1,113.999996520996
470,231,175936,2,0,P|408:263|342:260,1,113.999996520996
199,211,176236,5,0,0:0:0:0:
377,144,176386,1,0,0:0:0:0:
245,311,176536,1,0,0:0:0:0:
208,73,176686,1,0,0:0:0:0:
356,250,176836,1,0,0:0:0:0:
115,274,176986,1,0,0:0:0:0:
115,274,177061,1,0,0:0:0:0:
115,274,177136,2,0,L|83:157,1,113.999996520996
215,275,177436,6,0,P|197:333|121:370,1,113.999996520996
235,171,177736,1,0,0:0:0:0:
312,343,177886,1,0,0:0:0:0:
328,85,178036,1,0,0:0:0:0:
258,292,178186,1,0,0:0:0:0:
221,20,178336,1,0,0:0:0:0:
356,203,178486,1,0,0:0:0:0:
124,99,178636,6,0,P|38:84|-24:101,1,113.999996520996
110,228,178936,1,0,0:0:0:0:
314,165,179086,2,0,P|329:78|312:16,1,113.999996520996
185,150,179386,1,0,0:0:0:0:
248,354,179536,2,0,P|334:369|396:352,1,113.999996520996
263,225,179836,5,0,0:0:0:0:
86,312,179986,1,0,0:0:0:0:
272,97,180136,1,0,0:0:0:0:
384,354,180286,5,0,0:0:0:0:
144,148,180436,1,0,0:0:0:0:
431,41,180586,1,0,0:0:0:0:
209,312,180736,5,0,0:0:0:0:
449,180,180886,1,0,0:0:0:0:
148,55,181036,5,0,0:0:0:0:
94,70,181111,1,0,0:0:0:0:
58,114,181186,1,0,0:0:0:0:
55,170,181261,1,0,0:0:0:0:
84,218,181336,1,0,0:0:0:0:
136,240,181411,1,0,0:0:0:0:
191,228,181486,2,0,L|249:191,1,56.9999982604981
349,135,181636,5,0,0:0:0:0:
402,150,181711,1,0,0:0:0:0:
438,194,181786,1,0,0:0:0:0:
441,250,181861,1,0,0:0:0:0:
412,298,181936,1,0,0:0:0:0:
360,320,182011,1,0,0:0:0:0:
305,308,182086,2,0,L|247:270,1,56.9999982604981
191,228,182236,6,0,L|85:153,1,113.999996520996
321,156,182536,2,0,L|427:231,1,113.999996520996
217,255,182836,6,0,L|88:243,1,113.999996520996
294,128,183136,2,0,L|423:140,1,113.999996520996
254,266,183436,6,0,L|136:320,1,113.999996520996
257,117,183736,2,0,L|375:63,1,113.999996520996
143,191,184036,5,0,0:0:0:0:
253,27,184186,1,0,0:0:0:0:
271,295,184336,1,0,0:0:0:0:
39,176,184486,1,0,0:0:0:0:
346,223,184636,6,0,P|374:272|370:333,1,113.999996520996
166,161,184936,2,0,P|138:112|142:51,1,113.999996520996
318,263,185236,6,0,P|318:320|284:371,1,113.999996520996
193,120,185536,2,0,P|193:63|227:12,1,113.999996520996
274,285,185836,6,0,P|245:334|190:361,1,113.999996520996
237,98,186136,2,0,P|266:49|321:22,1,113.999996520996
446,146,186436,5,0,0:0:0:0:
162,47,186586,1,0,0:0:0:0:
350,177,186736,1,0,0:0:0:0:
115,302,186886,1,0,0:0:0:0:
280,99,187036,6,0,B|341:79|341:79|431:85,1,113.999996520996
232,285,187336,2,0,B|171:305|171:305|81:299,1,113.999996520996
323,123,187636,6,0,B|386:136|386:136|461:186,1,113.999996520996
188,260,187936,2,0,B|125:247|125:247|50:197,1,113.999996520996
348,166,188236,6,0,B|396:209|396:209|436:290,1,113.999996520996
163,217,188536,2,0,B|115:174|115:174|75:93,1,113.999996520996
253,160,188836,2,0,P|271:233|186:321,1,170.999994781494
187,318,189136,2,0,P|104:305|59:235,1,170.999994781494
57,199,189436,6,0,L|85:67,1,113.999996520996
235,200,189736,2,0,L|258:311,1,113.999996520996
258,311,189961,1,0,0:0:0:0:
258,311,190036,1,0,0:0:0:0:
432,176,190186,1,0,0:0:0:0:
219,99,190336,6,0,P|155:130|135:234,1,170.999994781494
130,260,190636,2,0,P|114:178|41:137,1,170.999994781494
5,134,190936,5,0,0:0:0:0:
6,190,191011,1,0,0:0:0:0:
33,239,191086,1,0,0:0:0:0:
81,269,191161,1,0,0:0:0:0:
137,274,191236,1,0,0:0:0:0:
188,251,191311,1,0,0:0:0:0:
223,206,191386,5,0,0:0:0:0:
241,163,191461,1,0,0:0:0:0:
282,141,191536,1,0,0:0:0:0:
328,148,191611,1,0,0:0:0:0:
360,182,191686,1,0,0:0:0:0:
365,228,191761,1,0,0:0:0:0:
339,268,191836,6,0,B|299:292|235:282|194:243|221:192|241:98|125:58|38:131,1,380
35,226,192586,1,0,0:0:0:0:
135,144,192736,2,0,P|174:103|184:47,1,95
236,214,193036,6,0,P|294:274|320:91,1,380
239,91,193786,1,0,0:0:0:0:
327,185,193936,2,0,L|365:293,1,95
199,337,194236,6,0,L|232:136,1,190
102,60,194686,2,0,L|132:247,1,190
98,350,195136,2,0,P|50:321|27:250,1,95
256,192,195436,6,0,L|352:182,1,95
256,65,195736,2,0,L|160:55,1,95
180,298,196036,5,0,0:0:0:0:
227,318,196111,1,0,0:0:0:0:
279,319,196186,1,0,0:0:0:0:
327,300,196261,1,0,0:0:0:0:
364,264,196336,1,0,0:0:0:0:
384,216,196411,1,0,0:0:0:0:
383,164,196486,1,0,0:0:0:0:
363,116,196561,1,0,0:0:0:0:
325,80,196636,5,0,0:0:0:0:
168,289,196786,1,0,0:0:0:0:
207,64,196936,5,0,0:0:0:0:
268,320,197086,1,0,0:0:0:0:
120,91,197236,5,0,0:0:0:0:
51,360,197386,1,0,0:0:0:0:
268,172,197536,5,0,0:0:0:0:
12,95,197686,1,0,0:0:0:0:
325,97,197836,5,0,0:0:0:0:
72,249,197986,1,0,0:0:0:0:
399,242,198136,5,0,0:0:0:0:
154,130,198286,1,0,0:0:0:0:
491,120,198436,5,0,0:0:0:0:
244,261,198586,1,0,0:0:0:0:
219,40,198736,5,0,0:0:0:0:
287,346,198886,1,0,0:0:0:0:
287,346,198961,1,0,0:0:0:0:
287,346,199036,5,0,0:0:0:0:
349,64,199186,1,0,0:0:0:0:
88,129,199336,5,0,0:0:0:0:
358,238,199486,1,0,0:0:0:0:
47,312,199636,5,0,0:0:0:0:
277,88,199786,1,0,0:0:0:0:
122,358,199936,5,0,0:0:0:0:
88,47,200086,1,0,0:0:0:0:
427,167,200236,5,0,0:0:0:0:
427,167,200311,1,0,0:0:0:0:
427,167,200386,1,0,0:0:0:0:
160,237,200536,1,0,0:0:0:0:
344,57,200686,5,0,0:0:0:0:
344,57,200761,1,0,0:0:0:0:
344,57,200836,1,0,0:0:0:0:
307,225,200986,1,0,0:0:0:0:
151,181,201136,5,0,0:0:0:0:
108,300,201286,1,0,0:0:0:0:
0,271,201436,1,0,0:0:0:0:
66,206,206836,5,0,0:0:0:0:
205,85,206986,1,0,0:0:0:0:
144,284,207136,2,0,P|92:316|33:314,1,104.500003189087
229,202,207436,6,0,P|261:254|259:313,1,104.500003189087
110,163,207736,1,0,0:0:0:0:
320,128,207886,1,0,0:0:0:0:
232,340,208036,2,0,L|130:315,1,104.500003189087
411,229,208336,2,0,L|309:254,1,104.500003189087
188,153,208636,5,0,0:0:0:0:
365,16,208786,1,0,0:0:0:0:
265,266,208936,1,0,0:0:0:0:
100,108,209086,1,0,0:0:0:0:
331,191,209236,2,0,P|363:237|359:300,1,104.500003189087
122,307,209536,2,0,L|5:282,1,104.500003189087
120,149,209836,5,0,0:0:0:0:
238,346,209986,1,0,0:0:0:0:
234,70,210136,1,0,0:0:0:0:
1,217,210286,1,0,0:0:0:0:
1,217,210361,1,0,0:0:0:0:
1,217,210436,6,0,L|117:247,1,104.500003189087
250,290,210736,1,0,0:0:0:0:
383,93,210886,2,0,L|267:123,1,104.500003189087
134,166,211186,1,0,0:0:0:0:
345,267,211336,1,0,0:0:0:0:
302,45,211486,1,0,0:0:0:0:
180,325,211636,5,0,0:0:0:0:
465,143,211786,1,0,0:0:0:0:
46,140,211936,1,0,0:0:0:0:
468,52,212086,1,0,0:0:0:0:
384,96,212536,5,0,0:0:0:0:
132,344,212686,1,0,0:0:0:0:
115,42,212836,1,0,0:0:0:0:
413,345,212986,1,0,0:0:0:0:
413,345,213436,6,0,L|388:288,1,52.2500015945435
359,227,213586,2,0,L|266:14,1,209.000006378174
161,94,214036,6,0,P|133:172|194:262,1,170.999994781494
228,285,214336,2,0,L|402:318,1,170.999994781494
396,316,214636,1,0,0:0:0:0:
333,189,214786,1,0,0:0:0:0:
274,355,214936,1,0,0:0:0:0:
445,209,215086,1,0,0:0:0:0:
235,134,215236,6,0,L|99:112,1,113.999996520996
3,257,215536,2,0,L|139:235,1,113.999996520996
314,199,215836,2,0,P|337:126|306:62,1,113.999996520996
208,241,216136,6,0,B|232:293|287:305|287:305|324:288|364:299|364:299|422:271|430:225,1,284.999991302491
439,180,216586,1,0,0:0:0:0:
439,180,216661,1,0,0:0:0:0:
439,180,216736,1,0,0:0:0:0:
292,135,216886,6,0,B|222:117|186:77|186:77|118:102|118:102|8:82|8:82|39:155,1,341.999989562989
84,252,217486,1,0,0:0:0:0:
138,85,217636,1,0,0:0:0:0:
211,308,217786,1,0,0:0:0:0:
258,189,217936,5,0,0:0:0:0:
300,152,218011,1,0,0:0:0:0:
356,150,218086,1,0,0:0:0:0:
400,183,218161,1,0,0:0:0:0:
415,237,218236,1,0,0:0:0:0:
392,288,218311,1,0,0:0:0:0:
342,314,218386,1,0,0:0:0:0:
287,302,218461,1,0,0:0:0:0:
252,259,218536,5,0,0:0:0:0:
229,203,218611,1,0,0:0:0:0:
176,173,218686,1,0,0:0:0:0:
116,183,218761,1,0,0:0:0:0:
76,229,218836,1,0,0:0:0:0:
74,289,218911,1,0,0:0:0:0:
110,338,218986,1,0,0:0:0:0:
168,353,219061,1,0,0:0:0:0:
223,329,219136,5,0,0:0:0:0:
251,268,219211,1,0,0:0:0:0:
279,208,219286,1,0,0:0:0:0:
307,148,219361,1,0,0:0:0:0:
335,87,219436,1,0,0:0:0:0:
368,145,219511,1,0,0:0:0:0:
402,202,219586,1,0,0:0:0:0:
435,260,219661,1,0,0:0:0:0:
468,316,219736,5,0,0:0:0:0:
413,281,219811,1,0,0:0:0:0:
349,266,219886,1,0,0:0:0:0:
283,274,219961,1,0,0:0:0:0:
224,312,220036,1,0,0:0:0:0:
154,318,220111,1,0,0:0:0:0:
89,289,220186,1,0,0:0:0:0:
46,233,220261,1,0,0:0:0:0:
35,164,220336,5,0,0:0:0:0:
91,155,220411,1,0,0:0:0:0:
147,168,220486,1,0,0:0:0:0:
193,200,220561,1,0,0:0:0:0:
224,248,220636,1,0,0:0:0:0:
268,274,220711,1,0,0:0:0:0:
320,276,220786,1,0,0:0:0:0:
366,252,220861,1,0,0:0:0:0:
395,209,220936,1,0,0:0:0:0:
399,158,221011,1,0,0:0:0:0:
378,111,221086,1,0,0:0:0:0:
337,80,221161,1,0,0:0:0:0:
286,73,221236,6,0,L|142:93,1,113.999996520996
102,154,221461,1,0,0:0:0:0:
102,154,221536,2,0,L|246:173,1,113.999996520996
276,236,221761,1,0,0:0:0:0:
276,236,221836,2,0,L|131:255,1,113.999996520996
89,322,222061,1,0,0:0:0:0:
89,322,222136,2,0,L|233:341,1,113.999996520996
382,232,222436,6,0,P|364:168|299:134,1,113.999996520996
166,135,222736,1,0,0:0:0:0:
330,312,222886,2,0,P|394:328|456:289,1,113.999996520996
289,227,223186,1,0,0:0:0:0:
197,357,223336,1,0,0:0:0:0:
166,135,223486,6,0,P|136:72|77:33,1,113.999996520996
69,247,223786,1,0,0:0:0:0:
190,44,223936,1,0,0:0:0:0:
184,272,224086,2,0,P|136:347|75:367,1,113.999996520996
3,203,224386,1,0,0:0:0:0:
157,173,224536,1,0,0:0:0:0:
292,281,224686,1,0,0:0:0:0:
132,159,224836,5,0,0:0:0:0:
396,209,224986,1,0,0:0:0:0:
78,214,225286,5,0,0:0:0:0:
404,87,225436,1,0,0:0:0:0:
108,94,225736,5,0,0:0:0:0:
280,337,225886,1,0,0:0:0:0:
216,119,226186,5,0,0:0:0:0:
142,294,226336,1,0,0:0:0:0:
323,167,226486,5,0,0:0:0:0:
117,210,226636,1,0,0:0:0:0:
344,259,226786,5,0,0:0:0:0:
165,148,226936,1,0,0:0:0:0:
328,348,227086,6,0,P|396:333|363:171,1,227.999993041992
270,167,227536,2,0,L|36:206,1,227.999993041992
83,281,227986,2,0,B|166:269|166:269|238:280|238:280|312:268|312:268|384:276|384:276|447:256|447:256|398:211|398:211|320:202|320:202|245:167|251:78|251:78|341:35|400:92|400:92|445:173,1,902.499975900651
98,179,234886,5,0,0:0:0:0:
300,156,235036,1,0,0:0:0:0:
110,80,235186,2,0,P|33:96|1:138,1,113.999996520996
190,260,235486,5,0,0:0:0:0:
194,39,235636,1,0,0:0:0:0:
78,253,235786,1,0,0:0:0:0:
224,137,235936,1,0,0:0:0:0:
138,339,236086,2,0,P|63:356|4:328,1,113.999996520996
214,264,236386,2,0,P|289:247|348:275,1,113.999996520996
412,346,236686,5,0,0:0:0:0:
350,128,236836,1,0,0:0:0:0:
311,305,236986,1,0,0:0:0:0:
453,120,237136,1,0,0:0:0:0:
219,83,237286,2,0,L|102:66,1,113.999996520996
0,202,237586,2,0,L|117:185,1,113.999996520996
299,153,237886,5,0,0:0:0:0:
121,323,238036,1,0,0:0:0:0:
111,134,238186,1,0,0:0:0:0:
214,277,238336,1,0,0:0:0:0:
131,37,238486,6,0,P|66:41|11:91,1,113.999996520996
0,182,238786,1,0,0:0:0:0:
216,193,238936,2,0,P|281:189|336:139,1,113.999996520996
369,55,239236,1,0,0:0:0:0:
168,94,239386,2,0,P|110:159|142:271,1,170.999994781494
116,238,239686,5,0,0:0:0:0:
242,47,239836,1,0,0:0:0:0:
363,257,239986,1,0,0:0:0:0:
35,90,240136,1,0,0:0:0:0:
35,90,240586,5,0,0:0:0:0:
241,319,240736,1,0,0:0:0:0:
313,27,240886,1,0,0:0:0:0:
88,334,241036,1,0,0:0:0:0:
88,334,241336,2,0,L|115:238,1,56.9999982604981
128,183,241486,1,0,0:0:0:0:
290,218,241636,2,0,B|374:240|374:240|440:274|440:274|512:287,1,227.999993041992
376,86,242086,5,0,0:0:0:0:
297,348,242236,1,0,0:0:0:0:
195,56,242386,5,0,0:0:0:0:
400,269,242536,1,0,0:0:0:0:
98,229,242686,5,0,0:0:0:0:
422,143,242836,1,0,0:0:0:0:
16,76,242986,5,0,0:0:0:0:
360,225,243136,1,0,0:0:0:0:
47,330,243286,5,0,0:0:0:0:
366,77,243436,1,0,0:0:0:0:
247,348,243736,5,0,0:0:0:0:
210,43,243886,1,0,0:0:0:0:
497,172,244036,2,0,B|421:193|421:193|370:185|370:185|311:223|252:165|164:212,1,341.999989562989
210,281,245686,5,0,0:0:0:0:
201,107,245836,1,0,0:0:0:0:
356,187,245986,1,0,0:0:0:0:
164,225,247936,6,0,P|104:225|42:184,1,95
264,97,248236,1,0,0:0:0:0:
330,245,248386,1,0,0:0:0:0:
256,191,249886,5,0,0:0:0:0:
136,106,250036,2,0,P|43:153|137:234,1,237.5
148,243,250486,5,0,0:0:0:0:
265,72,250636,1,0,0:0:0:0:
354,260,250786,1,0,0:0:0:0:
265,72,251686,5,0,0:0:0:0:
213,83,251761,1,0,0:0:0:0:
162,94,251836,1,0,0:0:0:0:
111,105,251911,1,0,0:0:0:0:
60,116,251986,1,0,0:0:0:0:
257,192,252136,5,0,0:0:0:0:
309,203,252211,1,0,0:0:0:0:
360,214,252286,1,0,0:0:0:0:
411,225,252361,1,0,0:0:0:0:
462,236,252436,1,0,0:0:0:0:
223,289,252586,2,0,P|177:260|169:142,1,156.750004783631
176,130,252886,5,0,0:0:0:0:
419,92,253036,1,0,0:0:0:0:
102,201,253186,1,0,0:0:0:0:
285,53,253336,1,0,0:0:0:0:
7,107,253486,1,0,0:0:0:0:
196,325,253636,1,0,0:0:0:0:
195,41,253786,1,0,0:0:0:0:
32,328,253936,1,0,0:0:0:0:
338,232,254086,6,0,P|369:172|362:145,1,52.2500015945435
258,242,254236,2,0,P|294:298|320:306,1,52.2500015945435
289,167,254386,2,0,P|221:170|202:189,1,52.2500015945435
137,210,254536,5,0,0:0:0:0:
88,227,254611,1,0,0:0:0:0:
39,212,254686,1,0,0:0:0:0:
9,171,254761,1,0,0:0:0:0:
10,120,254836,1,0,0:0:0:0:
41,79,254911,1,0,0:0:0:0:
91,66,254986,2,0,L|269:89,1,156.750004783631
308,95,255286,6,0,L|441:109,1,104.500003189087
232,236,255586,2,0,L|99:222,1,104.500003189087
322,167,255886,1,0,0:0:0:0:
208,349,256036,1,0,0:0:0:0:
117,91,256186,1,0,0:0:0:0:
311,306,256336,1,0,0:0:0:0:
227,63,256486,5,0,0:0:0:0:
106,297,256636,1,0,0:0:0:0:
374,109,256786,2,0,P|448:99|498:106,1,104.500003189087
224,191,257086,2,0,P|150:181|100:188,1,104.500003189087
340,309,257386,2,0,P|407:277|446:211,1,104.500003189087
202,100,257686,5,0,0:0:0:0:
257,353,257836,1,0,0:0:0:0:
66,162,257986,1,0,0:0:0:0:
317,228,258136,2,0,P|401:217|453:183,1,104.500003189087
204,90,258436,1,0,0:0:0:0:
151,268,258586,2,0,P|162:352|196:404,1,104.500003189087
66,162,258886,6,0,P|55:78|21:26,1,104.500003189087
14,241,259186,2,0,P|64:258|73:257,1,52.2500015945435
161,182,259336,2,0,P|186:186|209:199,1,52.2500015945435
287,280,259486,5,0,0:0:0:0:
337,290,259561,1,0,0:0:0:0:
387,275,259636,1,0,0:0:0:0:
423,238,259711,1,0,0:0:0:0:
438,189,259786,1,0,0:0:0:0:
427,138,259861,1,0,0:0:0:0:
393,99,259936,1,0,0:0:0:0:
345,81,260011,1,0,0:0:0:0:
293,88,260086,6,0,P|219:89|168:56,1,104.500003189087
333,184,260386,2,0,P|360:235|361:302,1,104.500003189087
133,230,260686,1,0,0:0:0:0:
197,38,260836,1,0,0:0:0:0:
253,331,260986,1,0,0:0:0:0:
145,117,261136,1,0,0:0:0:0:
20,303,261286,6,0,P|70:244|139:216,1,104.500003189087
336,230,261586,2,0,P|286:289|217:317,1,104.500003189087
97,207,261886,1,0,0:0:0:0:
215,336,262036,1,0,0:0:0:0:
184,96,262186,1,0,0:0:0:0:
89,329,262336,1,0,0:0:0:0:
277,123,262486,6,0,P|280:64|219:-2,1,104.500003189087
305,244,262786,2,0,P|347:274|398:278,1,104.500003189087
185,208,263086,2,0,P|138:229|109:272,1,104.500003189087
15,57,263386,2,0,P|61:78|91:121,1,104.500003189087
129,307,263686,5,0,0:0:0:0:
178,320,263761,1,0,0:0:0:0:
229,311,263836,1,0,0:0:0:0:
270,279,263911,1,0,0:0:0:0:
292,232,263986,1,0,0:0:0:0:
310,201,264061,1,0,0:0:0:0:
337,179,264136,1,0,0:0:0:0:
372,171,264211,1,0,0:0:0:0:
407,176,264286,5,0,0:0:0:0:
380,231,264361,1,0,0:0:0:0:
328,263,264436,1,0,0:0:0:0:
267,261,264511,1,0,0:0:0:0:
218,226,264586,1,0,0:0:0:0:
184,175,264661,1,0,0:0:0:0:
127,152,264736,1,0,0:0:0:0:
68,164,264811,1,0,0:0:0:0:
25,207,264886,6,0,P|23:280|62:331,1,104.500003189087
184,175,265186,2,0,P|186:102|149:57,1,104.500003189087
134,272,265486,1,0,0:0:0:0:
359,141,265636,1,0,0:0:0:0:
96,136,265786,1,0,0:0:0:0:
389,144,265936,1,0,0:0:0:0:
210,331,266086,6,0,P|146:367|86:358,1,104.500003189087
259,203,266386,2,0,P|322:240|346:300,1,104.500003189087
129,229,266686,1,0,0:0:0:0:
276,59,266836,1,0,0:0:0:0:
29,220,266986,1,0,0:0:0:0:
213,308,267136,1,0,0:0:0:0:
171,96,267286,6,0,L|24:63,1,104.500003189087
258,175,267586,2,0,L|407:141,1,104.500003189087
200,281,267886,1,0,0:0:0:0:
467,122,268036,1,0,0:0:0:0:
338,313,268186,1,0,0:0:0:0:
186,142,268336,1,0,0:0:0:0:
400,241,268486,6,0,P|426:284|425:354,1,104.500003189087
430,338,268711,1,0,0:0:0:0:
430,338,268786,1,0,0:0:0:0:
281,286,268936,5,0,0:0:0:0:
263,237,269011,1,0,0:0:0:0:
268,185,269086,1,0,0:0:0:0:
278,134,269161,1,0,0:0:0:0:
261,86,269236,1,0,0:0:0:0:
220,54,269311,1,0,0:0:0:0:
169,49,269386,1,0,0:0:0:0:
122,71,269461,1,0,0:0:0:0:
94,114,269536,1,0,0:0:0:0:
93,166,269611,1,0,0:0:0:0:
119,210,269686,6,0,P|164:255|185:309,1,104.500003189087
301,80,269986,2,0,P|256:125|235:179,1,104.500003189087
319,324,270286,1,0,0:0:0:0:
409,130,270436,1,0,0:0:0:0:
181,151,270586,1,0,0:0:0:0:
427,231,270736,1,0,0:0:0:0:
136,242,270886,6,0,P|88:196|83:133,1,104.500003189087
181,333,271186,2,0,P|229:287|234:224,1,104.500003189087
132,127,271486,5,0,0:0:0:0:
5,321,271636,1,0,0:0:0:0:
91,61,271786,5,0,0:0:0:0:
230,287,271936,1,0,0:0:0:0:
302,42,272086,5,0,0:0:0:0:
103,227,272236,1,0,0:0:0:0:
362,306,272386,1,0,0:0:0:0:
199,45,272536,5,0,0:0:0:0:
157,313,272686,1,0,0:0:0:0:
410,216,272836,1,0,0:0:0:0:
149,202,272986,2,0,P|76:234|47:289,1,104.500003189087
283,241,273286,6,0,P|292:174|283:153,1,52.2500015945435
347,85,273436,2,0,P|284:110|271:128,1,52.2500015945435
179,107,273586,2,0,P|232:148|254:151,1,52.2500015945435
327,183,273736,5,0,0:0:0:0:
353,227,273811,1,0,0:0:0:0:
353,278,273886,1,0,0:0:0:0:
326,322,273961,1,0,0:0:0:0:
280,346,274036,2,0,P|220:351|206:344,1,52.2500015945435
144,288,274186,5,0,0:0:0:0:
139,231,274261,1,0,0:0:0:0:
164,181,274336,1,0,0:0:0:0:
211,150,274411,1,0,0:0:0:0:
267,147,274486,6,0,B|333:130|333:130|396:64,1,113.999996520996
128,29,274786,2,0,B|110:94|110:94|136:181,1,113.999996520996
192,303,275086,1,0,0:0:0:0:
210,132,275236,1,0,0:0:0:0:
18,174,275386,1,0,0:0:0:0:
284,68,275536,1,0,0:0:0:0:
192,303,275686,6,0,L|58:321,1,113.999996520996
389,236,275986,2,0,L|276:220,1,113.999996520996
81,75,276286,2,0,L|193:90,1,113.999996520996
34,217,276586,1,0,0:0:0:0:
281,168,276736,6,0,P|315:113|313:59,1,113.999996520996
72,86,277036,1,0,0:0:0:0:
267,275,277186,2,0,P|330:265|371:229,1,113.999996520996
240,117,277486,1,0,0:0:0:0:
267,357,277636,1,0,0:0:0:0:
391,141,277786,1,0,0:0:0:0:
135,162,277936,1,0,0:0:0:0:
385,245,278086,6,0,P|464:218|492:165,1,113.999996520996
480,196,278311,1,0,0:0:0:0:
480,196,278386,1,0,0:0:0:0:
265,106,278536,5,0,0:0:0:0:
214,130,278611,1,0,0:0:0:0:
181,176,278686,1,0,0:0:0:0:
175,232,278761,1,0,0:0:0:0:
195,285,278836,2,0,P|239:323|269:326,1,56.9999982604981
327,343,278986,5,0,0:0:0:0:
380,324,279061,1,0,0:0:0:0:
419,283,279136,1,0,0:0:0:0:
433,229,279211,1,0,0:0:0:0:
421,174,279286,5,0,0:0:0:0:
92,247,279436,1,0,0:0:0:0:
331,235,279586,5,0,0:0:0:0:
83,102,279736,1,0,0:0:0:0:
303,341,279886,5,0,0:0:0:0:
197,74,280036,1,0,0:0:0:0:
185,342,280186,5,0,0:0:0:0:
330,40,280336,1,0,0:0:0:0:
237,281,280486,5,0,0:0:0:0:
71,64,280636,1,0,0:0:0:0:
390,252,280786,5,0,0:0:0:0:
31,203,280936,1,0,0:0:0:0:
386,108,281086,5,0,0:0:0:0:
72,331,281236,1,0,0:0:0:0:
470,277,281386,5,0,0:0:0:0:
179,225,281536,1,0,0:0:0:0:
370,57,281686,5,0,0:0:0:0:
268,330,281836,1,0,0:0:0:0:
191,51,281986,5,0,0:0:0:0:
370,332,282136,1,0,0:0:0:0:
265,59,282286,5,0,0:0:0:0:
151,347,282436,1,0,0:0:0:0:
118,81,282586,5,0,0:0:0:0:
279,352,282736,1,0,0:0:0:0:
295,259,282886,6,0,P|281:197|257:171,1,56.9999982604981
214,144,283036,2,0,P|183:92|179:66,1,56.9999982604981
277,66,283186,1,0,0:0:0:0:
310,111,283261,1,0,0:0:0:0:
314,167,283336,1,0,0:0:0:0:
288,216,283411,1,0,0:0:0:0:
239,244,283486,5,0,0:0:0:0:
249,185,283561,1,0,0:0:0:0:
292,141,283636,1,0,0:0:0:0:
352,131,283711,1,0,0:0:0:0:
407,157,283786,1,0,0:0:0:0:
436,209,283861,1,0,0:0:0:0:
430,270,283936,1,0,0:0:0:0:
390,316,284011,1,0,0:0:0:0:
331,329,284086,5,0,0:0:0:0:
49,223,284236,1,0,0:0:0:0:
319,222,284386,5,0,0:0:0:0:
56,339,284536,1,0,0:0:0:0:
241,74,284686,5,0,0:0:0:0:
191,336,284836,1,0,0:0:0:0:
96,22,284986,5,0,0:0:0:0:
269,251,285136,1,0,0:0:0:0:
25,181,285286,5,0,0:0:0:0:
393,114,285436,1,0,0:0:0:0:
90,105,285586,5,0,0:0:0:0:
436,259,285736,1,0,0:0:0:0:
93,286,285886,5,0,0:0:0:0:
488,155,286036,1,0,0:0:0:0:
38,96,286186,5,0,0:0:0:0:
409,344,286336,1,0,0:0:0:0:
153,62,286486,5,0,0:0:0:0:
232,366,286636,1,0,0:0:0:0:
232,366,286786,1,0,0:0:0:0:
271,79,286936,5,0,0:0:0:0:
123,353,287086,5,0,0:0:0:0:
123,353,287236,1,0,0:0:0:0:
457,149,287386,5,0,0:0:0:0:
155,255,287536,2,0,P|75:250|13:195,1,123.499994346619
466,282,287836,5,0,0:0:0:0:
115,160,287986,2,0,P|65:101|57:45,1,123.499994346619
238,304,288286,6,0,L|284:353,1,61.7499971733095
251,277,288436,2,0,L|297:326,1,61.7499971733095
199,123,288886,5,0,0:0:0:0:
127,346,289036,1,0,0:0:0:0:
53,149,289186,1,0,0:0:0:0:
188,260,289336,5,0,0:0:0:0:
231,43,289486,1,0,0:0:0:0:
94,239,289636,1,0,0:0:0:0:
331,255,289786,6,0,L|457:217,1,123.499994346619
282,78,290086,1,0,0:0:0:0:
233,290,290236,2,0,P|272:343|334:359,1,123.499994346619
141,159,290536,1,0,0:0:0:0:
141,159,290611,1,0,0:0:0:0:
141,159,290686,6,0,L|96:294,1,123.499994346619
218,67,290986,2,0,L|263:202,1,123.499994346619
334,360,291286,6,0,P|413:307|438:233,1,142.5
442,212,291586,2,0,L|403:90,1,95
238,251,291886,2,0,L|277:129,1,95
312,38,292186,1,0,0:0:0:0:
130,220,292336,6,0,P|129:303|221:367,1,190
199,140,292786,2,0,P|137:114|73:132,1,95
59,293,293086,2,0,P|121:319|185:301,1,95
266,220,293386,1,0,0:0:0:0:
65,71,293536,6,0,B|32:161|32:161|65:251,1,190
214,351,293986,2,0,L|256:249,1,95
330,67,294286,2,0,L|366:154,1,95
429,283,294586,1,0,0:0:0:0:
218,150,294736,6,0,B|146:121|101:186|14:152,1,190
31,157,295111,1,0,0:0:0:0:
31,157,295186,1,0,0:0:0:0:
171,294,295336,5,0,0:0:0:0:
213,313,295411,1,0,0:0:0:0:
258,303,295486,1,0,0:0:0:0:
288,267,295561,1,0,0:0:0:0:
291,220,295636,1,0,0:0:0:0:
280,175,295711,1,0,0:0:0:0:
299,132,295786,1,0,0:0:0:0:
340,109,295861,1,0,0:0:0:0:
386,116,295936,1,0,0:0:0:0:
420,148,296011,1,0,0:0:0:0:
427,194,296086,6,0,L|400:291,1,95
202,189,296386,2,0,L|176:97,1,95
299,249,296686,2,0,L|271:345,1,95
103,221,296986,1,0,0:0:0:0:
243,67,297136,6,0,L|302:259,1,190
100,323,297586,2,0,P|31:298|4:242,1,95
34,89,297886,2,0,P|103:114|130:170,1,95
186,274,298186,1,0,0:0:0:0:
277,104,298336,6,0,P|322:63|470:82,1,190
413,266,298786,2,0,P|371:223|365:174,1,95
272,308,299086,2,0,P|200:344|161:338,1,95
47,279,299386,1,0,0:0:0:0:
237,210,299536,6,0,P|298:207|373:291,1,142.5
376,284,299836,1,0,0:0:0:0:
120,211,299986,2,0,P|75:149|132:73,1,142.5
151,68,300286,1,0,0:0:0:0:
197,78,300361,1,0,0:0:0:0:
243,89,300436,1,0,0:0:0:0:
289,100,300511,1,0,0:0:0:0:
335,111,300586,1,0,0:0:0:0:
382,122,300661,1,0,0:0:0:0:
428,133,300736,6,0,P|481:161|390:249,1,209.000006378174
211,244,301186,2,0,P|121:268|76:301,1,104.500003189087
315,324,301486,1,0,0:0:0:0:
40,225,301636,1,0,0:0:0:0:
150,348,301786,1,0,0:0:0:0:
250,133,301936,6,0,P|295:93|457:98,1,209.000006378174
220,230,302386,2,0,P|169:198|148:139,1,104.500003189087
342,220,302686,1,0,0:0:0:0:
52,249,302836,1,0,0:0:0:0:
249,92,302986,1,0,0:0:0:0:
274,340,303136,6,0,B|188:325|188:325|140:325|140:325|62:307,1,209.000006378174
248,255,303586,2,0,L|384:241,1,104.500003189087
51,206,303886,1,0,0:0:0:0:
308,128,304036,1,0,0:0:0:0:
154,257,304186,1,0,0:0:0:0:
282,40,304336,6,0,P|353:44|396:162,1,209.000006378174
379,199,304711,1,0,0:0:0:0:
379,199,304786,2,0,L|351:252,1,52.2500015945435
306,307,304936,5,0,0:0:0:0:
260,329,305011,1,0,0:0:0:0:
211,314,305086,1,0,0:0:0:0:
186,269,305161,1,0,0:0:0:0:
198,220,305236,1,0,0:0:0:0:
200,168,305311,1,0,0:0:0:0:
175,123,305386,1,0,0:0:0:0:
130,98,305461,1,0,0:0:0:0:
78,100,305536,1,0,0:0:0:0:
36,129,305611,1,0,0:0:0:0:
14,175,305686,6,0,L|54:337,1,142.5
136,355,305986,2,0,P|145:291|129:257,1,95
70,195,306286,1,0,0:0:0:0:
345,249,306436,1,0,0:0:0:0:
194,285,306586,1,0,0:0:0:0:
384,145,306736,6,0,P|439:183|442:309,1,190
245,216,307186,1,0,0:0:0:0:
422,51,307336,1,0,0:0:0:0:
237,74,307486,1,0,0:0:0:0:
433,244,307636,1,0,0:0:0:0:
433,244,307711,1,0,0:0:0:0:
433,244,307786,1,0,0:0:0:0:
185,205,307936,6,0,B|119:193|115:102|22:96,1,190
142,323,308386,1,0,0:0:0:0:
123,43,308536,1,0,0:0:0:0:
379,156,308686,1,0,0:0:0:0:
71,280,308836,1,0,0:0:0:0:
207,29,308986,1,0,0:0:0:0:
353,251,309136,6,0,B|426:361|426:361|465:275,1,190
449,308,309511,1,0,0:0:0:0:
449,308,309586,1,0,0:0:0:0:
395,145,309736,5,0,0:0:0:0:
348,137,309811,1,0,0:0:0:0:
303,149,309886,1,0,0:0:0:0:
266,179,309961,1,0,0:0:0:0:
246,222,310036,1,0,0:0:0:0:
205,266,310111,1,0,0:0:0:0:
146,283,310186,1,0,0:0:0:0:
87,266,310261,1,0,0:0:0:0:
46,221,310336,1,0,0:0:0:0:
35,161,310411,1,0,0:0:0:0:
58,103,310486,6,0,B|122:39|233:48|292:121|279:201|255:243|233:258|233:258|199:207|210:114|347:166|379:115|389:32|389:32|493:76|467:205|467:205|406:257|418:348|418:348|386:262|306:275|306:275|274:325|226:326|226:326|169:313|155:235|155:235|105:324|27:311|27:311|105:324|117:362,1,1672.00005102539
