osu file format v14

[General]
AudioFilename: audio.mp3
AudioLeadIn: 0
PreviewTime: 55592
Countdown: 1
SampleSet: None
StackLeniency: 0.7
Mode: 0
LetterboxInBreaks: 0
WidescreenStoryboard: 0

[Editor]
Bookmarks: 13340,23928,34516,45104,55700,69407,79999,90587,101182,128625,138914
DistanceSpacing: 1.2
BeatDivisor: 1
GridSize: 32
TimelineZoom: 1.9

[Metadata]
Title:Get Your Gunn
TitleUnicode:Get Your Gunn
Artist:Marilyn Manson
ArtistUnicode:Marilyn Manson
Creator:Veridian
Version:Insane
Source:
Tags:
BeatmapID:1750364
BeatmapSetID:835769

[Difficulty]
HPDrainRate:6
CircleSize:4.8
OverallDifficulty:8
ApproachRate:8.8
SliderMultiplier:1.8
SliderTickRate:1

[Events]
//Background and Video events
0,0,"64306559_p0.jpg",0,0
//Break Periods
2,2951,12148
2,69607,78925
//Storyboard Layer 0 (Background)
//Storyboard Layer 1 (Fail)
//Storyboard Layer 2 (Pass)
//Storyboard Layer 3 (Foreground)
//Storyboard Sound Samples

[TimingPoints]
545,441.176470588235,4,2,0,5,1,0
2309,-100,4,2,0,35,0,0
2751.81931327059,441.176470588235,4,2,0,50,1,0
12898,-83.3333333333333,4,2,0,50,0,0
13229,-83.3333333333333,4,2,0,5,0,0
13340,-125,4,2,0,50,0,0
15545,-83.3333333333333,4,2,0,50,0,0
15876,-83.3333333333333,4,2,0,5,0,0
15987,-125,4,2,0,50,0,0
18192,-83.3333333333333,4,2,0,50,0,0
18523,-83.3333333333333,4,2,0,5,0,0
18634,-125,4,2,0,50,0,0
20840,-83.3333333333333,4,2,0,50,0,0
21171,-83.3333333333333,4,2,0,5,0,0
21281,-125,4,2,0,50,0,0
23487,-200,4,2,0,50,0,0
23818,-83.3333333333333,4,2,0,5,0,0
23929,-100,4,2,0,50,0,0
26134,-83.3333333333333,4,2,0,50,0,0
26465,-83.3333333333333,4,2,0,5,0,0
26575,-100,4,2,0,50,0,0
28781,-83.3333333333333,4,2,0,50,0,0
29112,-83.3333333333333,4,2,0,5,0,0
29222,-100,4,2,0,50,0,0
31428,-83.3333333333333,4,2,0,50,0,0
31759,-83.3333333333333,4,2,0,5,0,0
31869,-100,4,2,0,50,0,0
34075,-83.3333333333333,4,2,0,50,0,0
34406,-83.3333333333333,4,2,0,5,0,0
34516,-100,4,2,0,60,0,0
36722,-83.3333333333333,4,2,0,60,0,0
37053,-83.3333333333333,4,2,0,60,0,0
37164,-100,4,2,0,60,0,0
39369,-83.3333333333333,4,2,0,60,0,0
39700,-83.3333333333333,4,2,0,5,0,0
39810,-100,4,2,0,60,0,0
42016,-83.3333333333333,4,2,0,60,0,0
42347,-83.3333333333333,4,2,0,5,0,0
42457,-100,4,2,0,60,0,0
44663,-83.3333333333333,4,2,0,60,0,0
44994,-83.3333333333333,4,2,0,5,0,0
45104,-133.333333333333,4,2,0,60,0,0
45766,-333.333333333333,4,2,0,60,0,0
46428,-133.333333333333,4,2,0,60,0,0
47310,-83.3333333333333,4,2,0,60,0,0
47641,-83.3333333333333,4,2,0,5,0,0
47751,-133.333333333333,4,2,0,60,0,0
48413,-333.333333333333,4,2,0,60,0,0
49075,-133.333333333333,4,2,0,60,0,0
49957,-83.3333333333333,4,2,0,60,0,0
50288,-83.3333333333333,4,2,0,5,0,0
50398,-133.333333333333,4,2,0,60,0,0
51060,-333.333333333333,4,2,0,60,0,0
51722,-133.333333333333,4,2,0,60,0,0
52604,-83.3333333333333,4,2,0,60,0,0
52935,-83.3333333333333,4,2,0,5,0,0
53045,-133.333333333333,4,2,0,60,0,0
53707,-333.333333333333,4,2,0,60,0,0
54369,-133.333333333333,4,2,0,60,0,0
55700,428.571428571429,4,2,0,70,1,1
60842,-100,4,2,0,60,0,0
61700,-50,4,2,0,100,0,1
62021,-50,4,2,0,5,0,1
62128,-50,4,2,0,100,0,1
62450,-50,4,2,0,5,0,1
62557,-100,4,2,0,70,0,1
67700,-100,4,2,0,60,0,0
68557,-50,4,2,0,100,0,1
68878,-50,4,2,0,5,0,1
68985,-50,4,2,0,100,0,1
69307,-50,4,2,0,5,0,1
69407,441.176470588235,4,2,0,60,1,0
79999,441.176470588235,4,2,0,60,1,0
79999,-133.333333333333,4,2,0,60,0,0
81322,-142.857142857143,4,2,0,60,0,0
82204,-153.846153846154,4,2,0,60,0,0
83307,-181.818181818182,4,2,0,45,0,0
83969,-370.37037037037,4,2,1,60,0,0
85293,-153.846153846154,4,2,0,60,0,0
88601,-133.333333333334,4,2,0,60,0,0
89263,-153.846153846154,4,2,0,60,0,0
90587,441.176470588235,4,2,0,60,1,0
90587,-66.6666666666667,4,2,0,60,0,0
90697,-66.6666666666667,4,2,0,5,0,0
91248,-66.6666666666667,4,2,0,60,0,0
91358,-66.6666666666667,4,2,0,5,0,0
91910,-200,4,2,0,60,0,0
92020,-66.6666666666667,4,2,0,5,0,0
92351,-66.6666666666667,4,2,0,60,0,0
92461,-66.6666666666667,4,2,0,5,0,0
92792,-66.6666666666667,4,2,0,60,0,0
92902,-66.6666666666667,4,2,0,5,0,0
93234,-66.6666666666667,4,2,0,65,0,0
93344,-66.6666666666667,4,2,0,5,0,0
93895,-66.6666666666667,4,2,0,60,0,0
94005,-66.6666666666667,4,2,0,5,0,0
94557,-200,4,2,0,60,0,0
94667,-66.6666666666667,4,2,0,5,0,0
94998,-66.6666666666667,4,2,0,60,0,0
95108,-66.6666666666667,4,2,0,5,0,0
95439,-66.6666666666667,4,2,0,60,0,0
95549,-66.6666666666667,4,2,0,5,0,0
95881,-66.6666666666667,4,2,0,70,0,0
95991,-66.6666666666667,4,2,0,5,0,0
96542,-66.6666666666667,4,2,0,70,0,0
96652,-66.6666666666667,4,2,0,5,0,0
97204,-200,4,2,0,70,0,0
97314,-66.6666666666667,4,2,0,5,0,0
97645,-66.6666666666667,4,2,0,60,0,0
97755,-66.6666666666667,4,2,0,5,0,0
98087,-66.6666666666667,4,2,0,60,0,0
98197,-66.6666666666667,4,2,0,5,0,0
98528,-66.6666666666667,4,2,0,75,0,0
98638,-66.6666666666667,4,2,0,5,0,0
99189,-66.6666666666667,4,2,0,75,0,0
99299,-66.6666666666667,4,2,0,5,0,0
99851,-66.6666666666667,4,2,0,30,0,0
101182,428.571428571429,4,2,0,70,1,1
106324,-100,4,2,0,60,0,0
107182,-50,4,2,0,100,0,1
107503,-50,4,2,0,5,0,1
107610,-50,4,2,0,100,0,1
107932,-50,4,2,0,5,0,1
108039,-100,4,2,0,70,0,1
113182,-100,4,2,0,60,0,0
114049,428.571428571429,4,2,0,60,1,1
114049,-50,4,2,0,100,0,1
114370,-50,4,2,0,5,0,1
114477,-50,4,2,0,100,0,1
114799,-50,4,2,0,5,0,1
114911,428.571428571429,4,2,0,60,1,1
114911,-100,4,2,0,75,0,1
120053,-100,4,2,0,60,0,0
120911,-50,4,2,0,100,0,1
121232,-50,4,2,0,5,0,1
121339,-50,4,2,0,100,0,1
121661,-50,4,2,0,5,0,1
121768,-100,4,2,0,75,0,1
126911,-100,4,2,0,60,0,0
127768,-50,4,2,0,100,0,1
128089,-50,4,2,0,5,0,1
128196,-50,4,2,0,100,0,1
128518,-50,4,2,0,5,0,1
128629,428.571428571429,4,2,0,60,1,0
128629,-66.6666666666667,4,2,0,60,0,0
128736,-66.6666666666667,4,2,0,5,0,0
129271,-66.6666666666667,4,2,0,60,0,0
129378,-66.6666666666667,4,2,0,5,0,0
129914,-266.666666666667,4,2,0,60,0,0
130343,-66.6666666666667,4,2,0,5,0,0
131200,-66.6666666666667,4,2,0,65,0,0
131307,-66.6666666666667,4,2,0,5,0,0
131843,-66.6666666666667,4,2,0,65,0,0
131950,-66.6666666666667,4,2,0,5,0,0
132486,-266.666666666667,4,2,0,65,0,0
132914,-66.6666666666667,4,2,0,5,0,0
133771,-66.6666666666667,4,2,0,70,0,0
133879,-66.6666666666667,4,2,0,5,0,0
134414,-66.6666666666667,4,2,0,70,0,0
134521,-66.6666666666667,4,2,0,5,0,0
135057,-266.666666666667,4,2,0,70,0,0
135486,-66.6666666666667,4,2,0,5,0,0
136343,-66.6666666666667,4,2,0,75,0,0
136450,-66.6666666666667,4,2,0,5,0,0
136986,-66.6666666666667,4,2,0,75,0,0
137093,-66.6666666666667,4,2,0,5,0,0
137629,-266.666666666667,4,2,0,75,0,0
138057,-66.6666666666667,4,2,0,5,0,0
138914,-28.5714285714286,4,2,0,100,0,0
139129,-66.6666666666667,4,2,0,5,0,0

[Colours]
Combo1 : 226,222,141
Combo2 : 146,126,97
Combo3 : 133,129,154
Combo4 : 113,138,104

[HitObjects]
256,192,545,12,2,2310,0:0:0:0:
256,192,2751,5,4,0:3:0:0:
307,83,12898,6,0,B|427:115|463:59|423:35|371:67,1,161.999995056153,2|0,0:3|0:3,0:3:0:0:
252,28,13340,6,0,L|279:185,1,144,4|4,0:3|0:3,0:3:0:0:
212,288,14001,2,0,L|196:201,1,72,2|4,0:3|0:3,0:3:0:0:
199,217,14442,1,2,0:3:0:0:
276,344,14663,2,0,P|221:373|135:319,1,144,4|4,0:3|0:3,0:3:0:0:
168,128,15545,6,0,B|272:80|316:144|284:176|232:144,1,161.999995056153,2|0,0:3|0:3,0:3:0:0:
104,192,15987,6,0,P|75:137|129:51,1,144,4|4,0:3|0:3,0:3:0:0:
200,20,16648,2,0,L|286:35,1,72,2|4,0:3|0:3,0:3:0:0:
270,32,17090,1,2,0:3:0:0:
309,153,17310,2,0,L|167:127,1,144,4|4,0:3|0:3,0:3:0:0:
404,132,18192,6,0,B|452:236|388:280|356:248|388:196,1,161.999995056153,2|0,0:3|0:3,0:3:0:0:
340,68,18634,6,0,P|395:39|481:93,1,144,4|4,0:3|0:3,0:3:0:0:
512,160,19295,2,0,L|493:262,1,72,2|4,0:3|0:3,0:3:0:0:
499,230,19737,1,2,0:3:0:0:
378,273,19957,2,0,L|404:131,1,144,4|4,0:3|0:3,0:3:0:0:
296,184,20840,6,0,B|192:232|148:168|180:136|232:168,1,161.999995056153,2|0,0:3|0:3,0:3:0:0:
112,240,21281,6,0,B|84:176|84:176|116:97,1,144,4|4,0:3|0:3,0:3:0:0:
206,71,21942,2,0,P|248:62|290:83,1,72,2|4,0:3|0:3,0:3:0:0:
274,70,22384,1,2,0:3:0:0:
301,179,22604,2,0,P|229:211|173:167,1,144,4|0,0:3|0:3,0:3:0:0:
389,116,23487,6,0,P|415:112|399:144,1,67.5,2|0,1:2|0:0,0:0:0:0:
356,32,23928,6,0,P|408:16|481:57,1,107.999996704102,4|0,1:2|0:0,0:0:0:0:
457,32,24369,1,4,0:3:0:0:
304,172,24590,2,0,L|281:45,1,90,2|4,1:2|0:3,0:0:0:0:
288,83,25031,1,2,0:0:0:0:
432,252,25251,2,0,B|352:200|352:292|260:252,1,180,4|4,1:3|0:3,0:0:0:0:
144,212,26134,6,0,B|181:182|181:182|160:304,1,161.999995056153,2|0,0:2|0:0,0:0:0:0:
140,104,26575,6,0,P|183:90|240:120,1,90,4|0,1:3|0:0,0:0:0:0:
224,103,27016,1,4,0:3:0:0:
364,204,27237,2,0,P|321:218|264:188,1,90,2|4,1:2|0:3,0:0:0:0:
279,204,27678,1,0,0:0:0:0:
428,128,27898,2,0,P|464:176|412:288,1,180,4|4,1:3|0:3,0:0:0:0:
228,336,28781,6,0,B|340:316|340:316|310:353,1,161.999995056153,2|0,1:2|0:0,0:0:0:0:
140,380,29222,6,0,P|127:329|153:281,1,90,4|0,1:3|0:0,0:0:0:0:
139,295,29663,1,0,0:0:0:0:
312,220,29884,2,0,P|261:233|213:207,1,90,2|4,1:2|0:3,0:0:0:0:
227,221,30325,1,2,0:0:0:0:
196,120,30545,2,0,P|252:76|348:144,1,180,4|4,1:3|0:3,0:0:0:0:
108,152,31428,6,0,B|88:40|88:40|125:70,1,161.999995056153,2|0,1:2|0:0,0:0:0:0:
140,256,31869,6,0,L|21:235,1,90,4|0,1:3|0:0,0:0:0:0:
51,240,32310,1,4,0:3:0:0:
192,168,32531,2,0,L|310:188,1,90,2|0,1:2|0:0,0:0:0:0:
281,184,32972,1,2,0:2:0:0:
180,296,33192,2,0,L|-20:260,1,180,4|4,1:3|0:3,0:0:0:0:
268,268,34075,6,0,B|288:380|288:380|251:350,1,161.999995056153,2|0,1:2|0:0,0:0:0:0:
224,185,34516,6,0,P|283:174|324:197,1,90,4|0,1:2|0:0,0:0:0:0:
356,264,34957,1,4,1:3:0:0:
140,228,35178,2,0,P|129:169|152:128,1,90,2|4,0:0|1:3,0:0:0:0:
216,84,35619,1,2,0:0:0:0:
220,276,35840,2,0,L|38:244,1,180,2|4,1:2|1:3,0:0:0:0:
316,252,36722,6,0,B|296:288|380:348|316:408|244:348|332:288,1,161.999995056153,2|0,1:2|0:0,0:0:0:0:
268,184,37163,6,0,B|316:164|316:164|416:204,1,107.999996704102,4|0,1:3|0:0,0:0:0:0:
200,288,37604,1,4,1:3:0:0:
64,180,37825,2,0,L|83:69,1,90,2|4,0:0|1:3,0:0:0:0:
96,0,38266,1,2,0:0:0:0:
231,110,38487,2,0,L|196:306,1,180,4|4,1:3|1:3,0:0:0:0:
328,204,39369,6,0,B|364:224|424:140|484:204|424:276|364:188,1,161.999995056153,2|0,1:2|0:0,0:0:0:0:
364,104,39810,6,0,P|417:93|475:125,1,90,4|0,1:3|0:0,0:0:0:0:
256,16,40251,1,4,1:3:0:0:
148,104,40472,2,0,P|95:93|37:125,1,90,2|4,0:0|1:3,0:0:0:0:
104,200,40913,1,2,0:0:0:0:
27,264,41134,2,0,P|87:300|193:246,1,180,4|4,1:3|1:3,0:0:0:0:
256,152,42016,6,0,B|276:116|192:56|256:-4|328:56|240:116,1,161.999995056153,2|0,1:2|0:0,0:0:0:0:
162,114,42457,6,0,P|149:72|183:7,1,90,4|0,1:3|0:0,0:0:0:0:
364,140,42898,1,4,1:3:0:0:
300,220,43119,2,0,P|258:233|193:199,1,90,2|4,0:0|1:3,0:0:0:0:
162,114,43560,1,2,0:0:0:0:
364,140,43781,2,0,P|400:196|332:312,1,180,2|4,1:2|1:3,0:0:0:0:
144,304,44663,6,0,B|108:284|48:368|-12:304|48:232|108:320,1,161.999995056153,2|0,1:2|0:0,0:0:0:0:
204,360,45104,6,0,B|176:202,1,135.000005149842,4|4,1:3|0:3,0:0:0:0:
164,132,45766,2,0,P|155:124|173:130,1,53.9999983520508,6|0,1:2|2:0,0:0:0:0:
88,184,46428,2,0,P|63:127|93:58,1,135.000005149842,4|4,1:3|0:3,0:0:0:0:
368,304,47310,6,0,B|404:284|464:368|524:304|464:232|404:320,1,161.999995056153,2|0,1:2|0:0,0:0:0:0:
308,360,47751,6,0,B|335:202,1,135.000005149842,4|4,1:3|0:3,0:0:0:0:
348,132,48413,2,0,P|356:124|339:130,1,53.9999983520508,6|0,1:2|2:0,0:0:0:0:
424,184,49075,2,0,P|449:127|419:58,1,135.000005149842,4|4,1:3|0:3,0:0:0:0:
332,20,49737,1,0,0:0:0:0:
152,144,49957,6,0,B|37:164|37:164|89:114,1,161.999995056153,2|0,1:2|0:0,0:0:0:0:
204,92,50398,6,0,L|179:231,1,135.000005149842,4|4,1:3|0:3,0:0:0:0:
156,312,51060,2,0,P|148:320|165:314,1,53.9999983520508,6|0,1:2|2:0,0:0:0:0:
72,260,51722,2,0,B|44:320|44:320|80:408,1,135.000005149842,4|4,1:3|0:3,0:0:0:0:
360,144,52604,6,0,B|475:164|475:164|423:114,1,161.999995056153,2|0,1:2|0:0,0:0:0:0:
308,92,53045,6,0,L|333:231,1,135.000005149842,4|4,1:3|0:3,0:0:0:0:
356,312,53707,2,0,P|364:320|347:314,1,53.9999983520508,6|0,1:2|2:0,0:0:0:0:
440,260,54369,2,0,B|468:320|468:320|432:408,2,135.000005149842,4|4|4,1:3|0:3|1:3,0:0:0:0:
191,146,55700,5,4,0:2:0:0:
104,161,55914,1,2,1:2:0:0:
17,177,56128,1,0,0:2:0:0:
108,304,56342,1,6,0:2:0:0:
195,319,56556,1,0,1:2:0:0:
281,335,56770,1,2,0:2:0:0:
248,64,56985,5,4,0:2:0:0:
143,82,57199,1,2,1:2:0:0:
39,100,57413,1,0,0:0:0:0:
156,244,57628,1,6,0:2:0:0:
261,262,57842,1,0,1:2:0:0:
365,280,58057,1,2,0:0:0:0:
184,148,58271,5,4,0:2:0:0:
256,360,58485,1,0,1:2:0:0:
328,148,58700,1,6,0:2:0:0:
256,376,58914,1,2,1:2:0:0:
376,72,59128,5,6,0:2:0:0:
424,148,59342,1,0,1:0:0:0:
376,224,59557,1,2,0:0:0:0:
212,240,59771,5,4,0:0:0:0:
155,148,59986,1,2,1:2:0:0:
212,57,60200,1,0,0:0:0:0:
396,40,60414,5,6,0:2:0:0:
464,148,60628,1,2,1:2:0:0:
396,260,60843,1,0,1:0:0:0:
112,60,61057,5,12,0:3:0:0:
368,148,61271,1,4,0:3:0:0:
116,276,61485,1,4,0:3:0:0:
416,64,61700,6,0,L|363:359,1,270,6|0,1:0|0:0,0:0:0:0:
320,8,62128,2,0,L|267:303,1,270,6|0,1:0|0:0,0:0:0:0:
256,368,62557,5,6,1:2:0:0:
169,352,62771,1,0,1:2:0:0:
82,337,62985,1,2,0:0:0:0:
256,280,63200,5,4,1:2:0:0:
343,264,63414,1,2,1:2:0:0:
430,249,63628,1,0,0:0:0:0:
212,176,63842,5,6,0:2:0:0:
107,156,64056,1,2,1:2:0:0:
3,138,64270,1,0,0:0:0:0:
300,64,64485,5,6,0:2:0:0:
405,44,64699,1,0,1:2:0:0:
509,26,64913,1,2,0:0:0:0:
156,80,65128,5,4,0:0:0:0:
256,288,65342,1,0,1:0:0:0:
356,80,65557,1,6,0:0:0:0:
256,304,65771,1,0,1:0:0:0:
440,108,65985,5,4,0:0:0:0:
356,80,66200,1,0,1:0:0:0:
296,148,66414,1,2,0:0:0:0:
256,304,66628,5,6,0:0:0:0:
356,337,66843,1,0,1:0:0:0:
428,256,67057,1,2,0:0:0:0:
464,40,67271,5,4,0:0:0:0:
344,0,67486,1,0,1:2:0:0:
257,97,67700,1,0,1:2:0:0:
468,192,67914,5,12,0:3:0:0:
210,313,68128,1,4,0:3:0:0:
492,180,68342,1,4,0:3:0:0:
164,48,68557,6,0,L|218:359,1,270,6|0,1:0|0:0,0:0:0:0:
268,72,68985,2,0,L|322:383,1,270,6|0,1:0|0:0,0:0:0:0:
392,376,69407,5,6,1:2:0:0:
100,168,79554,5,2,1:2:0:0:
100,192,79999,6,0,P|108:236|204:272,1,135.000005149842,4|4,1:3|0:3,0:0:0:0:
228,352,80660,2,0,P|262:323|245:221,1,135.000005149842,2|2,0:0|0:0,0:0:0:0:
292,160,81322,2,0,P|226:155|182:205,1,125.999996154785,4|4,0:3|0:3,0:0:0:0:
360,320,82204,1,2,1:2:0:0:
388,304,82646,6,0,B|387:291|387:291|382:284|382:284|385:276|385:276|379:264|379:264|380:252|380:252|375:245|375:245|377:232|377:232|371:221|371:221|373:213|373:213|368:206|368:206|368:195,1,116.999994644165,4|4,1:3|0:3,0:0:0:0:
252,136,83307,2,2,B|249:144|249:144|258:147|258:147|250:152|250:152|259:155|259:155|252:164|252:164|261:166|261:166|254:172|254:172|262:174|262:174|255:180|255:180|264:182|264:182|256:201,1,99.0000030212403,2|2,0:0|0:0,1:0:0:0:
344,88,83969,2,2,B|347:80|347:80|338:77|338:77|346:72|346:72|337:69|337:69|344:60|344:60|335:58|335:58|342:52|342:52|334:50|334:50|341:44|341:44|332:40|332:40|342:35,1,97.2000023730469,4|4,0:3|1:3,1:0:0:0:
232,76,85293,6,0,B|188:68|188:68|166:76|166:76|115:67,1,116.999994644165,6|4,1:3|0:3,0:0:0:0:
0,148,85954,2,0,B|21:144|21:144|32:148|32:148|58:143,1,58.4999973220826,2|4,1:3|0:3,0:0:0:0:
57,144,86396,1,2,0:0:0:0:
228,240,86616,2,0,B|184:232|184:232|162:240|162:240|111:231,1,116.999994644165,6|4,0:3|0:3,0:0:0:0:
304,328,87499,1,4,1:3:0:0:
328,300,87940,6,0,L|304:166,1,116.999994644165,6|0,0:3|0:0,0:0:0:0:
420,344,88601,2,0,L|396:210,1,135.000005149842,2|2,0:3|0:0,0:0:0:0:
490,268,89263,2,0,L|466:134,1,116.999994644165,4|4,1:3|0:3,0:0:0:0:
452,70,90146,1,4,3:0:0:0:
188,195,90587,6,0,P|149:202|89:169,1,67.5000025749208,12|0,1:3|0:0,0:0:0:0:
296,245,91248,2,0,P|321:274|322:343,1,67.5000025749208,12|0,1:3|0:0,0:0:0:0:
284,128,91910,2,0,P|296:91|356:55,1,67.5000025749208,4|0,0:1|0:0,0:0:0:0:
256,192,92351,1,2,0:0:0:0:
256,192,92792,1,2,0:0:0:0:
218,264,93234,6,0,P|202:309|131:352,1,67.5000025749208,12|0,1:3|0:0,0:0:0:0:
335,182,93895,2,0,P|382:172|454:213,1,67.5000025749208,12|0,1:3|0:0,0:0:0:0:
206,124,94557,2,0,P|175:89|172:16,1,67.5000025749208,4|0,0:1|0:0,0:0:0:0:
256,192,94998,1,2,0:0:0:0:
256,192,95439,1,2,0:0:0:0:
157,196,95881,6,0,P|102:207|39:175,1,67.5000025749208,12|0,1:3|0:0,0:0:0:0:
314,269,96542,2,0,P|350:312|356:384,1,67.5000025749208,12|0,1:3|0:0,0:0:0:0:
295,100,97204,2,0,P|314:47|377:8,1,67.5000025749208,4|0,0:1|0:0,0:0:0:0:
256,192,97645,5,2,0:0:0:0:
256,192,98087,1,2,0:0:0:0:
80,75,98528,6,0,L|164:88,1,67.5000025749208,12|0,1:3|0:0,0:0:0:0:
431,75,99189,2,0,L|347:88,1,67.5000025749208,12|0,1:3|0:0,0:0:0:0:
256,250,99851,2,2,L|256:271,41,16.8750006437302,2|2|2|2|2|2|2|2|2|2|2|2|2|2|2|2|2|2|2|2|2|2|2|2|2|2|2|2|2|2|2|2|2|2|2|2|2|2|2|2|2|2,0:3|0:3|0:3|0:3|0:3|0:3|0:3|0:3|0:3|0:3|0:3|0:3|0:3|0:3|0:3|0:3|0:3|0:3|0:3|0:3|0:3|0:3|0:3|0:3|0:3|0:3|0:3|0:3|0:3|0:3|0:3|0:3|0:3|0:3|0:3|0:3|0:3|0:3|0:3|0:3|0:3|0:3,0:3:0:0:
336,144,101175,5,6,0:0:0:0:
256,96,101396,1,2,1:2:0:0:
176,144,101610,1,0,0:0:0:0:
256,268,101824,1,6,0:0:0:0:
336,316,102039,1,0,1:2:0:0:
416,268,102253,1,2,0:0:0:0:
336,112,102467,5,4,0:0:0:0:
240,54,102682,1,2,1:2:0:0:
144,112,102896,1,0,0:0:0:0:
256,292,103110,1,6,0:0:0:0:
352,350,103324,1,0,1:2:0:0:
448,292,103539,1,2,0:0:0:0:
280,64,103753,5,4,0:0:0:0:
352,244,103967,1,0,1:2:0:0:
428,64,104182,1,6,0:0:0:0:
352,272,104396,1,2,1:2:0:0:
148,112,104610,5,6,0:0:0:0:
135,201,104824,1,0,1:2:0:0:
120,289,105039,1,2,0:0:0:0:
312,360,105253,1,4,0:0:0:0:
297,250,105467,1,2,1:2:0:0:
281,145,105682,1,0,0:0:0:0:
124,64,105896,1,6,0:0:0:0:
105,189,106111,1,2,1:2:0:0:
86,308,106324,1,0,1:0:0:0:
304,44,106539,5,12,0:3:0:0:
36,124,106753,1,4,0:3:0:0:
300,228,106967,1,4,0:3:0:0:
8,28,107182,6,0,L|59:319,1,270,6|0,1:0|0:0,0:0:0:0:
108,36,107610,2,0,L|159:327,1,270,6|0,1:0|0:0,0:0:0:0:
172,380,108039,5,6,0:2:0:0:
254,365,108253,1,0,1:2:0:0:
333,351,108467,1,0,0:2:0:0:
424,224,108682,1,4,0:2:0:0:
342,239,108896,1,2,1:2:0:0:
263,253,109110,1,0,0:2:0:0:
84,376,109324,5,6,0:2:0:0:
182,358,109538,1,2,1:2:0:0:
277,341,109752,1,0,0:2:0:0:
436,128,109967,1,6,0:2:0:0:
336,144,110182,1,0,1:2:0:0:
243,163,110395,1,2,0:2:0:0:
360,264,110610,5,4,0:2:0:0:
256,80,110824,1,0,1:2:0:0:
152,264,111039,1,6,0:2:0:0:
256,56,111253,1,0,1:2:0:0:
216,312,111467,5,6,0:2:0:0:
136,352,111682,1,0,1:2:0:0:
76,284,111896,1,0,0:2:0:0:
88,114,112110,1,6,0:2:0:0:
160,32,112324,1,0,1:2:0:0:
256,80,112539,1,2,0:2:0:0:
256,304,112753,1,6,0:2:0:0:
140,361,112967,1,0,1:2:0:0:
54,263,113182,1,0,1:2:0:0:
408,176,113396,5,12,0:3:0:0:
152,264,113610,1,4,0:3:0:0:
408,360,113824,1,4,0:3:0:0:
140,72,114049,6,0,L|193:375,1,270,6|0,1:1|0:2,0:2:0:0:
220,24,114477,2,0,L|273:327,1,270,6|0,1:1|0:2,0:2:0:0:
288,376,114911,5,6,0:0:0:0:
396,376,115125,1,2,1:3:0:0:
440,276,115339,1,0,0:3:0:0:
436,96,115553,5,6,0:0:0:0:
328,96,115767,1,2,1:3:0:0:
284,196,115982,1,2,0:3:0:0:
276,384,116196,5,4,0:0:0:0:
405,384,116411,1,2,1:3:0:0:
458,263,116624,1,0,0:0:0:0:
432,72,116839,5,6,0:0:0:0:
303,72,117053,1,2,1:3:0:0:
250,193,117268,1,2,0:3:0:0:
124,112,117482,5,4,0:0:0:0:
348,192,117696,1,0,1:0:0:0:
124,308,117911,1,6,0:0:0:0:
368,192,118125,1,2,1:3:0:0:
148,108,118339,5,6,0:0:0:0:
254,89,118553,1,0,1:0:0:0:
360,70,118768,1,2,0:3:0:0:
384,240,118982,5,4,0:0:0:0:
256,217,119196,1,2,1:3:0:0:
129,194,119411,1,0,0:0:0:0:
104,384,119625,5,6,0:0:0:0:
256,356,119839,1,2,1:3:0:0:
410,328,120054,1,0,1:0:0:0:
168,80,120268,5,12,0:3:0:0:
256,344,120482,1,8,0:3:0:0:
344,84,120696,1,8,0:3:0:0:
72,332,120911,6,0,L|402:273,1,270,6|0,1:0|0:0,0:0:0:0:
16,244,121339,2,2,L|346:185,1,270,6|2,1:0|0:0,0:0:0:0:
376,176,121768,5,6,0:0:0:0:
444,92,121982,1,0,1:0:0:0:
376,8,122196,1,2,0:3:0:0:
232,124,122411,5,4,0:0:0:0:
164,208,122625,1,2,1:3:0:0:
232,292,122839,1,0,0:0:0:0:
384,220,123053,5,6,0:0:0:0:
465,119,123267,1,2,1:3:0:0:
384,18,123481,1,0,0:0:0:0:
196,88,123696,5,6,0:0:0:0:
115,189,123910,1,0,1:0:0:0:
196,290,124124,1,2,0:3:0:0:
484,96,124339,5,4,0:0:0:0:
248,188,124553,1,2,1:3:0:0:
483,258,124768,1,6,0:0:0:0:
220,188,124982,1,0,1:0:0:0:
388,80,125196,5,6,0:0:0:0:
369,186,125411,1,0,1:0:0:0:
350,292,125625,1,2,0:3:0:0:
208,316,125839,5,6,0:0:0:0:
185,188,126053,1,0,1:0:0:0:
162,61,126268,1,2,0:3:0:0:
416,32,126482,5,6,0:0:0:0:
388,184,126697,1,0,1:0:0:0:
360,338,126911,1,0,1:0:0:0:
240,96,127125,5,12,0:3:0:0:
504,184,127339,1,4,0:3:0:0:
240,280,127553,1,4,0:3:0:0:
416,32,127768,6,0,L|104:86,1,270,6|0,1:0|0:0,0:0:0:0:
404,128,128196,2,0,L|92:182,1,270,6|0,1:0|0:0,0:0:0:0:
44,192,128629,6,0,L|-28:256,1,67.5000025749208,12|0,0:3|0:0,0:0:0:0:
96,288,129271,2,0,L|60:380,1,67.5000025749208,12|0,0:3|0:0,0:0:0:0:
204,252,129914,2,0,L|212:360,1,67.5000025749208,12|0,0:3|0:0,0:0:0:0:
468,192,131200,6,0,L|540:256,1,67.5000025749208,12|0,0:3|0:0,0:0:0:0:
416,288,131843,2,0,L|452:380,1,67.5000025749208,12|0,0:3|0:0,0:0:0:0:
308,252,132486,2,0,L|300:360,1,67.5000025749208,12|0,0:3|0:0,0:0:0:0:
44,192,133771,6,0,L|-28:128,1,67.5000025749208,12|0,0:3|0:0,0:0:0:0:
96,96,134414,2,0,L|60:4,1,67.5000025749208,12|0,0:3|0:0,0:0:0:0:
204,132,135057,2,0,L|212:24,1,67.5000025749208,12|0,0:3|0:0,0:0:0:0:
468,192,136343,6,0,L|540:128,1,67.5000025749208,12|0,0:3|0:0,0:0:0:0:
416,96,136986,2,0,L|452:4,1,67.5000025749208,12|0,0:3|0:0,0:0:0:0:
308,132,137629,2,0,L|300:24,1,67.5000025749208,12|0,0:3|0:0,0:0:0:0:
149,256,138914,6,0,B|277:312|277:312|233:312|233:312|369:252,1,315.000003004074,2|0,1:0|0:0,0:0:0:0:
