osu file format v14

[General]
AudioFilename: audio.mp3
AudioLeadIn: 0
PreviewTime: 55592
Countdown: 1
SampleSet: None
StackLeniency: 0.7
Mode: 0
LetterboxInBreaks: 0
WidescreenStoryboard: 1

[Editor]
Bookmarks: 13340,23928,34516,45104,55700,69407,79999,90587,101182,128625,138914
DistanceSpacing: 1
BeatDivisor: 1
GridSize: 32
TimelineZoom: 0.8999997

[Metadata]
Title:Get Your Gunn
TitleUnicode:Get Your Gunn
Artist:Marilyn Manson
ArtistUnicode:Marilyn Manson
Creator:Veridian
Version:Easy
Source:
Tags:
BeatmapID:1750363
BeatmapSetID:835769

[Difficulty]
HPDrainRate:4
CircleSize:4.8
OverallDifficulty:4
ApproachRate:2
SliderMultiplier:0.799999999999999
SliderTickRate:1

[Events]
//Background and Video events
0,0,"64306559_p0.jpg",0,0
//Break Periods
2,2951,11780
2,69607,78439
//Storyboard Layer 0 (Background)
//Storyboard Layer 1 (Fail)
//Storyboard Layer 2 (Pass)
//Storyboard Layer 3 (Foreground)
//Storyboard Sound Samples

[TimingPoints]
545,441.176470588235,4,2,0,5,1,0
2309,-100,4,2,0,35,0,0
2751.81931327059,441.176470588235,4,2,0,50,1,0
12898,-100,4,2,0,50,0,0
13229,-100,4,2,0,5,0,0
13340,-100,4,2,0,50,0,0
15545,-100,4,2,0,50,0,0
15876,-100,4,2,0,5,0,0
15987,-100,4,2,0,50,0,0
18192,-100,4,2,0,50,0,0
18523,-100,4,2,0,5,0,0
18634,-100,4,2,0,50,0,0
20840,-100,4,2,0,50,0,0
21171,-100,4,2,0,5,0,0
21281,-100,4,2,0,50,0,0
23487,-100,4,2,0,50,0,0
23818,-100,4,2,0,5,0,0
23929,-100,4,2,0,50,0,0
26134,-100,4,2,0,50,0,0
26465,-100,4,2,0,5,0,0
26575,-100,4,2,0,50,0,0
28781,-100,4,2,0,50,0,0
29112,-100,4,2,0,5,0,0
29222,-100,4,2,0,50,0,0
31428,-100,4,2,0,50,0,0
31759,-100,4,2,0,5,0,0
31869,-100,4,2,0,50,0,0
34075,-100,4,2,0,50,0,0
34406,-100,4,2,0,5,0,0
34516,-100,4,2,0,60,0,0
36722,-100,4,2,0,60,0,0
37053,-100,4,2,0,60,0,0
37164,-100,4,2,0,60,0,0
39369,-100,4,2,0,60,0,0
39700,-100,4,2,0,5,0,0
39810,-100,4,2,0,60,0,0
42016,-100,4,2,0,60,0,0
42347,-100,4,2,0,5,0,0
42457,-100,4,2,0,60,0,0
44663,-100,4,2,0,60,0,0
44994,-100,4,2,0,5,0,0
45104,-100,4,2,0,60,0,0
45766,-100,4,2,0,60,0,0
46428,-100,4,2,0,60,0,0
47310,-100,4,2,0,60,0,0
47641,-100,4,2,0,5,0,0
47751,-100,4,2,0,60,0,0
48413,-100,4,2,0,60,0,0
49075,-100,4,2,0,60,0,0
49957,-100,4,2,0,60,0,0
50288,-100,4,2,0,5,0,0
50398,-100,4,2,0,60,0,0
51060,-100,4,2,0,60,0,0
51722,-100,4,2,0,60,0,0
52604,-100,4,2,0,60,0,0
52935,-100,4,2,0,5,0,0
53045,-100,4,2,0,60,0,0
53707,-100,4,2,0,60,0,0
54369,-100,4,2,0,60,0,0
55700,428.571428571429,4,2,0,70,1,1
60842,-100,4,2,0,60,0,0
61700,-100,4,2,0,100,0,1
62021,-100,4,2,0,5,0,1
62128,-100,4,2,0,100,0,1
62450,-100,4,2,0,5,0,1
62557,-100,4,2,0,70,0,1
67700,-100,4,2,0,60,0,0
68557,-100,4,2,0,100,0,1
68878,-100,4,2,0,5,0,1
68985,-100,4,2,0,100,0,1
69307,-100,4,2,0,5,0,1
69407,441.176470588235,4,2,0,60,1,0
79999,441.176470588235,4,2,0,60,1,0
79999,-100,4,2,0,60,0,0
81322,-100,4,2,0,60,0,0
82204,-100,4,2,0,60,0,0
83307,-100,4,2,0,45,0,0
83969,-100,4,2,1,60,0,0
85293,-100,4,2,0,60,0,0
88601,-100,4,2,0,60,0,0
89263,-100,4,2,0,60,0,0
90587,441.176470588235,4,2,0,60,1,0
90587,-100,4,2,0,60,0,0
90697,-100,4,2,0,5,0,0
91248,-100,4,2,0,60,0,0
91358,-100,4,2,0,5,0,0
91910,-100,4,2,0,60,0,0
92020,-100,4,2,0,5,0,0
92351,-100,4,2,0,60,0,0
92461,-100,4,2,0,5,0,0
92792,-100,4,2,0,60,0,0
92902,-100,4,2,0,5,0,0
93234,-100,4,2,0,65,0,0
93344,-100,4,2,0,5,0,0
93895,-100,4,2,0,60,0,0
94005,-100,4,2,0,5,0,0
94557,-100,4,2,0,60,0,0
94667,-100,4,2,0,5,0,0
94998,-100,4,2,0,60,0,0
95108,-100,4,2,0,5,0,0
95439,-100,4,2,0,60,0,0
95549,-100,4,2,0,5,0,0
95881,-100,4,2,0,70,0,0
95991,-100,4,2,0,5,0,0
96542,-100,4,2,0,70,0,0
96652,-100,4,2,0,5,0,0
97204,-100,4,2,0,70,0,0
97314,-100,4,2,0,5,0,0
97645,-100,4,2,0,60,0,0
97755,-100,4,2,0,5,0,0
98087,-100,4,2,0,60,0,0
98197,-100,4,2,0,5,0,0
98528,-100,4,2,0,75,0,0
98638,-100,4,2,0,5,0,0
99189,-100,4,2,0,75,0,0
99299,-100,4,2,0,5,0,0
99851,-100,4,2,0,30,0,0
101182,428.571428571429,4,2,0,70,1,1
106324,-100,4,2,0,60,0,0
107182,-100,4,2,0,100,0,1
107503,-100,4,2,0,5,0,1
107610,-100,4,2,0,100,0,1
107932,-100,4,2,0,5,0,1
108039,-100,4,2,0,70,0,1
113182,-100,4,2,0,60,0,0
114049,428.571428571429,4,2,0,60,1,1
114049,-100,4,2,0,100,0,1
114370,-100,4,2,0,5,0,1
114477,-100,4,2,0,100,0,1
114799,-100,4,2,0,5,0,1
114911,428.571428571429,4,2,0,60,1,1
114911,-100,4,2,0,75,0,1
120053,-100,4,2,0,60,0,0
120911,-100,4,2,0,100,0,1
121232,-100,4,2,0,5,0,1
121339,-100,4,2,0,100,0,1
121661,-100,4,2,0,5,0,1
121768,-100,4,2,0,75,0,1
126911,-100,4,2,0,60,0,0
127768,-100,4,2,0,100,0,1
128089,-100,4,2,0,5,0,1
128196,-100,4,2,0,100,0,1
128518,-100,4,2,0,5,0,1
128629,428.571428571429,4,2,0,60,1,0
128629,-100,4,2,0,60,0,0
128736,-100,4,2,0,5,0,0
129271,-100,4,2,0,60,0,0
129378,-100,4,2,0,5,0,0
129914,-100,4,2,0,60,0,0
130343,-100,4,2,0,5,0,0
131200,-100,4,2,0,65,0,0
131307,-100,4,2,0,5,0,0
131843,-100,4,2,0,65,0,0
131950,-100,4,2,0,5,0,0
132486,-100,4,2,0,65,0,0
132914,-100,4,2,0,5,0,0
133771,-100,4,2,0,70,0,0
133879,-100,4,2,0,5,0,0
134414,-100,4,2,0,70,0,0
134521,-100,4,2,0,5,0,0
135057,-100,4,2,0,70,0,0
135486,-100,4,2,0,5,0,0
136343,-100,4,2,0,75,0,0
136450,-100,4,2,0,5,0,0
136986,-100,4,2,0,75,0,0
137093,-100,4,2,0,5,0,0
137629,-100,4,2,0,75,0,0
138057,-100,4,2,0,5,0,0
138914,-100,4,2,0,100,0,0
139129,-100,4,2,0,5,0,0

[Colours]
Combo1 : 226,222,141
Combo2 : 146,126,97
Combo3 : 133,129,154
Combo4 : 113,138,104

[HitObjects]
256,192,545,12,4,2751,0:3:0:0:
44,272,13340,6,0,B|160:220|160:328|276:272,1,240,4|4,0:3|0:3,0:0:0:0:
492,376,15987,2,0,P|540:284|488:160,1,240,4|4,0:3|0:3,0:0:0:0:
292,32,18634,6,0,L|336:284,1,240,4|4,0:3|0:3,0:0:0:0:
116,372,21281,2,0,L|71:119,1,240,4|4,0:3|0:3,0:0:0:0:
200,36,23487,5,2,1:2:0:0:
256,92,23928,2,0,P|304:111|377:77,2,120,4|2|4,1:2|1:2|1:3,0:0:0:0:
168,224,26134,5,2,0:2:0:0:
112,168,26575,2,0,P|64:149|-9:183,2,120,4|2|4,1:3|1:2|1:3,0:0:0:0:
256,240,28781,5,2,1:2:0:0:
312,180,29222,2,0,L|288:46,2,120,4|2|4,1:3|1:2|1:3,0:0:0:0:
156,144,31428,1,2,1:2:0:0:
100,204,31869,2,0,L|123:337,2,120,4|2|4,1:3|1:2|1:3,0:0:0:0:
213,90,34075,5,2,1:2:0:0:
268,148,34516,2,0,P|319:167|389:135,1,120,4|2,1:2|0:0,0:0:0:0:
464,60,35840,1,2,1:2:0:0:
436,216,36722,5,2,1:2:0:0:
484,280,37163,2,0,B|444:300|444:300|364:276,1,120,4|2,1:3|0:0,0:0:0:0:
256,244,38487,1,4,1:3:0:0:
132,348,39369,5,2,1:2:0:0:
84,284,39810,2,0,L|105:161,1,120,4|2,1:3|0:0,0:0:0:0:
40,64,41134,1,4,1:3:0:0:
192,12,42016,5,2,1:2:0:0:
256,60,42457,2,0,L|233:189,1,120,4|2,1:3|0:0,0:0:0:0:
304,276,43781,1,2,1:2:0:0:
452,212,44663,6,0,P|465:184|444:128,1,79.9999999999999,2|4,1:2|1:3,0:0:0:0:
368,52,45766,1,6,1:2:0:0:
284,136,46428,1,4,1:3:0:0:
132,92,47310,6,0,B|120:132|120:132|136:180,1,79.9999999999999,2|4,1:2|1:3,0:0:0:0:
228,240,48413,1,6,1:2:0:0:
132,312,49075,1,4,1:3:0:0:
288,276,49957,6,0,B|300:239|300:239|288:199,1,79.9999999999999,2|4,1:2|1:3,0:0:0:0:
188,132,51060,1,6,1:2:0:0:
288,68,51722,1,4,1:3:0:0:
128,92,52604,6,0,B|116:132|116:132|128:168,1,79.9999999999999,2|4,1:2|1:3,0:0:0:0:
192,272,53707,1,6,1:2:0:0:
256,168,54369,1,4,1:3:0:0:
420,356,55700,5,4,0:2:0:0:
504,272,56342,1,6,0:2:0:0:
420,188,56985,1,4,0:2:0:0:
332,272,57628,1,6,0:2:0:0:
252,184,58271,1,4,0:2:0:0:
192,236,58700,1,6,0:2:0:0:
132,184,59128,5,6,0:2:0:0:
192,80,59771,1,4,0:0:0:0:
252,184,60414,1,6,0:2:0:0:
312,132,60842,2,0,P|346:122|399:144,1,79.9999999999999,0|4,1:0|0:3,0:0:0:0:
448,188,61700,1,6,1:0:0:0:
448,188,62128,1,6,1:0:0:0:
388,240,62557,5,6,1:2:0:0:
303,324,63200,1,4,1:2:0:0:
220,236,63842,1,6,0:2:0:0:
304,152,64485,1,6,0:2:0:0:
220,64,65128,1,4,0:0:0:0:
160,120,65557,1,6,0:0:0:0:
100,64,65985,5,4,0:0:0:0:
16,152,66628,1,6,0:0:0:0:
100,240,67271,1,4,0:0:0:0:
156,296,67700,2,0,P|193:306|246:284,1,79.9999999999999,0|4,1:2|0:3,0:0:0:0:
293,243,68557,1,6,1:0:0:0:
293,243,68985,1,6,1:0:0:0:
348,295,69407,5,6,1:2:0:0:
32,192,79999,6,0,P|72:152|232:192,1,240,4|4,1:3|0:3,0:0:0:0:
412,352,82646,2,0,L|388:218,1,120,4|2,1:3|0:0,0:0:0:0:
444,128,83969,2,2,B|464:100|412:68|368:100|416:156|384:176|356:156|372:140|348:128|328:140|344:156|320:148,1,160,6|6,0:3|0:3,1:0:0:0:
276,204,85293,6,0,P|176:264|80:204,1,240,6|6,1:3|0:3,0:0:0:0:
180,80,87499,5,4,1:3:0:0:
236,136,87940,2,0,L|192:384,1,240,6|4,0:3|1:3,0:0:0:0:
48,184,90587,6,0,B|28:132|28:132|52:68,2,120,12|12|4,1:3|1:3|0:1,0:0:0:0:
96,248,92351,2,0,L|190:231,1,79.9999999999999,2|2,0:0|0:0,0:0:0:0:
252,220,93234,6,0,B|272:272|272:272|249:332,2,120,12|12|4,1:3|1:3|0:1,0:0:0:0:
212,152,94998,2,0,L|228:57,1,79.9999999999999,2|2,0:0|0:0,0:0:0:0:
300,44,95881,6,0,B|352:24|352:24|412:46,2,120,12|12|4,1:3|1:3|0:1,0:0:0:0:
225,73,97645,2,0,L|146:59,1,79.9999999999999,2|2,0:0|0:0,0:0:0:0:
76,96,98528,6,0,B|54:156|54:156|74:208,1,120,12|12,1:3|1:3,0:0:0:0:
32,320,99851,2,2,B|108:288|108:348|192:316,1,160,2|2,1:3|0:3,1:0:0:0:
256,268,101182,5,0,0:0:0:0:
344,352,101824,1,6,0:0:0:0:
428,268,102467,1,4,0:0:0:0:
344,180,103110,1,6,0:0:0:0:
404,76,103753,1,4,0:0:0:0:
344,24,104182,1,6,0:0:0:0:
284,76,104610,5,6,0:0:0:0:
199,160,105253,1,4,0:0:0:0:
116,76,105896,1,6,0:0:0:0:
52,124,106324,2,0,P|40:160|60:212,1,79.9999999999999,0|4,1:0|0:3,0:0:0:0:
116,248,107182,1,6,1:0:0:0:
116,248,107610,1,6,1:0:0:0:
52,300,108039,5,6,0:2:0:0:
144,376,108682,1,4,0:2:0:0:
236,300,109324,1,6,0:2:0:0:
144,220,109967,1,6,0:2:0:0:
236,144,110610,1,4,0:2:0:0:
296,200,111039,1,6,0:2:0:0:
356,144,111467,5,6,0:2:0:0:
440,228,112110,1,6,0:2:0:0:
355,312,112753,1,6,0:2:0:0:
292,264,113182,2,0,L|201:279,1,79.9999999999999,0|4,1:2|0:3,0:0:0:0:
152,224,114049,1,6,1:1:0:0:
152,224,114477,1,6,1:1:0:0:
224,188,114911,5,6,0:0:0:0:
132,112,115553,1,6,0:0:0:0:
220,32,116196,1,4,0:0:0:0:
308,116,116839,1,6,0:0:0:0:
412,52,117482,1,4,0:0:0:0:
464,116,117911,1,6,0:0:0:0:
412,176,118339,5,6,0:0:0:0:
504,252,118982,1,4,0:0:0:0:
412,328,119625,1,6,0:0:0:0:
356,272,120053,6,0,P|319:261|268:282,1,79.9999999999999,0|8,1:0|0:3,0:0:0:0:
228,332,120911,1,6,1:0:0:0:
228,332,121339,1,6,1:0:0:0:
171,275,121768,5,6,0:0:0:0:
272,208,122411,1,4,0:0:0:0:
168,147,123053,1,6,0:0:0:0:
272,84,123696,1,6,0:0:0:0:
372,148,124339,1,4,0:0:0:0:
444,188,124768,1,6,0:0:0:0:
372,224,125196,5,6,0:0:0:0:
468,296,125839,1,6,0:0:0:0:
372,368,126482,1,6,0:0:0:0:
308,320,126911,2,0,L|221:335,1,79.9999999999999,0|4,1:0|0:3,0:0:0:0:
176,276,127768,1,6,1:0:0:0:
176,276,128196,1,6,1:0:0:0:
116,224,128629,6,0,B|96:276|96:276|120:340,2,120,12|12|12,0:3|0:3|0:3,0:0:0:0:
164,160,130343,2,0,L|258:177,1,79.9999999999999,0|0,0:0|0:0,0:0:0:0:
320,188,131200,6,0,B|340:136|340:136|317:76,2,120,12|12|12,0:3|0:3|0:3,0:0:0:0:
280,256,132914,2,0,L|296:351,1,79.9999999999999,0|0,0:0|0:0,0:0:0:0:
368,364,133771,6,0,B|420:384|420:384|480:362,2,120,12|12|12,0:3|0:3|0:3,0:0:0:0:
293,335,135486,2,0,L|214:349,1,79.9999999999999,0|0,0:0|0:0,0:0:0:0:
144,312,136343,6,0,B|122:252|122:252|142:200,2,120,12|12|12,0:3|0:3|0:3,0:0:0:0:
296,256,138486,2,0,L|348:264,1,40,4|0,0:0|0:0,0:0:0:0:
364,236,138914,1,2,1:0:0:0:
