osu file format v14

[General]
AudioFilename: SALEM Main Titles.mp3
AudioLeadIn: 0
PreviewTime: 16096
Countdown: 0
SampleSet: Soft
StackLeniency: 0.7
Mode: 0
LetterboxInBreaks: 1
WidescreenStoryboard: 1

[Editor]
DistanceSpacing: 3
BeatDivisor: 3
GridSize: 4
TimelineZoom: 1

[Metadata]
Title:Cupid Carries a Gun (TV Edit)
TitleUnicode:Cupid Carries a Gun (TV Edit)
Artist:Marilyn Manson
ArtistUnicode:Marilyn Manson
Creator:iHatePeople
Version:Insane
Source:Salem Main Theme Opening
Tags:Rock Metal OP Drums Hell Gothic Creep
BeatmapID:733041
BeatmapSetID:330827

[Difficulty]
HPDrainRate:7
CircleSize:4
OverallDifficulty:8
ApproachRate:9
SliderMultiplier:2.5
SliderTickRate:1

[Events]
//Background and Video events
Video,0,"SALEM Main Titles.avi"
0,0,"witchcraft_by_nyaka_n-dattj1g (1).jpg",0,0
//Break Periods
//Storyboard Layer 0 (Background)
//Storyboard Layer 1 (Fail)
//Storyboard Layer 2 (Pass)
//Storyboard Layer 3 (Foreground)
//Storyboard Sound Samples

[TimingPoints]
96,500,4,2,1,50,1,0
8096,-133.333333333333,4,2,1,50,0,0
9596,-200,4,2,1,50,0,0
10096,-133.333333333333,4,2,1,50,0,0
14429,-100,4,2,1,40,0,0
15929,-117.647058823529,4,2,1,50,0,0
23596,-133.333333333333,4,2,1,50,0,0
23929,-100,4,2,1,50,0,1
24096,-100,4,2,1,60,0,1
28096,-100,4,2,1,55,0,0
32095,-158.730158730159,4,2,1,55,0,0
38596,-100,4,2,1,55,0,0

[Colours]
Combo1 : 128,128,64
Combo2 : 0,89,0
Combo3 : 122,82,22
Combo4 : 0,128,64

[HitObjects]
256,32,96,5,8,0:0:0:0:
185,226,596,2,0,P|231:260|331:220,1,166.666666666667,8|0,0:0|0:0,0:0:0:0:
256,176,1096,1,8,0:0:0:0:
400,272,1429,1,0,0:0:0:0:
382,355,1596,2,0,P|458:335|483:254,1,166.666666666667,8|0,0:0|0:0,0:0:0:0:
456,92,2096,5,8,0:0:0:0:
8,202,2596,2,0,P|86:228|168:204,1,166.666666666667,8|0,0:0|0:0,0:0:0:0:
256,64,3096,1,8,0:0:0:0:
332,248,3429,1,0,0:0:0:0:
168,248,3596,1,8,0:0:0:0:
168,248,4096,6,0,P|258:266|331:251,1,166.666666666667,12|0,0:0|0:0,0:0:0:0:
416,168,4596,1,8,0:0:0:0:
256,12,4929,1,0,0:0:0:0:
256,136,5096,1,8,0:0:0:0:
156,276,5429,1,0,0:0:0:0:
356,276,5596,1,0,0:0:0:0:
256,80,5929,1,0,0:0:0:0:
256,332,6096,5,12,0:0:0:0:
156,168,6596,2,0,B|216:228|216:228|216:332,1,166.666666666667,12|0,0:0|0:0,0:0:0:0:
196,96,7096,2,0,B|256:156|256:156|313:98,1,166.666666666667,12|0,0:0|0:0,0:0:0:0:
296,308,7596,2,0,B|296:227|296:227|356:167,1,166.666666666667,12|0,0:0|0:0,0:0:0:0:
256,12,8096,6,0,L|256:176,1,125.000004768372,8|0,0:0|0:0,0:0:0:0:
256,264,8596,1,0,0:0:0:0:
340,100,8929,1,0,0:0:0:0:
168,100,9096,1,0,0:0:0:0:
256,264,9429,1,0,0:0:0:0:
256,264,9596,2,0,L|256:359,1,83.3333333333333,8|0,0:0|0:0,0:0:0:0:
177,256,10096,5,12,0:0:0:0:
256,88,10262,1,0,0:0:0:0:
334,258,10429,1,0,0:0:0:0:
156,152,10596,1,12,0:0:0:0:
356,152,10762,1,0,0:0:0:0:
177,256,10929,1,0,0:0:0:0:
236,321,11096,2,0,P|184:343|105:305,1,125.000004768372,12|0,0:0|0:0,0:0:0:0:
96,97,11596,2,0,P|148:73|227:111,1,125.000004768372,12|0,0:0|0:0,0:0:0:0:
260,336,12096,5,8,0:0:0:0:
364,164,12429,1,0,0:0:0:0:
152,164,12596,1,8,0:0:0:0:
255,220,12929,1,0,0:0:0:0:
256,28,13096,1,8,0:0:0:0:
256,252,13429,1,0,0:0:0:0:
336,312,13596,2,0,P|254:352|174:311,1,187.500007152558,8|8,0:0|0:0,0:0:0:0:
176,152,14596,5,12,0:0:0:0:
340,152,14762,1,8,0:0:0:0:
256,296,14929,1,0,0:0:0:0:
340,232,15096,1,12,0:0:0:0:
172,232,15262,1,8,0:0:0:0:
256,88,15429,1,0,0:0:0:0:
256,296,15596,1,12,0:0:0:0:
212,280,16096,6,0,B|212:208|212:208|157:164,1,141.666669368744,8|0,0:0|0:0,0:0:0:0:
200,96,16596,2,0,B|255:141|255:141|309:96,1,141.666669368744,8|0,0:0|0:0,0:0:0:0:
300,280,17096,2,0,B|300:208|300:208|364:156,1,141.666669368744,8|0,0:0|0:0,0:0:0:0:
256,138,17596,1,8,0:0:0:0:
370,243,17762,1,0,0:0:0:0:
136,244,17929,1,0,0:0:0:0:
256,68,18096,5,4,0:0:0:0:
346,342,18429,1,0,0:0:0:0:
166,342,18596,1,8,0:0:0:0:
256,152,18929,1,0,0:0:0:0:
256,152,19096,2,0,B|256:304,1,141.666669368744,8|0,0:0|0:0,0:0:0:0:
184,120,19596,2,0,B|160:108|160:108|100:120|100:120|68:108|40:112,1,141.666669368744,8|0,0:0|0:0,0:0:0:0:
328,120,20096,6,0,B|352:108|352:108|412:120|412:120|444:108|472:112,1,141.666669368744,8|0,0:0|0:0,0:0:0:0:
464,111,20596,1,8,0:0:0:0:
152,192,20929,1,0,0:0:0:0:
256,288,21096,1,8,0:0:0:0:
360,192,21262,1,0,0:0:0:0:
256,90,21429,1,0,0:0:0:0:
194,158,21596,2,0,P|255:188|316:157,1,141.666669368744,8|0,0:0|0:0,0:0:0:0:
256,90,22096,6,0,L|256:278,1,141.666669368744,8|0,0:0|0:0,0:0:0:0:
156,184,22596,2,0,B|124:168|124:168|116:140|88:100|88:100|36:88,1,141.666669368744,8|0,0:0|0:0,0:0:0:0:
256,232,23096,1,8,0:0:0:0:
412,168,23262,1,0,0:0:0:0:
372,340,23429,1,0,0:0:0:0:
256,232,23596,2,0,L|256:160|256:88,1,125.000004768372,8|0,0:0|0:0,0:0:0:0:
128,40,24096,5,4,0:0:0:0:
256,106,24262,1,0,0:0:0:0:
384,40,24429,1,0,0:0:0:0:
256,106,24596,2,0,L|256:278,1,166.666666666667,4|0,0:0|0:0,0:0:0:0:
116,332,25096,5,4,0:0:0:0:
256,272,25262,1,0,0:0:0:0:
396,332,25429,1,0,0:0:0:0:
256,168,25596,1,4,0:0:0:0:
344,64,25762,1,0,0:0:0:0:
160,64,25929,1,0,0:0:0:0:
256,272,26096,1,4,0:0:0:0:
168,256,26596,5,0,0:0:0:0:
344,256,26762,1,0,0:0:0:0:
256,112,26929,1,0,0:0:0:0:
138,279,27096,1,0,0:0:0:0:
374,279,27262,1,0,0:0:0:0:
256,76,27429,1,0,0:0:0:0:
256,324,27596,1,0,0:0:0:0:
256,32,28096,5,2,0:0:0:0:
152,192,28596,1,2,0:0:0:0:
356,192,28762,1,0,0:0:0:0:
200,284,28929,1,0,0:0:0:0:
256,96,29096,1,2,0:0:0:0:
312,284,29262,1,0,0:0:0:0:
152,192,29429,1,0,0:0:0:0:
356,192,29596,1,2,0:0:0:0:
256,192,29929,1,0,0:0:0:0:
256,32,30096,5,6,0:0:0:0:
256,347,30596,1,2,0:0:0:0:
256,192,30762,1,0,0:0:0:0:
396,100,30929,1,0,0:0:0:0:
116,100,31096,1,2,0:0:0:0:
256,32,31262,1,0,0:0:0:0:
256,192,31429,1,0,0:0:0:0:
256,347,31596,1,2,0:0:0:0:
256,32,32095,6,0,L|256:347,1,314.999990386963,4|0,0:0|0:0,0:0:0:0:
256,192,33429,12,0,38096,0:0:0:0:
92,320,38596,5,0,0:0:0:0:
268,12,38929,1,0,0:0:0:0:
356,148,39096,1,0,0:0:0:0:
260,320,39429,1,0,0:0:0:0:
92,320,39596,1,0,0:0:0:0:
292,156,40096,6,0,B|356:244|356:244|148:244|148:244|256:88,1,500,4|0,0:0|0:0,0:0:0:0:
355,244,41429,1,0,0:0:0:0:
148,244,41596,1,0,0:0:0:0:
256,64,42096,1,0,0:0:0:0:
320,236,42596,5,0,0:0:0:0:
192,236,42762,1,0,0:0:0:0:
368,156,42929,1,0,0:0:0:0:
144,156,43096,1,0,0:0:0:0:
320,80,43262,1,0,0:0:0:0:
192,80,43429,1,0,0:0:0:0:
256,332,43596,1,4,0:0:0:0:
