osu file format v14

[General]
AudioFilename: SALEM Main Titles.mp3
AudioLeadIn: 0
PreviewTime: 16096
Countdown: 0
SampleSet: Soft
StackLeniency: 0.7
Mode: 0
LetterboxInBreaks: 1
WidescreenStoryboard: 0

[Editor]
Bookmarks: 23096,27262
DistanceSpacing: 2
BeatDivisor: 3
GridSize: 4
TimelineZoom: 1

[Metadata]
Title:Cupid Carries a Gun (TV Edit)
TitleUnicode:Cupid Carries a Gun (TV Edit)
Artist:Marilyn Manson
ArtistUnicode:Marilyn Manson
Creator:iHatePeople
Version:Hard
Source:Salem Main Theme Opening
Tags:Rock Metal OP Drums Hell Gothic Creep
BeatmapID:733040
BeatmapSetID:330827

[Difficulty]
HPDrainRate:6
CircleSize:3
OverallDifficulty:7
ApproachRate:7
SliderMultiplier:2
SliderTickRate:1

[Events]
//Background and Video events
Video,0,"SALEM Main Titles.avi"
0,0,"witchcraft_by_nyaka_n-dattj1g (1).jpg",0,0
//Break Periods
//Storyboard Layer 0 (Background)
//Storyboard Layer 1 (Fail)
//Storyboard Layer 2 (Pass)
//Storyboard Layer 3 (Foreground)
//Storyboard Sound Samples

[TimingPoints]
96,500,4,2,1,50,1,0
14429,-100,4,2,1,40,0,0
15929,-100,4,2,1,50,0,0
23929,-100,4,2,1,50,0,1
24096,-100,4,2,1,60,0,1
27929,-100,4,2,1,50,0,0

[Colours]
Combo1 : 128,128,64
Combo2 : 0,89,0
Combo3 : 122,82,22
Combo4 : 0,128,64

[HitObjects]
256,36,96,5,4,0:0:0:0:
56,180,596,2,0,B|136:212|196:180,1,133.333333333333,2|8,0:0|0:0,0:0:0:0:
256,144,1096,1,0,0:0:0:0:
256,304,1429,1,0,0:0:0:0:
328,268,1596,2,0,B|408:300|468:268,1,133.333333333333,2|8,0:0|0:0,0:0:0:0:
452,140,2096,5,4,0:0:0:0:
200,84,2596,1,2,0:0:0:0:
100,228,2929,1,2,0:0:0:0:
162,290,3096,1,8,0:0:0:0:
337,290,3429,1,2,0:0:0:0:
399,227,3596,1,8,0:0:0:0:
256,36,4096,5,4,0:0:0:0:
174,261,4596,2,0,P|254:312|336:264,1,200,2|2,0:0|0:0,0:0:0:0:
256,128,5429,2,0,L|256:224,1,66.6666666666667,0|2,0:0|0:0,0:0:0:0:
308,32,5929,1,0,0:0:0:0:
197,32,6096,5,4,0:0:0:0:
32,208,6596,2,0,L|72:360,1,133.333333333333,2|0,0:0|0:0,0:0:0:0:
146,336,7096,1,2,0:0:0:0:
305,336,7429,1,0,0:0:0:0:
385,336,7596,2,0,L|419:208,1,133.333333333333,2|0,0:0|0:0,0:0:0:0:
328,168,8096,6,0,P|260:188|280:68,1,200,12|8,0:0|0:0,0:0:0:0:
92,16,8929,1,2,0:0:0:0:
56,88,9096,2,0,L|64:256,1,133.333333333333
120,280,9596,1,10,0:0:0:0:
381,43,10096,6,0,L|364:259,1,200,4|8,0:0|0:0,0:0:0:0:
145,244,11096,2,0,P|116:308|142:364,1,133.333333333333,10|0,0:0|0:0,0:0:0:0:
195,305,11596,2,0,P|255:328|316:305,1,133.333333333333,10|0,0:0|0:0,0:0:0:0:
372,362,12096,6,0,P|395:301|367:244,1,133.333333333333,10|0,0:0|0:0,0:0:0:0:
256,244,12596,1,10,0:0:0:0:
256,151,12762,1,0,0:0:0:0:
256,57,12929,1,2,0:0:0:0:
315,205,13096,2,0,P|253:229|174:163,1,133.333333333333,8|0,0:0|0:0,0:0:0:0:
84,104,13596,1,10,0:0:0:0:
88,268,13929,1,2,0:0:0:0:
168,304,14096,5,8,0:0:0:0:
44,28,14596,2,0,L|8:236,1,200,14|8,0:0|0:0,0:0:0:0:
88,268,15262,1,2,0:0:0:0:
168,304,15429,1,10,0:0:0:0:
252,332,15596,2,0,L|388:328,1,133.333333333333,14|0,0:0|0:0,0:0:0:0:
452,212,16096,6,0,P|384:200|292:220,1,133.333333333333,12|0,0:0|0:0,0:0:0:0:
187,202,16596,6,0,P|135:162|107:98,1,133.333333333333,10|0,0:0|0:0,0:0:0:0:
189,206,17096,2,0,P|198:284|176:346,1,133.333333333333,2|0,0:0|0:0,0:0:0:0:
296,267,17596,6,0,P|369:260|438:274,1,133.333333333333,2|0,0:0|0:0,0:0:0:0:
402,89,18096,1,4,0:0:0:0:
402,89,18596,5,8,0:0:0:0:
130,167,18929,1,0,0:0:0:0:
130,167,19096,2,0,P|197:190|265:166,1,133.333333333333,10|0,0:0|0:0,0:0:0:0:
380,167,19596,2,0,P|313:190|245:166,1,133.333333333333,10|0,0:0|0:0,0:0:0:0:
256,40,20096,6,0,L|256:176,1,133.333333333333,10|0,0:0|0:0,0:0:0:0:
256,319,20596,1,0,0:0:0:0:
436,184,20929,1,2,0:0:0:0:
380,120,21096,2,0,P|348:188|380:252,1,133.333333333333,8|0,0:0|0:0,0:0:0:0:
256,319,21596,2,0,L|104:319,1,133.333333333333,8|2,0:0|0:0,0:0:0:0:
72,200,22096,5,8,0:0:0:0:
408,200,22596,2,0,B|360:232|308:204|308:204|264:204,1,133.333333333333,10|0,0:0|0:0,0:0:0:0:
355,133,23096,2,0,B|403:104|456:128|456:128|484:128,1,133.333333333333,10|0,0:0|0:0,0:0:0:0:
290,289,23596,2,0,P|222:267|194:199,1,133.333333333333,10|0,0:0|0:0,0:0:0:0:
152,60,24096,5,12,0:0:0:0:
232,68,24262,1,0,0:0:0:0:
312,80,24429,1,0,0:0:0:0:
276,152,24596,2,0,L|116:168,1,133.333333333333,12|2,0:0|0:0,0:0:0:0:
66,192,25096,2,0,P|106:237|188:236,1,133.333333333333,4|0,0:0|0:0,0:0:0:0:
256,228,25596,1,12,0:0:0:0:
232,152,25762,1,0,0:0:0:0:
208,76,25929,1,2,0:0:0:0:
286,48,26096,6,0,L|467:53,1,133.333333333333,12|0,0:0|0:0,0:0:0:0:
360,136,26596,2,0,P|460:140|500:116,1,133.333333333333,12|0,0:0|0:0,0:0:0:0:
468,228,27096,1,12,0:0:0:0:
487,125,27262,1,0,0:0:0:0:
413,56,27429,1,0,0:0:0:0:
311,90,27596,1,14,0:0:0:0:
311,90,28096,5,4,0:0:0:0:
323,291,28596,2,0,P|257:279|192:292,1,133.333333333333,2|0,0:0|0:0,0:0:0:0:
403,278,29096,2,0,P|372:356|296:368,1,133.333333333333,2|0,0:0|0:0,0:0:0:0:
177,372,29596,2,0,P|121:328|121:256,1,133.333333333333,2|0,0:0|0:0,0:0:0:0:
256,176,30096,5,4,0:0:0:0:
397,269,30596,2,0,P|388:334|335:372,1,133.333333333333,2|0,0:0|0:0,0:0:0:0:
196,290,31096,1,2,0:0:0:0:
216,212,31262,1,0,0:0:0:0:
296,212,31429,1,0,0:0:0:0:
316,290,31596,1,2,0:0:0:0:
422,75,32095,6,0,B|352:51|304:99|304:99|256:3|208:99|208:99|149:49|64:83,1,400,4|0,0:0|0:0,2:0:0:0:
256,192,33429,12,0,38096,0:0:0:0:
190,273,38596,6,0,P|255:300|320:272,1,133.333333333333,2|0,0:0|0:0,0:0:0:0:
440,188,39096,1,0,0:0:0:0:
256,44,39429,1,0,0:0:0:0:
256,188,39596,1,0,0:0:0:0:
228,176,40096,6,0,P|260:224|276:168,1,133.333333333333,4|0,0:0|0:0,0:0:0:0:
256,28,40596,1,0,0:0:0:0:
172,296,40929,1,0,0:0:0:0:
340,296,41096,1,0,0:0:0:0:
256,192,41596,12,4,43596,0:0:0:0:
