osu file format v14

[General]
AudioFilename: death is NOT what i seek.mp3
AudioLeadIn: 0
PreviewTime: 72477
Countdown: 1
SampleSet: None
StackLeniency: 0.7
Mode: 0
LetterboxInBreaks: 0
WidescreenStoryboard: 1

[Editor]
DistanceSpacing: 0.8
BeatDivisor: 4
GridSize: 16
TimelineZoom: 1

[Metadata]
Title:Aku no Hana
TitleUnicode:Aku no Hana
Artist:Mariko Gotou
ArtistUnicode:Mariko Gotou
Creator:Naranja Sagged
Version:Death Is NOT What I Seek
Source:Aku no Hana
Tags:
BeatmapID:1288634
BeatmapSetID:609053

[Difficulty]
HPDrainRate:5
CircleSize:5
OverallDifficulty:7
ApproachRate:8
SliderMultiplier:1.5
SliderTickRate:1

[Events]
//Background and Video events
0,0,"death is what i seek.jpg",0,0
//Break Periods
2,68821,71392
//Storyboard Layer 0 (Background)
//Storyboard Layer 1 (Fail)
//Storyboard Layer 2 (Pass)
//Storyboard Layer 3 (Foreground)
//Storyboard Sound Samples

[TimingPoints]
7103,571.428571428571,4,2,0,100,1,0
68821,-74.0740740740741,4,2,0,100,0,0
71392,-100,4,2,0,100,0,0
79964,-74.0740740740741,4,2,0,100,0,0
80249,-100,4,2,0,100,0,0
82334,-105.263157894737,4,2,0,100,0,0

[HitObjects]
224,224,7103,6,0,P|256:208|272:208,4,37.5
160,192,7960,1,0,0:0:0:0:
256,160,8102,1,0,0:0:0:0:
192,80,8245,1,0,0:0:0:0:
368,128,8531,5,8,0:0:0:0:
64,48,8817,1,4,0:0:0:0:
144,208,9388,2,0,P|192:224|224:256,2,75
352,192,10245,1,0,0:3:0:0:
256,224,10387,1,0,0:3:0:0:
320,304,10530,1,0,0:3:0:0:
144,256,10817,5,8,0:3:0:0:
448,336,11102,1,4,0:3:0:0:
48,112,11674,6,0,P|64:96|96:80,4,37.5
144,160,12531,1,0,0:0:0:0:
256,128,12674,1,0,0:0:0:0:
240,240,12817,1,0,0:0:0:0:
128,64,13102,1,8,0:0:0:0:
448,192,13388,1,4,0:0:0:0:
208,240,13980,6,0,P|192:288|160:320,2,75
368,224,14837,1,0,0:0:0:0:
256,256,14980,1,0,0:0:0:0:
272,144,15123,1,0,0:0:0:0:
384,320,15408,1,8,0:0:0:0:
64,192,15694,1,4,0:0:0:0:
128,80,16265,2,0,B|192:112|192:112|192:144|224:208,1,150
112,176,17122,5,0,0:0:0:0:
240,112,17265,1,0,0:0:0:0:
224,256,17408,1,0,0:0:0:0:
128,80,17694,5,0,0:0:0:0:
400,240,17980,1,0,0:0:0:0:
384,80,18551,5,0,0:0:0:0:
256,256,18837,5,0,0:0:0:0:
242,283,18980,1,0,0:0:0:0:
217,299,19122,1,0,0:0:0:0:
187,303,19265,1,0,0:0:0:0:
157,296,19408,1,0,0:0:0:0:
384,160,19694,5,0,0:0:0:0:
208,48,19980,1,0,0:0:0:0:
144,192,20265,1,0,0:0:0:0:
320,272,20837,6,0,B|272:272|272:272|256:240|224:240,1,75
272,192,21408,2,0,B|256:144|256:144|231:154|208:144,1,75
127,181,21980,1,0,0:0:0:0:
269,119,22122,1,0,0:0:0:0:
237,270,22265,1,0,0:0:0:0:
128,64,22551,1,0,0:0:0:0:
64,128,22837,2,0,B|112:128|112:128|128:160|160:160,1,75
115,207,23408,2,0,B|140:232|140:232|179:223|195:239,1,75
432,160,24265,5,0,0:0:0:0:
272,208,24551,1,0,0:0:0:0:
128,256,24837,1,0,0:0:0:0:
321,208,25408,2,0,B|293:175|280:131|280:131|201:140|148:97,1,225
224,64,26551,2,0,B|192:64|160:32|160:32|80:48|96:128|96:128|96:160|16:176,1,300
75,148,27980,5,8,0:0:0:0:
84,176,28122,1,8,0:0:0:0:
80,208,28265,2,8,B|82:230|64:256|64:256|16:272|32:336|64:352|112:368|112:368|160:352|208:368,1,300,8|8,0:0|1:0,0:0:0:0:
448,64,29980,6,0,B|424:63|400:80|400:80|400:112|320:128,1,150
294,74,30837,1,0,0:0:0:0:
265,64,30980,1,0,0:0:0:0:
235,62,31122,2,0,B|196:69|155:62|155:62|137:107|91:110,1,150
224,245,31980,2,0,P|253:267|289:279,3,75
368,144,33122,5,0,0:0:0:0:
322,71,33408,2,8,B|288:110|237:93|224:105|224:105|169:30|75:89|77:142,1,300,8|8,0:0|1:0,0:0:0:0:
288,304,34837,1,0,0:0:0:0:
288,112,35122,1,0,0:0:0:0:
112,176,35408,1,0,0:0:0:0:
272,320,35694,1,0,0:0:0:0:
304,80,35980,1,0,0:0:0:0:
32,128,36265,1,0,0:0:0:0:
160,368,36551,5,0,0:0:0:0:
384,64,36837,1,0,0:0:0:0:
80,32,37122,1,0,0:0:0:0:
224,368,37408,1,0,0:0:0:0:
512,0,37694,1,0,0:0:0:0:
48,352,37980,2,2,B|80:304|48:288|48:256|48:256|-32:224|16:128,1,225
336,336,39408,5,0,0:0:0:0:
416,160,39694,2,0,B|416:192|416:192|432:208|448:240,3,75
208,256,40837,5,0,0:0:0:0:
216,227,40980,5,0,0:0:0:0:
242,212,41122,1,0,0:0:0:0:
16,336,41408,5,0,0:0:0:0:
32,224,41694,1,0,0:0:0:0:
96,128,41980,1,0,0:0:0:0:
208,64,42265,1,0,0:0:0:0:
336,64,42551,1,0,0:0:0:0:
224,128,42837,1,0,0:0:0:0:
224,256,43122,1,0,0:0:0:0:
336,352,43408,1,0,0:0:0:0:
352,256,43694,6,0,P|336:208|336:176,2,75
192,112,44551,1,0,0:0:0:0:
383,175,44837,2,0,B|335:175|335:175|303:223,1,75
176,256,45408,2,0,B|200:291|200:291|261:301,1,75
496,48,45980,5,0,0:0:0:0:
480,160,46266,1,0,0:0:0:0:
416,256,46552,1,0,0:0:0:0:
304,320,46837,1,0,0:0:0:0:
176,320,47123,1,0,0:0:0:0:
288,256,47409,1,0,0:0:0:0:
288,128,47694,1,0,0:0:0:0:
176,32,47980,1,0,0:0:0:0:
224,160,48265,6,0,B|192:192|192:192|192:224|176:224,1,75
112,256,48837,2,0,B|128:288|128:288|160:288|192:320,1,75
284,303,49408,2,0,P|253:343|212:363,2,75
240,16,50551,5,0,0:0:0:0:
80,240,50837,1,0,0:0:0:0:
368,224,51122,1,0,0:0:0:0:
96,80,51408,1,0,0:0:0:0:
192,384,51694,1,0,0:0:0:0:
352,64,51980,1,0,0:0:0:0:
32,176,52265,1,0,0:0:0:0:
432,272,52551,1,0,0:0:0:0:
80,32,52837,6,0,B|48:80|48:80|64:96|48:128|48:128|0:144|16:176,1,150
451,382,53980,2,2,B|483:318|483:318|515:318|531:238|451:206|451:206|483:158|467:126,1,300
144,128,55694,5,0,0:0:0:0:
128,153,55837,1,0,0:0:0:0:
124,182,55980,1,0,0:0:0:0:
134,209,56122,1,0,0:0:0:0:
158,226,56265,1,0,0:0:0:0:
352,96,56551,5,0,0:0:0:0:
48,176,56837,1,0,0:0:0:0:
256,336,57122,1,8,0:0:0:0:
192,80,57694,1,0,0:0:0:0:
96,144,57980,1,0,0:0:0:0:
81,170,58122,1,0,0:0:0:0:
95,196,58265,1,8,0:0:0:0:
432,192,58551,1,0,0:0:0:0:
208,352,58837,5,0,0:0:0:0:
288,64,59122,1,0,0:0:0:0:
261,49,59265,1,0,0:0:0:0:
236,66,59408,1,8,0:0:0:0:
384,256,59694,5,0,0:0:0:0:
304,96,59980,1,0,0:0:0:0:
272,224,60265,1,0,0:0:0:0:
448,80,60551,1,0,0:0:0:0:
432,304,60837,5,0,0:0:0:0:
288,32,61122,1,0,0:0:0:0:
480,112,61408,1,0,0:0:0:0:
128,144,61694,1,4,0:0:0:0:
160,288,62265,5,0,0:0:0:0:
186,301,62408,1,0,0:0:0:0:
215,307,62551,1,0,0:0:0:0:
244,300,62694,1,0,0:0:0:0:
267,281,62837,1,0,0:0:0:0:
296,275,62980,1,0,0:0:0:0:
323,285,63122,1,0,0:0:0:0:
112,256,63408,1,0,0:0:0:0:
432,144,63694,1,8,0:0:0:0:
32,144,64265,5,0,0:0:0:0:
240,96,64551,1,0,0:0:0:0:
263,77,64694,1,0,0:0:0:0:
176,208,64980,1,0,0:0:0:0:
191,233,65122,1,8,0:0:0:0:
480,240,65408,5,0,0:0:0:0:
272,288,65694,1,0,0:0:0:0:
243,298,65837,1,0,0:0:0:0:
336,176,66123,1,0,0:0:0:0:
322,149,66265,1,8,0:0:0:0:
64,224,66551,5,0,0:0:0:0:
90,209,66694,1,0,0:0:0:0:
104,182,66837,1,0,0:0:0:0:
352,160,67122,1,0,0:0:0:0:
176,128,67408,1,0,0:0:0:0:
150,112,67551,1,0,0:0:0:0:
304,80,67837,1,0,0:0:0:0:
327,61,67980,1,8,0:0:0:0:
408,308,68265,1,14,0:0:0:0:
408,308,68837,2,2,B|449:215|449:215|443:148|443:148|408:150|408:150|420:120|420:120|398:93|398:93|425:70|425:70|417:49|417:49|453:48|453:48|452:12|452:12|481:25|481:25|509:2|509:2|525:44|525:44|567:27|567:27|568:64|568:64|598:77|598:77|570:100|570:100|593:127|593:127|572:135|572:135|573:171|573:171|537:172|537:172|525:202|525:202|501:174|501:174|449:215,1,900.000034332277
224,176,72551,5,0,0:0:0:0:
310,84,72837,2,0,P|357:123|360:154,1,75
65,283,73408,1,0,0:0:0:0:
118,107,73694,1,0,0:0:0:0:
329,282,73980,1,0,0:0:0:0:
274,90,74266,1,0,0:0:0:0:
112,256,74551,2,0,P|80:216|80:192,1,75
367,77,75122,2,4,B|389:111|389:111|376:150,1,75,4|4,0:0|1:0,1:0:0:0:
211,309,75694,1,8,0:0:0:0:
190,330,75837,1,8,0:0:0:0:
160,334,75980,2,8,P|97:303|90:291,2,75
253,130,76837,5,0,0:0:0:0:
253,130,77122,1,0,0:0:0:0:
164,32,77408,2,8,B|121:41|121:41|110:76,1,75
448,320,77980,5,0,0:0:0:0:
395,97,78265,1,0,0:0:0:0:
140,325,78551,1,0,0:0:0:0:
217,60,78837,1,0,0:0:0:0:
373,333,79122,1,0,0:0:0:0:
242,16,79408,1,0,0:0:0:0:
0,384,79694,1,0,0:0:0:0:
436,19,79960,2,0,B|436:42|469:59|469:59|473:80|478:101|438:145,1,101.250000386238
112,0,80551,5,0,0:0:0:0:
432,176,80837,1,0,0:0:0:0:
112,352,81122,1,0,0:0:0:0:
368,16,81408,1,0,0:0:0:0:
306,375,81694,1,0,0:0:0:0:
34,129,81979,1,0,0:0:0:0:
448,64,82551,5,0,0:0:0:0:
248,277,82836,1,0,0:0:0:0:
467,198,83122,1,0,0:0:0:0:
277,35,83408,1,0,0:0:0:0:
394,156,83694,2,0,B|351:165|351:165|340:200,2,75
104,290,84551,5,0,0:0:0:0:
212,210,85122,5,0,0:0:0:0:
297,137,85408,1,0,0:0:0:0:
192,104,85694,1,0,0:0:0:0:
350,277,85980,2,0,B|384:260|384:260|392:213,1,75
393,119,86551,2,0,P|429:127|457:151,2,75,0|0|0,0:0|0:0|0:0,0:3:0:0:
103,129,87408,1,0,0:0:0:0:
459,298,87694,2,0,B|450:350|450:350|409:363,1,75
0,70,88265,5,0,0:0:0:0:
512,70,88694,1,0,0:0:0:0:
256,384,89122,1,0,0:0:0:0:
256,192,89408,12,0,90837,0:0:0:0:
307,342,91408,5,0,0:0:0:0:
91,49,91694,1,0,0:0:0:0:
31,311,91980,1,0,0:0:0:0:
380,23,92265,2,8,P|420:55|424:100,1,71.2499980974198
0,314,92837,5,0,0:0:0:0:
512,314,93266,1,0,0:0:0:0:
256,0,93694,1,0,0:0:0:0:
256,192,93960,12,0,95654,0:0:0:0:
