osu file format v14

[General]
AudioFilename: Battle ~Brachydios~________________[Monster Hunter 4 OST] [MH3G_MH3U].mp3
AudioLeadIn: 0
PreviewTime: 18093
Countdown: 0
SampleSet: Normal
StackLeniency: 0.7
Mode: 1
LetterboxInBreaks: 0
WidescreenStoryboard: 0

[Editor]
DistanceSpacing: 0.9
BeatDivisor: 4
GridSize: 4
TimelineZoom: 0.8

[Metadata]
Title:Brave Icon
TitleUnicode:Brave Icon
Artist:Marika Suzuki
ArtistUnicode:鈴木まり香
Creator:-Tenshi-
Version:Kantan
Source:Monster Hunter
Tags:Brachydios Monster Hunter Ultimate Capcom モンスターハンター オーケストラコンサート 〜狩猟音楽祭2012〜
BeatmapID:735845
BeatmapSetID:326725

[Difficulty]
HPDrainRate:8
CircleSize:5
OverallDifficulty:3
ApproachRate:7
SliderMultiplier:1.4
SliderTickRate:1

[Events]
//Background and Video events
0,0,"BG.jpg",0,60
//Break Periods
//Storyboard Layer 0 (Background)
//Storyboard Layer 1 (Fail)
//Storyboard Layer 2 (Pass)
//Storyboard Layer 3 (Foreground)
//Storyboard Sound Samples

[TimingPoints]
4760,416.666666666667,4,1,0,80,1,0
18093,-100,4,1,0,80,0,1
31426,-100,4,1,0,80,0,0
44760,416.666666666667,3,1,0,80,1,0

[HitObjects]
256,192,4760,5,4,0:0:0:0:
256,192,6218,1,0,0:0:0:0:
256,192,7260,1,2,0:0:0:0:
256,192,8093,1,4,0:0:0:0:
256,192,9551,1,0,0:0:0:0:
256,192,10593,1,2,0:0:0:0:
256,192,11426,1,4,0:0:0:0:
256,192,12885,1,0,0:0:0:0:
256,192,13926,1,2,0:0:0:0:
256,192,14343,1,0,0:0:0:0:
256,192,14760,1,6,0:0:0:0:
256,192,16218,1,0,0:0:0:0:
256,192,18093,1,6,0:0:0:0:
256,192,18926,1,0,0:0:0:0:
256,192,19551,1,6,0:0:0:0:
264,192,20593,1,0,0:0:0:0:
256,192,21218,1,6,0:0:0:0:
252,192,22260,1,0,0:0:0:0:
248,192,22885,1,6,0:0:0:0:
244,192,23926,1,0,0:0:0:0:
256,168,24343,1,8,0:0:0:0:
244,192,24760,1,4,0:0:0:0:
244,192,25593,1,0,0:0:0:0:
256,200,26218,1,4,0:0:0:0:
256,200,27260,1,0,0:0:0:0:
256,200,27885,1,4,0:0:0:0:
256,200,28926,1,0,0:0:0:0:
252,196,29551,1,4,0:0:0:0:
252,196,30385,1,0,0:0:0:0:
252,196,31426,1,4,0:0:0:0:
252,196,32260,1,2,0:0:0:0:
252,196,32885,1,0,0:0:0:0:
252,196,34760,1,4,0:0:0:0:
252,196,35593,1,2,0:0:0:0:
252,196,36218,1,0,0:0:0:0:
256,196,37260,1,2,0:0:0:0:
260,196,38093,1,4,0:0:0:0:
260,200,38926,1,2,0:0:0:0:
256,200,39551,1,0,0:0:0:0:
256,200,41426,1,4,0:0:0:0:
256,200,42260,1,2,0:0:0:0:
256,200,42885,1,0,0:0:0:0:
256,200,43926,1,0,0:0:0:0:
256,200,44760,1,4,0:0:0:0:
256,200,45593,1,0,0:0:0:0:
256,200,46010,1,0,0:0:0:0:
256,200,47260,1,0,0:0:0:0:
256,200,48093,1,0,0:0:0:0:
256,200,48510,1,2,0:0:0:0:
256,200,49135,1,2,0:0:0:0:
256,200,49760,1,4,0:0:0:0:
256,200,50593,1,0,0:0:0:0:
256,200,51010,1,0,0:0:0:0:
256,200,52260,1,2,0:0:0:0:
260,200,53093,1,0,0:0:0:0:
260,200,53510,1,2,0:0:0:0:
260,200,54135,1,2,0:0:0:0:
260,200,54760,1,4,0:0:0:0:
260,200,55593,1,0,0:0:0:0:
260,200,56010,1,0,0:0:0:0:
260,200,57260,1,0,0:0:0:0:
260,200,58093,1,0,0:0:0:0:
260,200,58510,1,2,0:0:0:0:
260,200,59135,1,2,0:0:0:0:
260,200,59760,1,0,0:0:0:0:
260,200,60593,1,0,0:0:0:0:
260,200,61010,1,0,0:0:0:0:
260,200,62260,1,2,0:0:0:0:
260,200,63093,1,0,0:0:0:0:
264,204,63510,1,2,0:0:0:0:
260,200,64135,1,2,0:0:0:0:
260,200,64760,1,4,0:0:0:0:
