osu file format v14

[General]
AudioFilename: Battle ~Brachydios~________________[Monster Hunter 4 OST] [MH3G_MH3U].mp3
AudioLeadIn: 0
PreviewTime: 18093
Countdown: 0
SampleSet: Normal
StackLeniency: 0.7
Mode: 1
LetterboxInBreaks: 0
WidescreenStoryboard: 0

[Editor]
DistanceSpacing: 0.9
BeatDivisor: 2
GridSize: 4
TimelineZoom: 0.6999999

[Metadata]
Title:Brave Icon
TitleUnicode:Brave Icon
Artist:Marika Suzuki
ArtistUnicode:鈴木まり香
Creator:-Tenshi-
Version:Futsuu
Source:Monster Hunter
Tags:Brachydios Monster Hunter Ultimate Capcom モンスターハンター オーケストラコンサート 〜狩猟音楽祭2012〜
BeatmapID:725355
BeatmapSetID:326725

[Difficulty]
HPDrainRate:7
CircleSize:5
OverallDifficulty:4
ApproachRate:7
SliderMultiplier:1.4
SliderTickRate:1

[Events]
//Background and Video events
0,0,"BG.jpg",0,60
//Break Periods
//Storyboard Layer 0 (Background)
//Storyboard Layer 1 (Fail)
//Storyboard Layer 2 (Pass)
//Storyboard Layer 3 (Foreground)
//Storyboard Sound Samples

[TimingPoints]
4760,416.666666666667,4,1,0,80,1,0
18093,-100,4,1,0,80,0,1
31426,-100,4,1,0,80,0,0
44760,416.666666666667,3,1,0,80,1,0

[HitObjects]
256,192,4760,5,4,0:0:0:0:
256,192,5593,1,2,0:0:0:0:
256,192,6218,1,2,0:0:0:0:
256,192,7260,1,0,0:0:0:0:
256,192,7468,1,0,0:0:0:0:
256,192,7676,1,2,0:0:0:0:
256,192,8093,1,4,0:0:0:0:
256,192,8926,1,2,0:0:0:0:
256,192,9551,1,2,0:0:0:0:
256,192,10593,1,0,0:0:0:0:
256,192,10801,1,0,0:0:0:0:
256,192,11010,1,2,0:0:0:0:
256,192,11426,1,4,0:0:0:0:
256,192,12260,1,2,0:0:0:0:
256,192,12885,1,2,0:0:0:0:
256,192,13926,1,2,0:0:0:0:
256,192,14135,1,2,0:0:0:0:
256,192,14343,1,0,0:0:0:0:
256,192,14760,1,4,0:0:0:0:
256,192,15593,1,2,0:0:0:0:
256,192,16218,1,2,0:0:0:0:
256,192,17260,1,2,0:0:0:0:
256,192,17676,1,0,0:0:0:0:
256,192,18093,1,6,0:0:0:0:
256,192,18509,1,0,0:0:0:0:
256,192,18717,1,0,0:0:0:0:
256,192,18926,1,2,0:0:0:0:
256,200,19551,1,6,0:0:0:0:
256,196,19967,1,0,0:0:0:0:
256,192,20176,1,0,0:0:0:0:
256,192,20593,1,2,0:0:0:0:
256,192,21218,1,6,0:0:0:0:
256,192,21635,1,0,0:0:0:0:
256,192,21843,1,0,0:0:0:0:
256,192,22260,1,2,0:0:0:0:
256,192,22885,1,6,0:0:0:0:
256,192,23302,1,0,0:0:0:0:
256,192,23510,1,0,0:0:0:0:
256,192,23926,1,0,0:0:0:0:
196,156,24343,1,8,0:0:0:0:
256,192,24760,1,4,0:0:0:0:
256,192,25176,1,0,0:0:0:0:
264,192,25385,1,0,0:0:0:0:
256,192,25593,1,2,0:0:0:0:
256,192,26218,1,4,0:0:0:0:
264,192,26635,1,0,0:0:0:0:
264,192,26843,1,0,0:0:0:0:
264,192,27260,1,2,0:0:0:0:
264,196,27885,1,4,0:0:0:0:
264,192,28301,1,0,0:0:0:0:
264,192,28510,1,0,0:0:0:0:
264,192,28926,1,2,0:0:0:0:
264,196,29551,1,4,0:0:0:0:
264,192,30385,1,2,0:0:0:0:
264,196,31010,1,2,0:0:0:0:
264,192,31426,1,4,0:0:0:0:
264,196,32260,1,0,0:0:0:0:
264,196,32468,1,0,0:0:0:0:
264,200,32885,1,2,0:0:0:0:
232,176,33510,1,0,0:0:0:0:
264,196,33926,1,0,0:0:0:0:
260,176,34343,1,0,0:0:0:0:
268,196,34760,1,4,0:0:0:0:
272,200,35593,1,2,0:0:0:0:
272,200,35802,1,2,0:0:0:0:
272,200,36218,1,0,0:0:0:0:
272,200,36843,1,2,0:0:0:0:
272,200,37260,1,0,0:0:0:0:
264,200,37677,1,2,0:0:0:0:
264,196,38093,1,4,0:0:0:0:
264,196,38926,1,0,0:0:0:0:
264,196,39134,1,0,0:0:0:0:
264,200,39551,1,2,0:0:0:0:
264,196,40176,1,0,0:0:0:0:
264,196,40592,1,0,0:0:0:0:
268,192,41009,1,0,0:0:0:0:
268,196,41426,1,4,0:0:0:0:
264,200,42260,1,2,0:0:0:0:
264,200,42468,1,2,0:0:0:0:
264,200,42885,1,0,0:0:0:0:
264,200,43510,1,2,0:0:0:0:
264,200,43926,1,0,0:0:0:0:
264,200,44343,1,2,0:0:0:0:
264,200,44760,1,4,0:0:0:0:
264,200,45176,1,0,0:0:0:0:
264,200,45385,1,0,0:0:0:0:
264,200,45593,1,2,0:0:0:0:
264,200,46010,1,0,0:0:0:0:
276,204,46426,1,0,0:0:0:0:
264,200,47260,1,0,0:0:0:0:
264,200,47676,1,2,0:0:0:0:
264,200,48093,1,0,0:0:0:0:
264,200,48301,1,0,0:0:0:0:
268,200,48510,1,2,0:0:0:0:
264,200,49135,1,0,0:0:0:0:
264,200,49760,1,4,0:0:0:0:
260,200,50176,1,0,0:0:0:0:
264,200,50385,1,0,0:0:0:0:
264,200,50593,1,2,0:0:0:0:
264,200,51010,1,0,0:0:0:0:
272,200,51426,1,0,0:0:0:0:
272,200,52260,1,0,0:0:0:0:
184,148,52676,1,2,0:0:0:0:
184,148,53093,1,0,0:0:0:0:
192,144,53302,1,0,0:0:0:0:
268,200,53510,1,2,0:0:0:0:
268,200,54135,1,0,0:0:0:0:
268,196,54760,1,4,0:0:0:0:
264,200,55176,1,0,0:0:0:0:
224,184,55385,1,0,0:0:0:0:
264,200,55593,1,2,0:0:0:0:
264,200,56010,1,0,0:0:0:0:
264,200,56426,1,2,0:0:0:0:
264,200,57260,1,0,0:0:0:0:
264,200,57676,1,10,0:0:0:0:
264,200,57885,1,8,0:0:0:0:
280,200,58093,1,0,0:0:0:0:
264,200,58510,1,2,0:0:0:0:
264,200,59135,1,0,0:0:0:0:
264,200,59760,1,0,0:0:0:0:
264,200,60176,1,0,0:0:0:0:
264,200,60385,1,0,0:0:0:0:
264,200,60593,1,2,0:0:0:0:
256,200,61010,1,0,0:0:0:0:
160,140,61426,1,0,0:0:0:0:
160,140,61635,1,0,0:0:0:0:
160,140,61843,1,2,0:0:0:0:
264,200,62260,1,0,0:0:0:0:
144,92,62885,1,2,0:0:0:0:
264,200,63510,1,0,0:0:0:0:
264,200,64135,1,2,0:0:0:0:
268,200,64760,1,4,0:0:0:0:
