osu file format v14

[General]
AudioFilename: audio.mp3
AudioLeadIn: 0
PreviewTime: 60692
Countdown: 0
SampleSet: Soft
StackLeniency: 0.7
Mode: 0
LetterboxInBreaks: 0
WidescreenStoryboard: 1

[Editor]
DistanceSpacing: 1
BeatDivisor: 4
GridSize: 32
TimelineZoom: 1.6

[Metadata]
Title:New story (TV Size)
TitleUnicode:New story (TV Size)
Artist:Marika Kohno
ArtistUnicode:高野麻里佳
Creator:Didah
Version:Normal
Source:精霊幻想記
Tags:Seirei Gensouki Spirit Chronicles j-pop jpop pop japanese anime op opening kouno
BeatmapID:3320282
BeatmapSetID:1574149

[Difficulty]
HPDrainRate:3
CircleSize:3
OverallDifficulty:4
ApproachRate:5
SliderMultiplier:1
SliderTickRate:1

[Events]
//Background and Video events
0,0,"bg.jpg",0,0
//Break Periods
//Storyboard Layer 0 (Background)
//Storyboard Layer 1 (Fail)
//Storyboard Layer 2 (Pass)
//Storyboard Layer 3 (Foreground)
//Storyboard Layer 4 (Overlay)
//Storyboard Sound Samples

[TimingPoints]
1821,363.636363636364,4,2,1,40,1,0
1821,-111.111111111111,4,2,1,40,0,0
7639,-100,4,2,1,60,0,0
13457,-90.9090909090909,4,2,1,70,0,1
25093,-111.111111111111,4,2,1,50,0,0
36730,-100,4,2,1,60,0,0
48366,-100,4,2,1,65,0,0
61457,-90.909090909091,4,2,1,75,0,1
78911,-90.909090909091,4,2,1,80,0,1
83275,-100,4,2,1,80,0,0
84548,-100,4,2,1,60,0,0
87457,-100,4,2,1,40,0,0

[Colours]
Combo1 : 255,191,226
Combo2 : 191,230,255

[HitObjects]
122,88,1821,5,2,0:0:0:0:
375,55,3275,1,2,0:0:0:0:
431,125,3639,2,0,L|418:181,1,44.999998626709,2|2,0:0|0:0,0:0:0:0:
411,212,4002,1,2,0:0:0:0:
231,199,4730,2,0,P|176:198|140:228,2,89.9999972534181,2|2|2,0:0|0:0|0:0,0:0:0:0:
401,256,6184,2,0,L|424:154,1,89.9999972534181,2|2,0:0|0:0,0:0:0:0:
393,82,6911,1,2,0:0:0:0:
329,18,7275,2,0,L|271:32,1,44.999998626709,2|0,0:0|0:0,0:0:0:0:
242,54,7639,6,0,L|130:33,1,100,14|0,0:2|1:2,0:0:0:0:
94,25,8184,1,12,0:2:0:0:
37,111,8548,1,2,1:2:0:0:
37,111,8730,2,0,L|58:223,1,100,14|2,0:2|1:2,0:0:0:0:
70,262,9275,1,12,0:2:0:0:
70,262,9457,1,2,1:2:0:0:
142,340,9821,2,0,P|187:336|235:282,1,100,14|14,0:2|0:2,0:0:0:0:
247,203,10548,6,0,L|262:86,1,100,2|0,1:2|1:2,0:0:0:0:
284,60,11093,1,8,0:3:0:0:
284,60,11275,2,0,L|346:42,1,50,0|8,1:2|0:2,0:0:0:0:
372,16,11639,2,0,L|420:29,1,50,8|10,0:2|0:2,0:0:0:0:
466,48,12002,1,2,0:2:0:0:
353,326,13093,2,0,L|283:344,1,50,14|0,0:0|0:0,0:0:0:0:
257,367,13457,5,6,1:2:0:0:
151,360,13821,1,10,0:2:0:0:
151,360,14002,2,0,P|120:316|129:257,1,110.000003356934,2|0,1:2|1:2,0:0:0:0:
166,223,14548,2,0,L|153:99,1,110.000003356934,8|0,0:2|1:2,0:0:0:0:
154,62,15093,1,0,1:2:0:0:
154,62,15275,1,8,0:2:0:0:
246,3,15639,1,2,1:2:0:0:
303,96,16002,1,10,0:2:0:0:
404,53,16366,6,0,P|414:92|381:161,1,110.000003356934,2|8,1:2|0:2,0:0:0:0:
346,190,16911,2,0,P|336:229|369:298,1,110.000003356934,2|0,1:2|1:2,0:0:0:0:
406,324,17457,1,10,0:2:0:0:
406,324,17639,1,0,1:2:0:0:
511,285,18002,1,0,1:2:0:0:
511,285,18184,2,0,L|492:176,1,110.000003356934,8|0,0:2|1:2,0:0:0:0:
458,139,18730,1,0,1:2:0:0:
458,139,18911,2,0,L|470:69,1,55.0000016784668,12|0,0:2|0:0,0:0:0:0:
479,30,19275,5,6,1:2:0:0:
373,0,19639,1,8,0:2:0:0:
373,0,19821,2,0,L|295:18,1,55.0000016784668,2|0,1:2|1:2,0:0:0:0:
276,47,20184,1,2,1:2:0:0:
200,127,20548,2,0,L|70:105,1,110.000003356934,2|2,1:2|1:2,0:0:0:0:
36,101,21093,1,10,0:2:0:0:
36,101,21275,1,2,1:2:0:0:
51,214,21639,1,10,0:2:0:0:
51,214,21821,2,0,L|65:287,1,55.0000016784668,10|10,0:2|0:3,0:0:0:0:
81,319,22184,6,0,P|113:339|191:321,1,110.000003356934,6|8,1:2|0:0,0:0:0:0:
215,285,22730,2,0,P|247:265|325:283,1,110.000003356934,6|8,1:2|0:0,0:0:0:0:
363,302,23275,1,6,1:2:0:0:
448,232,23639,1,2,1:2:0:0:
448,232,23821,2,0,L|511:245,2,55.0000016784668,8|8|10,0:0|0:0|0:2,0:0:0:0:
404,197,24366,2,0,L|391:134,1,55.0000016784668,8|8,0:0|0:3,0:0:0:0:
383,88,24730,1,6,0:3:0:0:
308,37,25093,5,4,1:2:0:0:
254,109,25457,1,2,0:0:0:0:
186,48,25821,2,0,P|152:44|94:90,1,89.9999972534181,10|2,0:2|0:0,0:0:0:0:
86,113,26366,1,2,0:0:0:0:
86,113,26548,2,0,L|73:202,1,89.9999972534181,0|2,0:0|1:2,0:0:0:0:
67,246,27093,1,2,0:0:0:0:
150,280,27457,2,0,P|194:281|230:256,1,89.9999972534181,2|2,0:0|0:0,0:0:0:0:
261,223,28002,6,0,P|294:219|352:265,1,89.9999972534181,2|0,1:2|0:0,0:0:0:0:
385,326,28730,1,8,0:2:0:0:
469,294,29093,1,2,0:0:0:0:
469,294,29275,2,0,L|483:190,1,89.9999972534181,2|2,0:0|1:2,0:0:0:0:
492,160,29821,2,0,L|548:145,2,44.999998626709,2|2|10,1:2|0:0|0:2,0:0:0:0:
460,127,30366,2,0,P|423:102|379:103,1,89.9999972534181,2|0,0:0|0:0,0:0:0:0:
336,118,30911,5,0,1:2:0:0:
269,178,31275,2,0,L|282:238,1,44.999998626709,2|2,0:0|1:2,0:0:0:0:
291,270,31639,1,10,0:2:0:0:
291,270,31821,1,2,0:0:0:0:
259,354,32184,2,0,P|207:359|167:325,1,89.9999972534181,2|2,0:0|1:2,0:0:0:0:
139,313,32730,1,2,1:2:0:0:
81,244,33093,2,0,L|95:183,1,44.999998626709,10|2,0:2|0:0,0:0:0:0:
105,157,33457,1,2,0:0:0:0:
53,89,33821,5,0,1:2:0:0:
53,89,34002,2,0,P|82:72|151:86,1,89.9999972534181,2|2,0:0|1:2,0:0:0:0:
179,104,34548,1,10,0:2:0:0:
179,104,34730,1,2,0:2:0:0:
233,175,35093,2,0,L|337:193,1,89.9999972534181,0|2,0:0|1:2,0:0:0:0:
366,199,35639,1,2,1:2:0:0:
446,156,36002,1,10,0:2:0:0:
446,156,36184,2,0,P|465:115|446:66,1,89.9999972534181,2|0,0:0|0:0,0:0:0:0:
427,30,36730,5,4,1:2:0:0:
348,92,37093,1,2,0:0:0:0:
286,13,37457,2,0,P|247:11|196:50,1,100,10|2,0:2|0:0,0:0:0:0:
174,88,38002,2,0,L|64:76,1,100,2|0,0:0|1:2,0:0:0:0:
28,74,38548,1,2,1:2:0:0:
28,74,38730,1,2,0:0:0:0:
1,170,39093,1,2,0:0:0:0:
88,229,39457,5,2,0:0:0:0:
88,229,39639,2,0,L|67:341,1,100,2|0,1:2|0:0,0:0:0:0:
153,382,40366,1,8,0:2:0:0:
205,296,40730,2,0,L|264:286,1,50,2|2,0:0|0:0,0:0:0:0:
296,260,41093,2,0,L|400:282,1,100,2|0,0:0|1:2,0:0:0:0:
447,295,41639,1,2,0:0:0:0:
447,295,41821,1,10,0:2:0:0:
501,211,42184,2,0,L|491:148,1,50,2|0,0:0|0:0,0:0:0:0:
485,111,42548,1,2,1:2:0:0:
407,47,42911,6,0,L|357:54,1,50,2|2,0:0|1:2,0:0:0:0:
325,94,43275,1,10,0:2:0:0:
325,94,43457,2,0,L|211:78,1,100,2|0,0:0|0:0,0:0:0:0:
176,73,44002,1,2,0:2:0:0:
80,102,44366,1,2,1:2:0:0:
109,198,44730,1,8,0:2:0:0:
205,169,45093,2,0,L|272:181,1,50,0|2,0:0|0:0,0:0:0:0:
303,186,45457,6,0,P|334:220|328:293,1,100,2|2,1:2|0:0,0:0:0:0:
312,315,46002,1,2,1:2:0:0:
216,286,46366,1,2,1:2:0:0:
168,375,46730,1,2,1:2:0:0:
168,375,46911,2,0,L|101:360,1,50,0|8,0:0|0:2,0:0:0:0:
70,350,47275,1,8,0:2:0:0:
48,252,47639,2,0,L|0:262,2,50,8|8|4,0:2|0:3|0:3,0:0:0:0:
127,191,48366,5,4,1:2:0:0:
57,119,48730,1,2,1:2:0:0:
135,56,49093,1,2,1:2:0:0:
135,56,49275,2,0,P|181:30|242:45,1,100,2|2,0:0|0:2,0:0:0:0:
270,59,49821,1,0,1:2:0:0:
357,10,50184,1,0,1:2:0:0:
404,98,50548,2,0,L|382:213,1,100,8|0,0:2|1:2,0:0:0:0:
415,291,51275,5,0,1:2:0:0:
335,351,51639,1,2,1:2:0:0:
269,283,52002,1,2,1:2:0:0:
269,283,52184,2,0,L|170:301,1,100,2|2,0:0|0:0,0:0:0:0:
121,313,52730,1,0,1:2:0:0:
26,281,53093,1,0,1:2:0:0:
66,189,53457,2,0,L|51:118,1,50,8|0,1:2|1:2,0:0:0:0:
26,99,53821,2,0,L|41:28,1,50,0|10,1:2|0:2,0:0:0:0:
66,10,54184,6,0,P|101:-1|162:32,1,100,6|10,1:2|0:2,0:0:0:0:
185,64,54730,1,2,1:2:0:0:
277,27,55093,1,2,1:2:0:0:
312,126,55457,1,2,1:2:0:0:
312,126,55639,2,0,L|429:104,1,100,2|10,1:2|0:2,0:0:0:0:
459,100,56184,1,2,1:2:0:0:
512,191,56547,1,2,1:2:0:0:
512,191,56730,2,0,L|496:259,1,50,8|2,0:2|1:2,0:0:0:0:
476,283,57093,6,0,B|429:270|429:309|379:293,1,100,6|8,1:2|0:0,0:0:0:0:
332,275,57639,1,0,1:0:0:0:
239,237,58002,2,0,L|250:188,1,50,2|10,1:2|0:0,0:0:0:0:
275,144,58366,2,0,P|282:99|243:54,1,100,2|0,1:2|1:0,0:0:0:0:
204,38,58911,1,12,0:0:0:0:
106,58,59275,2,0,L|94:106,1,50,4|8,1:2|0:3,0:0:0:0:
63,145,59639,2,0,L|74:193,1,50,6|2,0:3|1:2,0:0:0:0:
94,245,60002,1,10,0:0:0:0:
94,245,60184,1,10,0:0:0:0:
83,83,61457,6,0,P|117:56|184:63,1,110.000003356934,6|10,1:2|0:2,0:0:0:0:
224,94,62002,1,2,0:2:0:0:
325,51,62366,1,2,1:2:0:0:
371,150,62730,1,2,0:0:0:0:
371,150,62911,2,0,L|350:278,1,110.000003356934,0|8,1:2|0:2,0:0:0:0:
340,312,63457,1,0,0:0:0:0:
340,312,63639,2,0,L|280:328,1,55.0000016784668,2|0,1:2|1:2,0:0:0:0:
239,354,64002,2,0,L|185:339,1,55.0000016784668,10|0,0:2|1:2,0:0:0:0:
132,326,64366,5,2,1:2:0:0:
45,257,64730,1,10,0:0:0:0:
45,257,64911,2,0,B|33:196|72:204|61:151,1,110.000003356934,2|2,0:0|1:2,0:0:0:0:
40,99,65457,1,8,0:0:0:0:
40,99,65639,2,0,P|82:64|135:68,1,110.000003356934,2|2,0:0|0:0,0:0:0:0:
180,101,66184,1,10,0:0:0:0:
283,60,66548,2,0,L|349:77,1,55.0000016784668,2|0,1:2|1:2,0:0:0:0:
388,91,66911,1,10,0:0:0:0:
465,169,67275,6,0,P|432:202|363:194,1,110.000003356934,2|10,1:2|0:0,0:0:0:0:
323,173,67821,2,0,P|269:168|229:203,1,110.000003356934,2|2,0:0|1:2,0:0:0:0:
203,251,68366,1,8,0:0:0:0:
244,352,68730,2,0,L|359:376,1,110.000003356934,2|10,1:2|0:0,0:0:0:0:
406,366,69275,2,0,B|394:305|433:313|422:260,1,110.000003356934,2|2,0:0|1:2,0:0:0:0:
404,207,69821,1,8,0:0:0:0:
482,129,70184,6,0,P|449:100|382:103,1,110.000003356934,6|10,1:2|0:0,0:0:0:0:
338,130,70730,2,0,L|271:147,1,55.0000016784668,2|2,1:2|1:2,0:0:0:0:
239,175,71093,2,0,L|185:161,1,55.0000016784668,10|8,0:0|0:0,0:0:0:0:
132,146,71457,1,6,1:2:0:0:
29,186,71821,2,0,L|18:242,1,55.0000016784668,8|8,0:2|0:2,0:0:0:0:
13,294,72184,2,0,B|74:282|66:321|119:310,1,110.000003356934,6|8,1:2|0:2,0:0:0:0:
166,338,72730,2,0,L|220:324,1,55.0000016784668,10|4,0:3|0:3,0:0:0:0:
259,286,73093,6,0,P|295:278|365:333,1,110.000003356934,6|10,1:2|0:0,0:0:0:0:
385,358,73639,1,2,0:0:0:0:
480,302,74002,1,2,1:2:0:0:
424,214,74366,1,2,1:2:0:0:
424,214,74548,2,0,B|412:153|451:161|440:108,1,110.000003356934,0|8,1:2|0:0,0:0:0:0:
423,61,75093,1,0,1:2:0:0:
423,61,75275,2,0,L|353:47,1,55.0000016784668,0|2,1:2|1:2,0:0:0:0:
326,14,75639,2,0,L|272:24,1,55.0000016784668,10|2,0:0|1:2,0:0:0:0:
219,40,76002,5,2,1:2:0:0:
187,148,76366,1,10,0:0:0:0:
187,148,76548,2,0,L|205:267,1,110.000003356934,2|2,0:0|1:2,0:0:0:0:
213,310,77093,1,8,0:0:0:0:
118,367,77457,2,0,P|64:374|19:326,1,110.000003356934,2|10,1:2|0:0,0:0:0:0:
3,290,78002,1,0,1:2:0:0:
3,290,78184,2,0,L|20:212,1,55.0000016784668,2|8,1:2|0:0,0:0:0:0:
60,204,78548,2,0,L|43:126,1,55.0000016784668,10|8,0:0|0:0,0:0:0:0:
28,99,78911,5,14,0:0:0:0:
112,28,79275,1,0,1:0:0:0:
112,28,79457,2,0,B|173:16|165:55|218:44,1,110.000003356934,12|2,0:0|1:2,0:0:0:0:
271,33,80002,1,14,0:2:0:0:
376,65,80366,2,0,L|388:130,1,55.0000016784668,2|12,1:2|0:0,0:0:0:0:
421,161,80730,2,0,L|409:226,1,55.0000016784668,14|2,0:2|1:2,0:0:0:0:
400,269,81093,1,14,0:2:0:0:
297,308,81457,1,10,0:3:0:0:
261,203,81821,6,0,P|206:191|154:231,1,110.000003356934,6|0,1:2|1:0,0:0:0:0:
132,265,82366,1,8,0:3:0:0:
132,265,82548,2,0,P|94:275|63:263,1,55.0000016784668,0|8,1:0|0:3,0:0:0:0:
28,251,82911,2,0,P|18:213|30:182,1,55.0000016784668,8|10,0:0|0:2,0:0:0:0:
37,150,83275,1,2,1:2:0:0:
256,192,84730,5,2,0:0:0:0:
256,192,84911,12,0,87457,0:0:0:0:
