osu file format v14

[General]
AudioFilename: audio.mp3
AudioLeadIn: 0
PreviewTime: 46021
Countdown: 0
SampleSet: Normal
StackLeniency: 0.7
Mode: 1
LetterboxInBreaks: 0
WidescreenStoryboard: 1

[Editor]
Bookmarks: 9444,16829,17290,17521,17983,18213,18444,19367,19598,19829,20060,20290,20521,20983,21213,21675,21906,22136,23983,24213,24675,24906,25367,25598,25829,26752,26983,27213,27444,27675,27906,28367,28598,29060,29290,29521,31598,32983,33098,33213,38983,56983,57213,57444,61136,79598,86983
DistanceSpacing: 0.1
BeatDivisor: 2
GridSize: 32
TimelineZoom: 1.1

[Metadata]
Title:quantum jump
TitleUnicode:quantum jump
Artist:Marika
ArtistUnicode:真里歌
Creator:yuzu__rinrin
Version:Kantan
Source:フレラバ ~Friend to Lover~
Tags:visual novel eroge game opening moe galgame angel note smee fureraba
BeatmapID:1604270
BeatmapSetID:763095

[Difficulty]
HPDrainRate:6
CircleSize:2
OverallDifficulty:5
ApproachRate:10
SliderMultiplier:1.4
SliderTickRate:1

[Events]
//Background and Video events
0,0,"guishen_0011.jpg",0,40
//Break Periods
//Storyboard Layer 0 (Background)
//Storyboard Layer 1 (Fail)
//Storyboard Layer 2 (Pass)
//Storyboard Layer 3 (Foreground)
//Storyboard Sound Samples

[TimingPoints]
2060,461.538461538462,4,1,0,70,1,0
16829,-100,4,1,0,60,0,0
31598,-100,4,1,0,70,0,0
46367,-100,4,1,0,80,0,1
72213,-100,4,1,0,70,0,0
86983,-100,4,1,0,60,0,0
87444,-100,4,1,0,50,0,0
87906,-100,4,1,0,40,0,0
88367,-100,4,1,0,30,0,0

[HitObjects]
416,192,2060,5,4,0:0:0:0:
256,192,2983,1,0,0:0:0:0:
256,192,3675,1,8,0:0:0:0:
256,192,5290,1,8,0:0:0:0:
256,192,5752,1,0,0:0:0:0:
256,192,6675,1,0,0:0:0:0:
256,192,7367,1,8,0:0:0:0:
256,192,8983,1,8,0:0:0:0:
256,192,9444,1,4,0:0:0:0:
256,192,10367,1,0,0:0:0:0:
256,192,11060,1,8,0:0:0:0:
256,192,12675,1,8,0:0:0:0:
256,192,13136,1,0,0:0:0:0:
256,192,14060,1,0,0:0:0:0:
256,192,14752,1,8,0:0:0:0:
256,192,16829,1,0,0:0:0:0:
256,192,17752,1,8,0:0:0:0:
256,192,18675,1,0,0:0:0:0:
256,192,20521,1,0,0:0:0:0:
256,192,21444,1,8,0:0:0:0:
256,192,22367,1,0,0:0:0:0:
256,192,24213,1,0,0:0:0:0:
256,192,25136,1,8,0:0:0:0:
256,192,26060,1,0,0:0:0:0:
256,192,27906,1,8,0:0:0:0:
256,192,28829,1,0,0:0:0:0:
256,192,29752,1,8,0:0:0:0:
256,192,31598,1,4,0:0:0:0:
256,192,32521,1,8,0:0:0:0:
256,192,33444,1,0,0:0:0:0:
256,192,33906,1,8,0:0:0:0:
256,192,34367,1,0,0:0:0:0:
256,192,35290,1,0,0:0:0:0:
256,192,36213,1,8,0:0:0:0:
256,192,37136,1,8,0:0:0:0:
256,192,38983,1,4,0:0:0:0:
256,192,39906,1,8,0:0:0:0:
256,192,40829,1,0,0:0:0:0:
256,192,41291,1,8,0:0:0:0:
256,192,41752,1,0,0:0:0:0:
256,192,42674,1,0,0:0:0:0:
256,192,43598,1,8,0:0:0:0:
256,192,44290,12,0,45906,0:0:0:0:
256,192,46367,5,4,0:0:0:0:
256,192,47290,1,8,0:0:0:0:
256,192,47752,1,0,0:0:0:0:
256,192,48213,1,8,0:0:0:0:
256,192,48906,1,0,0:0:0:0:
256,192,50059,1,0,0:0:0:0:
256,192,50983,1,8,0:0:0:0:
256,192,51444,1,0,0:0:0:0:
256,192,51906,1,0,0:0:0:0:
256,192,52598,1,8,0:0:0:0:
256,192,53752,1,0,0:0:0:0:
256,192,54675,1,8,0:0:0:0:
256,192,55598,1,0,0:0:0:0:
256,192,56060,1,8,0:0:0:0:
256,192,56982,5,8,0:0:0:0:
256,192,57444,1,8,0:0:0:0:
256,192,59059,1,4,0:0:0:0:
256,192,59752,1,12,0:0:0:0:
256,192,61136,1,4,0:0:0:0:
256,192,62060,1,8,0:0:0:0:
256,192,62521,1,0,0:0:0:0:
256,192,62983,1,8,0:0:0:0:
256,192,63674,1,8,0:0:0:0:
256,192,64828,1,0,0:0:0:0:
256,192,65752,1,0,0:0:0:0:
256,192,66213,1,0,0:0:0:0:
256,192,66675,1,8,0:0:0:0:
256,192,67367,1,8,0:0:0:0:
256,192,68521,1,0,0:0:0:0:
256,192,69444,1,0,0:0:0:0:
256,192,69906,1,8,0:0:0:0:
256,192,70367,1,0,0:0:0:0:
256,192,71290,1,12,0:0:0:0:
416,192,72213,5,0,0:0:0:0:
256,192,73136,1,0,0:0:0:0:
256,192,73828,1,8,0:0:0:0:
256,192,75443,1,8,0:0:0:0:
256,192,75905,1,0,0:0:0:0:
256,192,76828,1,0,0:0:0:0:
256,192,77520,1,8,0:0:0:0:
256,192,79136,1,8,0:0:0:0:
256,192,79597,1,4,0:0:0:0:
256,192,80520,1,0,0:0:0:0:
256,192,81213,1,8,0:0:0:0:
256,192,82828,1,8,0:0:0:0:
256,192,83289,1,0,0:0:0:0:
256,192,84213,1,0,0:0:0:0:
256,192,84905,1,8,0:0:0:0:
256,192,86521,1,8,0:0:0:0:
256,192,86983,12,8,88829,0:0:0:0:
