osu file format v14

[General]
AudioFilename: quantum jump .mp3
AudioLeadIn: 0
PreviewTime: 171197
Countdown: 0
SampleSet: Soft
StackLeniency: 0.7
Mode: 0
LetterboxInBreaks: 0
EpilepsyWarning: 1
WidescreenStoryboard: 0

[Editor]
Bookmarks: 10598
DistanceSpacing: 1.1
BeatDivisor: 4
GridSize: 4
TimelineZoom: 2.499999

[Metadata]
Title:quantum jump
TitleUnicode:quantum jump
Artist:Marika
ArtistUnicode:真里歌
Creator:Shurelia
Version:Solar's Easy
Source:フレラバ ~Friend to Lover~
Tags:Eroge Opening Visual Novel smee fureraba kanari xXCrystalMoonAnimeXx El Solarbeam Nardoxyribonucleic
BeatmapID:1098052
BeatmapSetID:183467

[Difficulty]
HPDrainRate:2
CircleSize:3
OverallDifficulty:2
ApproachRate:3
SliderMultiplier:1
SliderTickRate:1

[Events]
//Background and Video events
0,0,"rina1.jpg",0,0
//Break Periods
2,157089,168373
//Storyboard Layer 0 (Background)
Sprite,Background,Centre,"rina1.jpg",320,240
//Storyboard Layer 1 (Fail)
//Storyboard Layer 2 (Pass)
//Storyboard Layer 3 (Foreground)
//Storyboard Sound Samples

[TimingPoints]
1813,461.538461538462,4,2,1,47,1,0
16582,-100,4,2,1,32,0,0
23851,-100,4,2,1,5,0,0
23966,-100,4,2,1,32,0,0
30889,-100,4,2,2,42,0,0
31236,-100,4,2,2,5,0,0
31351,-100,4,2,1,52,0,0
46120,-100,4,2,1,57,0,1
59966,-100,4,2,1,57,0,0
60889,-100,4,2,1,57,0,1
71966,-100,4,2,1,57,0,0
74736,-100,4,2,1,45,0,0
86736,-100,4,2,1,32,0,0
88582,-100,4,2,1,32,0,0
94005,-100,4,2,1,5,0,0
94120,-100,4,2,1,32,0,0
95736,-100,4,2,1,32,0,0
96197,-100,4,2,1,32,0,0
99428,-100,4,2,1,32,0,0
100120,-100,4,2,1,32,0,0
101043,-100,4,2,1,42,0,0
101389,-100,4,2,1,5,0,0
101505,-100,4,2,1,52,0,0
116274,-100,4,2,1,57,0,1
129659,-100,4,2,1,57,0,0
131043,-100,4,2,1,57,0,1
142582,-100,4,2,1,57,0,0
147774,-100,4,2,1,5,0,0
148120,-100,4,2,1,57,0,0
148466,-100,4,2,1,5,0,0
148582,-100,4,2,1,57,0,0
148928,-100,4,2,1,5,0,0
149043,-100,4,2,1,57,0,0
169813,-100,4,2,1,25,0,0
171197,-100,4,2,1,25,0,0
171659,-100,4,2,1,25,0,0
185274,-100,4,2,1,69,0,0
185505,-100,4,2,1,69,0,0
186428,-100,4,2,1,57,0,1
195659,-100,4,2,1,57,0,0
197505,-100,4,2,1,57,0,1
208582,-100,4,2,1,57,0,0
212274,-100,4,2,1,57,0,1
223351,-100,4,2,1,47,0,0
238120,-100,4,2,1,47,0,0
238236,-100,4,2,1,10,0,0

[Colours]
Combo1 : 236,211,182
Combo2 : 226,146,133
Combo3 : 202,50,82
Combo4 : 63,71,132

[HitObjects]
100,300,1813,6,0,B|153:274|198:297|198:297|179:251|201:200,1,200,6|2,0:0|0:0,0:0:0:0:
300,253,3197,1,10,0:0:0:0:
396,306,3659,2,0,B|424:248|388:186|388:186|392:136|428:104,1,200,2|2,0:0|0:0,0:0:0:0:
464,20,5043,1,10,0:0:0:0:
356,32,5505,6,0,B|304:60|260:36|260:36|208:12|163:34,1,200,2|2,0:0|0:0,0:0:0:0:
72,96,6889,1,10,0:0:0:0:
37,200,7351,2,0,P|37:249|56:295,1,100,2|10,0:0|0:0,0:0:0:0:
148,355,8274,2,0,P|197:362|245:348,1,100,2|10,0:0|0:0,0:0:0:0:
352,331,9197,6,0,B|372:287|424:263|424:263|376:227|372:179,1,200,6|2,0:0|0:0,0:0:0:0:
484,172,10582,1,10,0:0:0:0:
404,96,11043,2,0,P|312:116|288:212,1,200,2|2,0:0|0:0,0:0:0:0:
344,304,12428,1,10,0:0:0:0:
233,308,12889,6,0,B|185:336|137:328|137:328|105:292|105:232,1,200,2|2,0:0|0:0,0:0:0:0:
168,144,14274,1,10,0:0:0:0:
60,128,14736,2,0,P|76:80|116:48,1,100,2|10,0:0|0:0,0:0:0:0:
224,48,15659,2,0,P|262:80|277:129,1,100,2|10,0:0|0:0,0:0:0:0:
380,168,16582,6,0,P|372:220|340:256,1,100,6|2,0:0|0:0,0:0:0:0:
260,328,17505,2,0,B|208:310|165:331|165:331|132:318|118:290,1,150,8|0,0:1|0:0,0:0:0:0:
103,248,18428,2,0,P|116:199|114:149,1,100,2|2,0:0|0:0,0:0:0:0:
92,44,19351,1,8,0:1:0:0:
196,80,19813,1,0,0:0:0:0:
304,80,20274,6,0,B|368:80|404:60|404:60|432:104|428:156,1,200,2|8,0:0|0:1,0:0:0:0:
440,260,21659,1,2,0:0:0:0:
340,216,22120,2,0,P|328:269|344:316,1,100,2|2,0:0|0:0,0:0:0:0:
440,260,23043,2,0,P|452:207|436:160,1,100,8|2,0:1|0:0,0:0:0:0:
345,106,23966,6,0,P|333:159|349:206,1,100,4|2,0:0|0:0,0:0:0:0:
341,311,24889,2,0,P|269:288|194:284,1,150,8|0,0:1|0:0,0:0:0:0:
163,239,25813,2,0,P|135:197|132:148,1,100,2|2,0:0|0:0,0:0:0:0:
180,49,26736,1,8,0:1:0:0:
288,36,27197,1,2,0:0:0:0:
304,144,27659,5,2,0:0:0:0:
196,156,28120,1,2,0:0:0:0:
112,228,28582,2,0,P|176:268|248:256,1,150,0|0,0:0|0:0,0:0:0:0:
288,292,29505,2,0,P|340:280|388:292,1,100,2|2,0:0|0:0,0:0:0:0:
484,244,30428,1,8,0:1:0:0:
456,140,30889,1,12,0:0:0:0:
368,204,31351,5,4,0:0:0:0:
332,100,31813,2,0,B|224:100|224:100|156:168,1,200,4|4,0:1|0:1,0:0:0:0:
100,256,33197,1,0,0:0:0:0:
184,328,33659,2,0,B|240:312|292:344|292:344|344:348|376:304,1,200,4|4,0:1|0:1,0:0:0:0:
392,204,35043,5,2,0:0:0:0:
304,136,35505,2,0,B|352:104|352:52|352:52|408:72|456:52,2,200,4|4|4,0:1|0:1|0:1,0:0:0:0:
244,44,37813,1,0,0:0:0:0:
144,92,38274,1,4,0:1:0:0:
220,172,38736,6,0,B|234:270,1,100,6|4,0:0|0:1,0:0:0:0:
343,255,39659,2,0,B|328:155,1,100,0|4,0:0|0:1,0:0:0:0:
330,101,40351,2,0,P|262:76|204:119,1,150,2|4,0:0|0:1,0:0:0:0:
96,120,41505,2,0,P|104:172|136:212,1,100,2|4,0:0|0:1,0:0:0:0:
64,296,42428,6,0,P|102:332|152:343,1,100,6|4,0:0|0:1,0:0:0:0:
256,344,43351,2,0,P|304:328|352:336,1,100,2|4,0:0|0:1,0:0:0:0:
404,348,44043,2,0,P|388:272|400:196,1,150,6|4,0:0|0:1,0:0:0:0:
428,96,45197,1,6,0:0:0:0:
344,24,45659,2,0,L|332:72,1,50,4|4,0:1|0:3,0:0:0:0:
318,125,46120,5,4,0:0:0:0:
398,201,46582,1,4,0:1:0:0:
296,228,47043,2,0,P|316:272|360:300,1,100,2|4,0:0|0:1,0:0:0:0:
392,344,47736,2,0,L|240:344,1,150,2|4,0:0|0:1,0:0:0:0:
147,288,48889,2,0,P|132:334|139:383,1,100,2|4,0:0|0:1,0:0:0:0:
241,344,49813,6,0,P|259:297|252:248,1,100,2|4,0:0|0:1,0:0:0:0:
168,172,50736,2,0,B|208:132|260:140,1,100,2|4,0:0|0:1,0:0:0:0:
312,156,51428,2,0,P|400:168|456:128,1,150,2|4,0:0|0:1,0:0:0:0:
368,64,52582,1,2,0:0:0:0:
312,156,53043,1,4,0:1:0:0:
256,252,53505,5,6,0:0:0:0:
196,160,53966,2,0,P|144:248|184:336,1,200,4|4,0:1|0:1,0:0:0:0:
227,359,55120,2,0,P|303:375|375:331,1,150,2|4,0:0|0:1,0:0:0:0:
292,256,56274,1,2,0:0:0:0:
364,172,56736,1,4,0:1:0:0:
255,156,57197,6,0,P|243:108|256:60,2,100,6|4|2,0:0|0:1|0:0,0:0:0:0:
356,112,58582,1,4,0:1:0:0:
456,160,59043,2,0,P|468:108|452:56,2,100,0|4|4,0:0|0:1|0:1,0:0:0:0:
497,262,60428,2,0,L|436:261,1,50,8|4,0:3|0:3,0:0:0:0:
391,259,60889,5,4,0:0:0:0:
281,253,61351,1,4,0:1:0:0:
284,142,61813,2,0,P|234:133|185:141,1,100,2|4,0:0|0:1,0:0:0:0:
136,116,62505,2,0,B|126:156|139:214|120:264,1,150,2|4,0:0|0:1,0:0:0:0:
180,356,63659,2,0,P|228:344|264:300,1,100,2|4,0:0|0:1,0:0:0:0:
271,199,64582,6,0,P|319:215|353:251,1,100,2|4,0:0|0:1,0:0:0:0:
463,258,65505,2,0,L|474:158,1,100,2|4,0:0|0:1,0:0:0:0:
456,108,66197,2,0,B|420:92|384:104|384:104|340:116|310:97,1,150,2|4,0:0|0:1,0:0:0:0:
204,112,67351,2,0,P|176:156|180:204,1,100,2|4,0:0|0:1,0:0:0:0:
68,196,68274,6,0,P|73:247|105:283,1,100,4|4,0:0|0:1,0:0:0:0:
146,316,68966,2,0,P|219:301|292:318,1,150,2|4,0:0|0:1,0:0:0:0:
400,340,70120,1,2,0:0:0:0:
435,236,70582,1,4,0:1:0:0:
394,133,71043,2,0,P|357:99|308:95,1,100,12|4,0:0|0:1,0:0:0:0:
256,192,71966,5,4,0:0:0:0:
148,216,72428,2,0,B|160:272|216:296|216:296|164:316|148:372,1,200,2|2,0:0|0:0,0:0:0:0:
60,296,73813,1,2,0:0:0:0:
32,188,74274,2,0,P|83:106|179:98,1,200,2|2,0:0|0:0,0:0:0:0:
240,188,75659,5,2,0:0:0:0:
304,100,76120,2,0,P|400:108|452:192,1,200,0|2,0:0|0:0,0:0:0:0:
344,204,77505,2,0,B|356:252|356:252|396:284,1,100,2|2,0:0|0:0,0:0:0:0:
324,368,78428,2,0,B|283:338|283:338|232:340,1,100,2|10,0:0|0:0,0:0:0:0:
124,324,79351,6,0,P|80:240|124:148,1,200,2|2,0:0|0:0,0:0:0:0:
192,236,80736,1,10,0:0:0:0:
260,324,81197,2,0,P|304:240|260:148,1,200,2|2,0:0|0:0,0:0:0:0:
188,68,82582,1,10,0:0:0:0:
92,124,83043,6,0,P|172:180|264:148,1,200,2|2,0:0|0:0,0:0:0:0:
368,116,84428,1,10,0:0:0:0:
352,224,84889,2,0,P|340:276|356:320,1,100,2|10,0:0|0:0,0:0:0:0:
464,316,85813,2,0,P|476:264|460:220,1,100,2|10,0:0|0:0,0:0:0:0:
352,224,86736,6,0,P|336:177|348:129,1,100,2|2,0:0|0:0,0:0:0:0:
244,92,87659,2,0,B|240:126|208:152|208:152|156:142|152:105,1,150,8|0,0:1|0:0,0:0:0:0:
116,64,88582,2,0,P|36:116|56:220,1,200,2|8,0:0|0:1,0:0:0:0:
51,319,89966,1,2,0:0:0:0:
141,382,90428,5,2,0:0:0:0:
152,272,90889,2,0,B|200:244|248:272,1,100,2|8,0:0|0:1,0:0:0:0:
356,252,91813,2,0,B|349:198|298:176,1,100,2|2,0:0|0:0,0:0:0:0:
188,172,92736,1,2,0:0:0:0:
132,264,93197,1,8,0:1:0:0:
228,320,93659,1,2,0:0:0:0:
292,228,94120,6,0,L|392:200,1,100,6|2,0:0|0:0,0:0:0:0:
376,92,95043,2,0,L|224:136,1,150,8|0,0:1|0:0,0:0:0:0:
188,100,95966,2,0,P|152:132|136:184,1,100,2|2,0:0|0:0,0:0:0:0:
28,156,96889,2,0,P|26:204|53:251,1,100,8|2,0:1|0:0,0:0:0:0:
132,321,97813,6,0,B|183:307|240:357|277:323,1,150,2|0,0:0|0:0,0:0:0:0:
332,332,98736,2,0,P|356:264|320:192,1,150,8|0,0:1|0:0,0:0:0:0:
270,203,99659,2,0,P|238:159|242:107,1,100,2|2,0:0|0:0,0:0:0:0:
292,19,100582,1,4,0:1:0:0:
352,111,101043,1,4,0:0:0:0:
240,116,101505,6,0,P|188:128|144:116,1,100,4|4,0:0|0:1,0:0:0:0:
36,88,102428,2,0,P|44:136|36:188,1,100,0|4,0:0|0:1,0:0:0:0:
44,240,103120,2,0,B|84:224|114:242|114:242|156:264|192:244,1,150,2|4,0:0|0:1,0:0:0:0:
296,236,104274,2,0,L|328:276,2,50,2|2|4,0:0|0:0|0:1,0:0:0:0:
256,132,105197,5,2,0:0:0:0:
352,76,105659,2,0,P|272:20|172:56,1,200,4|4,0:1|0:1,0:0:0:0:
72,56,107043,2,0,B|96:88|96:88|96:156,1,100,0|4,0:0|0:1,0:0:0:0:
204,132,107966,2,0,B|204:192|204:192|228:224,1,100,0|4,0:0|0:1,0:0:0:0:
177,322,108889,6,0,P|225:338|273:326,1,100,4|4,0:0|0:1,0:0:0:0:
343,245,109813,2,0,P|390:232|437:249,1,100,0|4,0:0|0:1,0:0:0:0:
488,272,110505,2,0,P|483:193|488:120,1,150,2|4,0:0|0:1,0:0:0:0:
472,16,111659,1,2,0:0:0:0:
364,44,112120,1,4,0:1:0:0:
280,116,112582,6,0,P|272:168|276:216,1,100,6|4,0:0|0:1,0:0:0:0:
164,212,113505,2,0,P|172:160|168:112,1,100,2|4,0:0|0:1,0:0:0:0:
144,64,114197,2,0,P|76:72|20:128,1,150,6|4,0:0|0:1,0:0:0:0:
68,228,115351,1,4,0:1:0:0:
119,325,115813,2,0,P|142:333|167:336,1,50,4|4,0:1|0:3,0:0:0:0:
207,293,116274,5,4,0:0:0:0:
239,187,116736,1,4,0:1:0:0:
308,272,117198,2,0,P|356:262|395:231,1,100,2|4,0:0|0:1,0:0:0:0:
428,189,117889,2,0,P|417:115|369:59,1,150,0|4,0:0|0:1,0:0:0:0:
256,56,119043,2,0,P|212:72|160:64,1,100,2|4,0:0|0:1,0:0:0:0:
108,164,119966,6,0,P|59:155|12:170,1,100,2|4,0:0|0:1,0:0:0:0:
68,268,120889,2,0,P|116:276|163:261,1,100,0|4,0:0|0:1,0:0:0:0:
215,239,121582,2,0,P|285:238|355:271,1,150,2|4,0:0|0:1,0:0:0:0:
452,324,122736,2,0,P|442:265|452:208,1,100,2|4,0:0|0:1,0:0:0:0:
424,120,123659,6,0,P|376:140|348:184,1,100,6|4,0:0|0:1,0:0:0:0:
240,176,124582,2,0,P|211:216|165:234,1,100,2|4,0:0|0:1,0:0:0:0:
112,228,125274,2,0,B|76:256|76:292|76:292|88:328|136:332,1,150,2|4,0:0|0:1,0:0:0:0:
244,344,126428,2,0,B|280:308|280:308|336:308,1,100,2|4,0:0|0:1,0:0:0:0:
332,196,127351,6,0,B|282:196|282:196|246:160,1,100,6|4,0:0|0:1,0:0:0:0:
204,56,128274,2,0,P|160:88|140:136,1,100,2|4,0:0|0:1,0:0:0:0:
160,180,128966,2,0,P|183:249|162:320,1,150,0|4,0:0|0:1,0:0:0:0:
268,328,130120,1,4,0:1:0:0:
376,344,130582,1,8,0:3:0:0:
416,240,131043,6,0,L|312:240,1,100,6|4,0:0|0:1,0:0:0:0:
208,260,131966,2,0,P|196:208|208:156,1,100,2|4,0:0|0:1,0:0:0:0:
228,112,132659,2,0,P|148:120|80:112,1,150,2|4,0:0|0:1,0:0:0:0:
16,204,133813,1,2,0:0:0:0:
104,272,134274,1,4,0:1:0:0:
212,260,134736,6,0,P|264:252|312:264,1,100,6|4,0:0|0:1,0:0:0:0:
388,340,135659,2,0,P|412:300|420:248,1,100,2|4,0:0|0:1,0:0:0:0:
392,200,136351,2,0,P|372:132|396:56,1,150,2|4,0:0|0:1,0:0:0:0:
284,56,137505,1,2,0:0:0:0:
176,56,137966,1,4,0:1:0:0:
228,152,138428,6,0,L|228:260,1,100,6|4,0:0|0:1,0:0:0:0:
336,232,139351,2,0,L|336:340,1,100,2|4,0:0|0:1,0:0:0:0:
280,336,140043,2,0,B|248:360|208:348|208:348|172:336|132:348,1,150,2|4,0:0|0:1,0:0:0:0:
48,276,141197,1,14,0:0:0:0:
148,232,141659,2,0,L|184:196,2,50,4|4|6,0:1|0:3|0:0,0:0:0:0:
56,168,142582,5,4,0:1:0:0:
140,100,143043,2,0,B|168:96|192:64|192:64|236:100|236:100|276:84|320:100,1,200,2|2,0:0|0:0,0:0:0:0:
420,72,144428,2,0,L|456:36,2,50,4|0|2,0:1|0:0|0:0,0:0:0:0:
388,176,145351,2,0,B|412:220|412:220|388:268,1,100,4|2,0:1|0:0,0:0:0:0:
288,220,146274,6,0,L|188:220,1,100,4|2,0:1|0:0,0:0:0:0:
96,160,147197,2,0,L|96:100,2,50,4|2|6,0:1|0:0|0:0,0:0:0:0:
100,272,148120,1,2,0:0:0:0:
180,348,148582,1,2,0:0:0:0:
240,252,149043,2,0,P|284:232|336:240,1,100,2|6,0:0|0:0,0:0:0:0:
296,344,149966,5,4,0:1:0:0:
396,300,150428,2,0,B|428:264|416:217|416:217|392:176|392:176|388:140|404:108,1,200,2|2,0:0|0:0,0:0:0:0:
316,40,151813,2,0,P|264:28|212:40,1,100,4|2,0:1|0:0,0:0:0:0:
264,136,152736,2,0,L|264:192,2,50,4|0|2,0:1|0:0|0:0,0:0:0:0:
161,95,153659,6,0,P|112:86|63:98,1,100,4|2,0:1|0:0,0:0:0:0:
54,207,154582,2,0,P|41:255|52:303,1,100,4|2,0:1|0:0,0:0:0:0:
152,256,155505,6,0,B|180:265|208:268|208:268|244:240|244:240|280:276|328:284|328:284|368:248|432:268,1,300,4|6,0:1|0:0,0:0:0:0:
256,192,169813,12,0,171197,0:0:0:0:
358,70,172582,5,0,0:0:0:0:
380,232,173274,2,0,B|340:220|304:236|304:236|268:252|232:232,1,150
132,268,174428,2,0,B|112:224|136:184|136:184|100:148|100:148|124:128|124:92,1,200,0|0,0:0|0:0,0:0:0:0:
338,43,176274,5,0,0:0:0:0:
476,136,176966,2,0,P|472:212|484:284,1,150
380,320,178120,2,0,B|340:348|340:348|291:331,1,100,0|0,0:0|0:0,0:0:0:0:
284,224,179043,6,0,B|232:212|232:212|176:248|176:248|128:252|100:216,1,200,0|0,0:0|0:0,0:0:0:0:
132,56,180659,1,0,0:0:0:0:
284,124,181351,1,0,0:0:0:0:
336,220,181813,2,0,L|432:260,1,100,0|0,0:0|0:0,0:0:0:0:
256,192,182736,12,0,185043,0:0:0:0:
124,256,186428,6,0,P|168:268|224:256,1,100,6|4,0:0|0:1,0:0:0:0:
272,160,187351,2,0,P|320:149|368:161,1,100,2|4,0:0|0:1,0:0:0:0:
424,160,188043,2,0,P|416:228|428:312,1,150,2|4,0:0|0:1,0:0:0:0:
324,348,189197,1,2,0:0:0:0:
288,244,189659,1,4,0:1:0:0:
212,324,190120,6,0,P|180:284|176:236,1,100,6|4,0:0|0:1,0:0:0:0:
232,144,191043,2,0,P|227:94|195:56,1,100,2|4,0:0|0:1,0:0:0:0:
152,24,191736,2,0,P|224:32|300:24,1,150,2|4,0:0|0:1,0:0:0:0:
400,72,192889,2,0,L|440:32,2,50,2|2|4,0:0|0:0|0:1,0:0:0:0:
308,136,193813,6,0,P|300:184|316:240,1,100,6|4,0:0|0:1,0:0:0:0:
208,272,194736,2,0,P|234:312|284:342,1,100,2|4,0:0|0:1,0:0:0:0:
332,348,195428,2,0,B|360:340|404:348|404:348|420:312|416:272,1,150,2|4,0:0|0:1,0:0:0:0:
344,188,196582,2,0,P|384:164|436:164,2,100,8|8|6,0:3|0:3|0:0,0:0:0:0:
256,124,197966,5,4,0:1:0:0:
232,232,198428,2,0,P|184:216|128:220,1,100,2|4,0:0|0:1,0:0:0:0:
80,224,199120,2,0,P|104:152|96:76,1,150,2|4,0:0|0:1,0:0:0:0:
208,72,200274,2,0,B|260:56|306:72,1,100,2|4,0:0|0:1,0:0:0:0:
408,116,201197,5,0,0:0:0:0:
404,224,201659,1,4,0:1:0:0:
316,288,202120,2,0,P|264:296|216:280,1,100,2|4,0:0|0:1,0:0:0:0:
168,300,202813,2,0,P|128:236|125:160,1,150,2|4,0:0|0:1,0:0:0:0:
192,76,203966,1,2,0:0:0:0:
240,176,204428,1,4,0:1:0:0:
320,100,204889,6,0,B|372:108|372:108|416:76,1,100,6|4,0:0|0:1,0:0:0:0:
480,168,205813,2,0,B|437:198|437:198|427:251,1,100,2|4,0:0|0:1,0:0:0:0:
420,300,206505,2,0,P|352:288|268:296,1,150,2|4,0:0|0:1,0:0:0:0:
164,316,207659,2,0,L|128:356,2,50,2|2|4,0:0|0:0|0:1,0:0:0:0:
196,212,208582,6,0,P|204:160|192:112,1,100,6|4,0:0|0:1,0:0:0:0:
84,120,209505,2,0,P|76:172|88:220,1,100,2|4,0:0|0:1,0:0:0:0:
106,267,210197,2,0,P|156:323|228:339,1,150,2|4,0:0|0:1,0:0:0:0:
265,235,211351,1,4,0:1:0:0:
312,334,211813,1,8,0:3:0:0:
380,248,212274,6,0,P|372:196|344:156,1,100,6|4,0:0|0:1,0:0:0:0:
428,84,213197,2,0,P|386:51|338:41,1,100,2|4,0:0|0:1,0:0:0:0:
288,56,213889,2,0,B|212:72|212:72|140:56,1,150,2|4,0:0|0:1,0:0:0:0:
92,154,215043,2,0,B|189:177,1,100,2|4,0:0|0:1,0:0:0:0:
193,287,215966,5,4,0:0:0:0:
296,256,216428,1,4,0:1:0:0:
388,316,216889,2,0,P|404:264|396:212,1,100,2|4,0:0|0:1,0:0:0:0:
360,180,217582,2,0,P|348:104|384:40,1,150,2|4,0:0|0:1,0:0:0:0:
456,124,218736,1,2,0:0:0:0:
360,180,219197,1,4,0:1:0:0:
268,240,219659,5,6,0:0:0:0:
260,132,220120,2,0,P|208:148|176:188,1,100,4|2,0:1|0:0,0:0:0:0:
88,244,221043,2,0,L|32:244,2,50,4|2|0,0:1|0:0|0:0,0:0:0:0:
180,308,221966,2,0,P|213:344|261:357,1,100,4|6,0:1|0:0,0:0:0:0:
268,248,222889,1,8,0:3:0:0:
256,192,223351,12,8,224736,0:0:0:0:
387,233,226120,6,0,P|396:184|384:136,1,100,2|10,0:0|0:0,0:0:0:0:
309,54,227043,2,0,B|254:46|182:108|114:74,1,200,2|2,0:0|0:0,0:0:0:0:
13,116,228428,1,10,0:0:0:0:
38,222,228889,2,0,B|82:246|134:226|134:226|166:242|166:242|198:222|238:230,1,200,2|2,0:0|0:0,0:0:0:0:
313,298,230274,1,8,0:0:0:0:
409,244,230736,6,0,B|385:196|329:188|329:188|321:128|345:92,1,200,6|2,0:0|0:0,0:0:0:0:
417,10,232120,1,8,0:0:0:0:
469,105,232582,2,0,P|480:154|483:204,1,100,2|8,0:0|0:0,0:0:0:0:
470,313,233505,2,0,P|421:324|371:327,1,100,2|10,0:0|0:0,0:0:0:0:
273,377,234428,6,0,B|253:325|277:281|277:281|229:293|173:273,1,200,2|2,0:0|0:0,0:0:0:0:
75,315,235813,2,0,P|68:265|84:218,1,100,8|2,0:0|0:0,0:0:0:0:
131,119,236736,2,0,P|153:74|194:44,1,100,8|2,0:0|0:0,0:0:0:0:
300,21,237659,1,6,0:0:0:0:
256,192,238120,12,0,239966,0:0:0:0:
