osu file format v14

[General]
AudioFilename: quantum jump .mp3
AudioLeadIn: 0
PreviewTime: 171197
Countdown: 0
SampleSet: Normal
StackLeniency: 0.7
Mode: 1
LetterboxInBreaks: 0
EpilepsyWarning: 1
WidescreenStoryboard: 0

[Editor]
DistanceSpacing: 1
BeatDivisor: 4
GridSize: 4
TimelineZoom: 0.5999988

[Metadata]
Title:quantum jump
TitleUnicode:quantum jump
Artist:Marika
ArtistUnicode:真里歌
Creator:Shurelia
Version:Nardo's Oni
Source:フレラバ ~Friend to Lover~
Tags:Eroge Opening Visual Novel smee fureraba kanari xXCrystalMoonAnimeXx El Solarbeam Nardoxyribonucleic
BeatmapID:1098050
BeatmapSetID:183467

[Difficulty]
HPDrainRate:5
CircleSize:5
OverallDifficulty:5
ApproachRate:6
SliderMultiplier:1.4
SliderTickRate:1

[Events]
//Background and Video events
0,0,"rinataiko.jpg",0,200
//Break Periods
Sprite,Background,Centre,"rinataiko.jpg",320,240
//Storyboard Layer 0 (Background)
//Storyboard Layer 1 (Fail)
//Storyboard Layer 2 (Pass)
//Storyboard Layer 3 (Foreground)
//Storyboard Sound Samples

[TimingPoints]
1813,461.538461538462,4,1,0,50,1,0
16582,-100,4,1,0,60,0,0
31351,-100,4,1,0,70,0,0
46120,-90.9090909090909,4,1,0,80,0,1
71966,-90.9090909090909,4,1,0,50,0,0
72428,-100,4,1,0,50,0,0
86736,-100,4,1,0,60,0,0
101505,-100,4,1,0,70,0,0
116274,-90.9090909090909,4,1,0,80,0,1
142120,-90.9090909090909,4,1,0,70,0,0
143043,-100,4,1,0,70,0,0
170043,-100,4,1,0,50,0,0
171659,-100,4,1,0,40,0,0
185966,-90.9090909090909,4,1,0,60,0,0
186428,-90.9090909090909,4,1,0,80,0,1
223351,-90.9090909090909,4,1,0,50,0,0
223582,-100,4,1,0,50,0,0
238120,-100,4,1,0,25,0,0
239043,-100,4,1,0,15,0,0
239966,-100,4,1,0,5,0,0

[Colours]
Combo1 : 236,211,182
Combo2 : 226,146,133
Combo3 : 202,50,82
Combo4 : 63,71,132

[HitObjects]
256,192,1813,5,4,0:0:0:0:
256,192,2274,1,0,0:0:0:0:
256,192,2736,1,0,0:0:0:0:
256,192,2966,1,0,0:0:0:0:
256,192,3197,1,8,0:0:0:0:
256,192,3428,1,0,0:0:0:0:
256,192,3889,1,8,0:0:0:0:
256,192,4351,1,0,0:0:0:0:
256,192,4582,1,0,0:0:0:0:
256,192,5043,1,0,0:0:0:0:
256,192,5274,1,8,0:0:0:0:
256,192,5505,1,8,0:0:0:0:
256,192,5966,1,0,0:0:0:0:
256,192,6428,1,0,0:0:0:0:
256,192,6659,1,0,0:0:0:0:
256,192,6889,1,8,0:0:0:0:
256,192,7120,1,0,0:0:0:0:
256,192,7582,1,8,0:0:0:0:
256,192,8043,1,0,0:0:0:0:
256,192,8274,1,0,0:0:0:0:
256,192,8736,1,0,0:0:0:0:
256,192,8966,1,8,0:0:0:0:
256,192,9197,1,4,0:0:0:0:
256,192,9659,1,0,0:0:0:0:
256,192,10120,1,0,0:0:0:0:
256,192,10351,1,8,0:0:0:0:
256,192,10582,1,8,0:0:0:0:
256,192,10813,1,0,0:0:0:0:
256,192,11274,1,8,0:0:0:0:
256,192,11736,1,0,0:0:0:0:
256,192,11966,1,0,0:0:0:0:
256,192,12428,1,0,0:0:0:0:
256,192,12659,1,8,0:0:0:0:
256,192,12889,1,8,0:0:0:0:
256,192,13351,1,0,0:0:0:0:
256,192,13813,1,0,0:0:0:0:
256,192,14043,1,0,0:0:0:0:
256,192,14274,1,8,0:0:0:0:
256,192,14505,1,0,0:0:0:0:
256,192,14966,1,8,0:0:0:0:
256,192,15428,1,0,0:0:0:0:
256,192,15659,1,0,0:0:0:0:
256,192,16120,1,0,0:0:0:0:
256,192,16351,1,8,0:0:0:0:
256,192,16582,1,4,0:0:0:0:
256,192,17043,1,0,0:0:0:0:
256,192,17274,1,0,0:0:0:0:
256,192,17505,1,8,0:0:0:0:
256,192,17966,1,8,0:0:0:0:
256,192,18197,1,0,0:0:0:0:
256,192,18428,1,0,0:0:0:0:
256,192,18889,1,0,0:0:0:0:
256,192,19351,1,8,0:0:0:0:
256,192,19813,1,0,0:0:0:0:
256,192,20043,1,8,0:0:0:0:
256,192,20274,1,0,0:0:0:0:
256,192,20736,1,8,0:0:0:0:
256,192,20966,1,0,0:0:0:0:
256,192,21428,1,0,0:0:0:0:
256,192,21659,1,8,0:0:0:0:
256,192,21889,1,0,0:0:0:0:
256,192,22120,1,0,0:0:0:0:
256,192,22582,1,0,0:0:0:0:
256,192,22813,1,0,0:0:0:0:
256,192,23043,1,8,0:0:0:0:
256,192,23505,1,8,0:0:0:0:
256,192,23966,1,4,0:0:0:0:
256,192,24428,1,0,0:0:0:0:
256,192,24659,1,0,0:0:0:0:
256,192,24889,1,8,0:0:0:0:
256,192,25351,1,8,0:0:0:0:
256,192,25582,1,0,0:0:0:0:
256,192,25813,1,0,0:0:0:0:
256,192,26274,1,0,0:0:0:0:
256,192,26736,1,8,0:0:0:0:
256,192,27197,1,8,0:0:0:0:
256,192,27428,1,0,0:0:0:0:
256,192,27659,1,0,0:0:0:0:
256,192,28120,1,8,0:0:0:0:
256,192,28351,1,0,0:0:0:0:
256,192,28813,1,0,0:0:0:0:
256,192,29043,1,8,0:0:0:0:
256,192,29274,1,8,0:0:0:0:
256,192,29505,1,0,0:0:0:0:
256,192,29966,1,0,0:0:0:0:
256,192,30428,1,8,0:0:0:0:
256,192,30889,1,8,0:0:0:0:
256,192,31120,1,0,0:0:0:0:
256,192,31351,1,4,0:0:0:0:
256,192,31813,1,8,0:0:0:0:
256,192,32043,1,8,0:0:0:0:
256,192,32274,1,0,0:0:0:0:
256,192,32505,1,0,0:0:0:0:
256,192,32620,1,0,0:0:0:0:
256,192,32736,1,8,0:0:0:0:
256,192,32966,1,0,0:0:0:0:
256,192,33428,1,0,0:0:0:0:
256,192,33659,1,8,0:0:0:0:
256,192,33889,1,8,0:0:0:0:
256,192,34351,1,0,0:0:0:0:
256,192,34582,1,8,0:0:0:0:
256,192,34813,1,0,0:0:0:0:
256,192,34928,1,0,0:0:0:0:
256,192,35043,1,0,0:0:0:0:
256,192,35274,1,0,0:0:0:0:
256,192,35505,1,8,0:0:0:0:
256,192,35736,1,8,0:0:0:0:
256,192,36197,1,0,0:0:0:0:
256,192,36428,1,8,0:0:0:0:
256,192,36659,1,0,0:0:0:0:
256,192,37120,1,0,0:0:0:0:
256,192,37351,1,8,0:0:0:0:
256,192,37582,1,8,0:0:0:0:
256,192,38043,1,0,0:0:0:0:
256,192,38274,1,8,0:0:0:0:
256,192,38505,1,0,0:0:0:0:
256,192,38736,1,4,0:0:0:0:
256,192,39197,1,8,0:0:0:0:
256,192,39428,1,8,0:0:0:0:
256,192,39659,1,0,0:0:0:0:
256,192,39889,1,0,0:0:0:0:
256,192,40005,1,0,0:0:0:0:
256,192,40120,1,8,0:0:0:0:
256,192,40351,1,0,0:0:0:0:
256,192,40813,1,0,0:0:0:0:
256,192,41043,1,8,0:0:0:0:
256,192,41274,1,8,0:0:0:0:
256,192,41736,1,0,0:0:0:0:
256,192,41966,1,8,0:0:0:0:
256,192,42197,1,0,0:0:0:0:
256,192,42428,1,4,0:0:0:0:
256,192,42889,1,8,0:0:0:0:
256,192,43120,1,8,0:0:0:0:
256,192,43351,1,0,0:0:0:0:
256,192,43582,1,0,0:0:0:0:
256,192,43697,1,0,0:0:0:0:
256,192,43813,1,8,0:0:0:0:
256,192,44043,1,4,0:0:0:0:
256,192,44505,1,0,0:0:0:0:
256,192,44736,1,8,0:0:0:0:
256,192,44966,1,0,0:0:0:0:
256,192,45197,1,12,0:0:0:0:
256,192,45428,1,0,0:0:0:0:
256,192,45543,1,0,0:0:0:0:
256,192,45659,1,8,0:0:0:0:
256,192,45774,1,8,0:0:0:0:
256,192,45889,1,0,0:0:0:0:
256,192,46120,1,4,0:0:0:0:
256,192,46351,1,0,0:0:0:0:
256,192,46582,1,8,0:0:0:0:
256,192,46813,1,0,0:0:0:0:
256,192,47274,1,0,0:0:0:0:
256,192,47389,1,0,0:0:0:0:
256,192,47505,1,8,0:0:0:0:
256,192,47736,1,0,0:0:0:0:
256,192,47966,1,8,0:0:0:0:
256,192,48082,1,8,0:0:0:0:
256,192,48197,1,0,0:0:0:0:
256,192,48428,1,8,0:0:0:0:
256,192,48659,1,0,0:0:0:0:
256,192,49120,1,0,0:0:0:0:
256,192,49351,1,8,0:0:0:0:
256,192,49582,1,0,0:0:0:0:
256,192,49697,1,0,0:0:0:0:
256,192,49813,1,8,0:0:0:0:
256,192,50043,1,0,0:0:0:0:
256,192,50274,1,8,0:0:0:0:
256,192,50505,1,0,0:0:0:0:
256,192,50620,1,0,0:0:0:0:
256,192,50736,1,0,0:0:0:0:
256,192,50966,1,8,0:0:0:0:
256,192,51082,1,0,0:0:0:0:
256,192,51197,1,8,0:0:0:0:
256,192,51428,1,0,0:0:0:0:
256,192,51889,1,0,0:0:0:0:
256,192,52120,1,8,0:0:0:0:
256,192,52351,1,8,0:0:0:0:
256,192,52813,1,0,0:0:0:0:
256,192,53043,1,8,0:0:0:0:
256,192,53274,1,0,0:0:0:0:
256,192,53505,1,4,0:0:0:0:
256,192,53736,1,0,0:0:0:0:
256,192,53851,1,0,0:0:0:0:
256,192,53966,1,8,0:0:0:0:
256,192,54197,1,0,0:0:0:0:
256,192,54659,1,8,0:0:0:0:
256,192,54889,1,8,0:0:0:0:
256,192,55120,1,0,0:0:0:0:
256,192,55582,1,0,0:0:0:0:
256,192,55813,1,8,0:0:0:0:
256,192,56043,1,0,0:0:0:0:
256,192,56505,1,0,0:0:0:0:
256,192,56736,1,8,0:0:0:0:
256,192,56851,1,8,0:0:0:0:
256,192,56966,1,0,0:0:0:0:
256,192,57197,1,0,0:0:0:0:
256,192,57659,1,8,0:0:0:0:
256,192,58120,1,0,0:0:0:0:
256,192,58351,1,0,0:0:0:0:
256,192,58466,1,0,0:0:0:0:
256,192,58582,1,8,0:0:0:0:
256,192,58813,1,0,0:0:0:0:
256,192,59274,1,8,0:0:0:0:
256,192,59505,1,8,0:0:0:0:
256,192,59736,1,0,0:0:0:0:
256,192,59966,1,8,0:0:0:0:
256,192,60197,1,0,0:0:0:0:
256,192,60428,1,8,0:0:0:0:
256,192,60543,1,8,0:0:0:0:
256,192,60659,1,0,0:0:0:0:
256,192,60889,1,4,0:0:0:0:
256,192,61120,1,0,0:0:0:0:
256,192,61351,1,8,0:0:0:0:
256,192,61582,1,0,0:0:0:0:
256,192,62043,1,8,0:0:0:0:
256,192,62159,1,8,0:0:0:0:
256,192,62274,1,8,0:0:0:0:
256,192,62505,1,0,0:0:0:0:
256,192,62620,1,0,0:0:0:0:
256,192,62736,1,8,0:0:0:0:
256,192,62966,1,0,0:0:0:0:
256,192,63197,1,8,0:0:0:0:
256,192,63428,1,0,0:0:0:0:
256,192,63889,1,0,0:0:0:0:
256,192,64120,1,8,0:0:0:0:
256,192,64351,1,0,0:0:0:0:
256,192,64466,1,0,0:0:0:0:
256,192,64582,1,8,0:0:0:0:
256,192,64813,1,0,0:0:0:0:
256,192,65043,1,8,0:0:0:0:
256,192,65274,1,0,0:0:0:0:
256,192,65505,1,0,0:0:0:0:
256,192,65620,1,8,0:0:0:0:
256,192,65736,1,0,0:0:0:0:
256,192,65851,1,0,0:0:0:0:
256,192,65966,1,8,0:0:0:0:
256,192,66197,1,8,0:0:0:0:
256,192,66659,1,0,0:0:0:0:
256,192,66889,1,8,0:0:0:0:
256,192,67120,1,0,0:0:0:0:
256,192,67582,1,0,0:0:0:0:
256,192,67813,1,8,0:0:0:0:
256,192,68043,1,0,0:0:0:0:
256,192,68274,1,4,0:0:0:0:
256,192,68505,1,0,0:0:0:0:
256,192,68620,1,0,0:0:0:0:
256,192,68736,1,8,0:0:0:0:
256,192,68966,1,0,0:0:0:0:
256,192,69428,1,8,0:0:0:0:
256,192,69659,1,8,0:0:0:0:
256,192,69889,1,0,0:0:0:0:
256,192,70351,1,0,0:0:0:0:
256,192,70582,1,8,0:0:0:0:
256,192,70813,1,0,0:0:0:0:
256,192,71043,1,12,0:0:0:0:
256,192,71274,1,0,0:0:0:0:
256,192,71389,1,0,0:0:0:0:
256,192,71505,1,8,0:0:0:0:
256,192,71620,1,8,0:0:0:0:
256,192,71736,1,0,0:0:0:0:
256,192,71966,1,4,0:0:0:0:
256,192,72428,1,0,0:0:0:0:
256,192,72889,1,0,0:0:0:0:
256,192,73120,1,0,0:0:0:0:
256,192,73351,1,8,0:0:0:0:
256,192,73582,1,0,0:0:0:0:
256,192,74043,1,8,0:0:0:0:
256,192,74505,1,0,0:0:0:0:
256,192,74736,1,0,0:0:0:0:
256,192,75197,1,0,0:0:0:0:
256,192,75428,1,8,0:0:0:0:
256,192,75659,1,8,0:0:0:0:
256,192,76120,1,0,0:0:0:0:
256,192,76582,1,0,0:0:0:0:
256,192,76813,1,0,0:0:0:0:
256,192,77043,1,8,0:0:0:0:
256,192,77274,1,0,0:0:0:0:
256,192,77736,1,8,0:0:0:0:
256,192,78197,1,0,0:0:0:0:
256,192,78428,1,0,0:0:0:0:
256,192,78889,1,0,0:0:0:0:
256,192,79120,1,8,0:0:0:0:
256,192,79351,1,4,0:0:0:0:
256,192,79813,1,0,0:0:0:0:
256,192,80274,1,0,0:0:0:0:
256,192,80505,1,0,0:0:0:0:
256,192,80736,1,8,0:0:0:0:
256,192,80966,1,0,0:0:0:0:
256,192,81428,1,8,0:0:0:0:
256,192,81889,1,0,0:0:0:0:
256,192,82120,1,0,0:0:0:0:
256,192,82582,1,0,0:0:0:0:
256,192,82813,1,8,0:0:0:0:
256,192,83043,1,8,0:0:0:0:
256,192,83505,1,0,0:0:0:0:
256,192,83966,1,0,0:0:0:0:
256,192,84197,1,0,0:0:0:0:
256,192,84428,1,8,0:0:0:0:
256,192,84659,1,0,0:0:0:0:
256,192,85120,1,8,0:0:0:0:
256,192,85582,1,0,0:0:0:0:
256,192,85813,1,0,0:0:0:0:
256,192,86274,1,0,0:0:0:0:
256,192,86505,1,8,0:0:0:0:
256,192,86736,1,4,0:0:0:0:
256,192,86966,1,8,0:0:0:0:
256,192,87197,1,8,0:0:0:0:
256,192,87428,1,0,0:0:0:0:
256,192,87889,1,0,0:0:0:0:
256,192,88120,1,8,0:0:0:0:
256,192,88351,1,0,0:0:0:0:
256,192,88582,1,0,0:0:0:0:
256,192,89043,1,0,0:0:0:0:
256,192,89505,1,8,0:0:0:0:
256,192,89966,1,8,0:0:0:0:
256,192,90197,1,8,0:0:0:0:
256,192,90428,1,0,0:0:0:0:
256,192,90889,1,8,0:0:0:0:
256,192,91120,1,0,0:0:0:0:
256,192,91582,1,0,0:0:0:0:
256,192,91813,1,8,0:0:0:0:
256,192,92043,1,0,0:0:0:0:
256,192,92274,1,0,0:0:0:0:
256,192,92736,1,0,0:0:0:0:
256,192,92966,1,0,0:0:0:0:
256,192,93197,1,8,0:0:0:0:
256,192,93659,1,8,0:0:0:0:
256,192,94120,1,4,0:0:0:0:
256,192,94351,1,8,0:0:0:0:
256,192,94582,1,8,0:0:0:0:
256,192,94813,1,0,0:0:0:0:
256,192,95274,1,0,0:0:0:0:
256,192,95505,1,8,0:0:0:0:
256,192,95736,1,0,0:0:0:0:
256,192,95966,1,0,0:0:0:0:
256,192,96428,1,0,0:0:0:0:
256,192,96889,1,8,0:0:0:0:
256,192,97120,1,0,0:0:0:0:
256,192,97351,1,8,0:0:0:0:
256,192,97582,1,8,0:0:0:0:
256,192,97813,1,0,0:0:0:0:
256,192,98274,1,8,0:0:0:0:
256,192,98505,1,0,0:0:0:0:
256,192,98966,1,0,0:0:0:0:
256,192,99197,1,8,0:0:0:0:
256,192,99428,1,8,0:0:0:0:
256,192,99659,1,0,0:0:0:0:
256,192,100120,1,0,0:0:0:0:
256,192,100582,1,8,0:0:0:0:
256,192,100697,1,8,0:0:0:0:
256,192,100813,1,0,0:0:0:0:
256,192,100928,1,0,0:0:0:0:
256,192,101043,1,8,0:0:0:0:
256,192,101274,1,0,0:0:0:0:
256,192,101505,1,4,0:0:0:0:
256,192,101736,1,0,0:0:0:0:
256,192,101966,1,8,0:0:0:0:
256,192,102197,1,8,0:0:0:0:
256,192,102428,1,0,0:0:0:0:
256,192,102659,1,0,0:0:0:0:
256,192,102774,1,0,0:0:0:0:
256,192,102889,1,8,0:0:0:0:
256,192,103120,1,0,0:0:0:0:
256,192,103582,1,0,0:0:0:0:
256,192,103813,1,8,0:0:0:0:
256,192,104043,1,8,0:0:0:0:
256,192,104505,1,0,0:0:0:0:
256,192,104736,1,8,0:0:0:0:
256,192,104966,1,0,0:0:0:0:
256,192,105082,1,0,0:0:0:0:
256,192,105197,1,0,0:0:0:0:
256,192,105428,1,0,0:0:0:0:
256,192,105659,1,8,0:0:0:0:
256,192,105889,1,8,0:0:0:0:
256,192,106351,1,0,0:0:0:0:
256,192,106466,1,0,0:0:0:0:
256,192,106582,1,8,0:0:0:0:
256,192,106813,1,0,0:0:0:0:
256,192,106928,1,0,0:0:0:0:
256,192,107043,1,0,0:0:0:0:
256,192,107274,1,0,0:0:0:0:
256,192,107505,1,8,0:0:0:0:
256,192,107736,1,8,0:0:0:0:
256,192,108197,1,0,0:0:0:0:
256,192,108428,1,8,0:0:0:0:
256,192,108659,1,0,0:0:0:0:
256,192,108889,1,4,0:0:0:0:
256,192,109120,1,0,0:0:0:0:
256,192,109351,1,8,0:0:0:0:
256,192,109582,1,8,0:0:0:0:
256,192,109813,1,0,0:0:0:0:
256,192,110043,1,0,0:0:0:0:
256,192,110159,1,0,0:0:0:0:
256,192,110274,1,8,0:0:0:0:
256,192,110505,1,0,0:0:0:0:
256,192,110966,1,0,0:0:0:0:
256,192,111197,1,8,0:0:0:0:
256,192,111428,1,8,0:0:0:0:
256,192,111889,1,0,0:0:0:0:
256,192,112005,1,0,0:0:0:0:
256,192,112120,1,8,0:0:0:0:
256,192,112351,1,0,0:0:0:0:
256,192,112582,1,4,0:0:0:0:
256,192,112813,1,0,0:0:0:0:
256,192,113043,1,8,0:0:0:0:
256,192,113274,1,8,0:0:0:0:
256,192,113389,1,8,0:0:0:0:
256,192,113505,1,0,0:0:0:0:
256,192,113736,1,0,0:0:0:0:
256,192,113851,1,0,0:0:0:0:
256,192,113966,1,8,0:0:0:0:
256,192,114197,1,4,0:0:0:0:
256,192,114659,1,0,0:0:0:0:
256,192,114889,1,8,0:0:0:0:
256,192,115120,1,0,0:0:0:0:
256,192,115351,1,8,0:0:0:0:
256,192,115466,1,8,0:0:0:0:
256,192,115582,1,0,0:0:0:0:
256,192,115697,1,0,0:0:0:0:
256,192,115813,1,8,0:0:0:0:
256,192,115928,1,8,0:0:0:0:
256,192,116043,1,0,0:0:0:0:
256,192,116274,1,4,0:0:0:0:
256,192,116505,1,0,0:0:0:0:
256,192,116620,1,0,0:0:0:0:
256,192,116736,1,8,0:0:0:0:
256,192,116966,1,0,0:0:0:0:
256,192,117428,1,8,0:0:0:0:
256,192,117543,1,0,0:0:0:0:
256,192,117659,1,8,0:0:0:0:
256,192,117889,1,0,0:0:0:0:
256,192,118005,1,0,0:0:0:0:
256,192,118120,1,8,0:0:0:0:
256,192,118351,1,0,0:0:0:0:
256,192,118582,1,8,0:0:0:0:
256,192,118813,1,0,0:0:0:0:
256,192,119274,1,0,0:0:0:0:
256,192,119505,1,8,0:0:0:0:
256,192,119736,1,0,0:0:0:0:
256,192,119851,1,0,0:0:0:0:
256,192,119966,1,8,0:0:0:0:
256,192,120197,1,0,0:0:0:0:
256,192,120428,1,8,0:0:0:0:
256,192,120659,1,0,0:0:0:0:
256,192,120774,1,0,0:0:0:0:
256,192,120889,1,8,0:0:0:0:
256,192,121005,1,0,0:0:0:0:
256,192,121120,1,8,0:0:0:0:
256,192,121236,1,8,0:0:0:0:
256,192,121351,1,8,0:0:0:0:
256,192,121582,1,0,0:0:0:0:
256,192,121697,1,0,0:0:0:0:
256,192,121813,1,8,0:0:0:0:
256,192,122043,1,0,0:0:0:0:
256,192,122274,1,8,0:0:0:0:
256,192,122505,1,8,0:0:0:0:
256,192,122966,1,0,0:0:0:0:
256,192,123197,1,8,0:0:0:0:
256,192,123428,1,0,0:0:0:0:
256,192,123659,1,4,0:0:0:0:
256,192,123889,1,0,0:0:0:0:
256,192,124005,1,0,0:0:0:0:
256,192,124120,1,8,0:0:0:0:
256,192,124351,1,0,0:0:0:0:
256,192,124813,1,8,0:0:0:0:
256,192,124928,1,8,0:0:0:0:
256,192,125043,1,8,0:0:0:0:
256,192,125274,1,0,0:0:0:0:
256,192,125389,1,0,0:0:0:0:
256,192,125505,1,8,0:0:0:0:
256,192,125736,1,0,0:0:0:0:
256,192,125966,1,8,0:0:0:0:
256,192,126197,1,0,0:0:0:0:
256,192,126659,1,0,0:0:0:0:
256,192,126889,1,8,0:0:0:0:
256,192,127005,1,8,0:0:0:0:
256,192,127120,1,0,0:0:0:0:
256,192,127236,1,0,0:0:0:0:
256,192,127351,1,0,0:0:0:0:
256,192,127813,1,8,0:0:0:0:
256,192,128274,1,0,0:0:0:0:
256,192,128505,1,0,0:0:0:0:
256,192,128620,1,0,0:0:0:0:
256,192,128736,1,8,0:0:0:0:
256,192,128966,1,0,0:0:0:0:
256,192,129428,1,8,0:0:0:0:
256,192,129659,1,8,0:0:0:0:
256,192,129889,1,0,0:0:0:0:
256,192,130120,1,8,0:0:0:0:
256,192,130236,1,0,0:0:0:0:
256,192,130351,1,0,0:0:0:0:
256,192,130582,1,8,0:0:0:0:
256,192,130697,1,8,0:0:0:0:
256,192,130813,1,0,0:0:0:0:
256,192,131043,1,4,0:0:0:0:
256,192,131274,1,0,0:0:0:0:
256,192,131389,1,0,0:0:0:0:
256,192,131505,1,8,0:0:0:0:
256,192,131736,1,0,0:0:0:0:
256,192,132197,1,8,0:0:0:0:
256,192,132313,1,0,0:0:0:0:
256,192,132428,1,8,0:0:0:0:
256,192,132659,1,0,0:0:0:0:
256,192,132774,1,0,0:0:0:0:
256,192,132889,1,8,0:0:0:0:
256,192,133120,1,0,0:0:0:0:
256,192,133351,1,8,0:0:0:0:
256,192,133582,1,0,0:0:0:0:
256,192,134043,1,0,0:0:0:0:
256,192,134274,1,8,0:0:0:0:
256,192,134505,1,0,0:0:0:0:
256,192,134620,1,0,0:0:0:0:
256,192,134736,1,8,0:0:0:0:
256,192,134966,1,0,0:0:0:0:
256,192,135197,1,8,0:0:0:0:
256,192,135428,1,0,0:0:0:0:
256,192,135659,1,0,0:0:0:0:
256,192,135774,1,0,0:0:0:0:
256,192,135889,1,8,0:0:0:0:
256,192,136005,1,0,0:0:0:0:
256,192,136120,1,8,0:0:0:0:
256,192,136351,1,0,0:0:0:0:
256,192,136466,1,8,0:0:0:0:
256,192,136582,1,8,0:0:0:0:
256,192,136813,1,0,0:0:0:0:
256,192,137043,1,8,0:0:0:0:
256,192,137274,1,0,0:0:0:0:
256,192,137736,1,0,0:0:0:0:
256,192,137966,1,8,0:0:0:0:
256,192,138197,1,0,0:0:0:0:
256,192,138428,1,4,0:0:0:0:
256,192,138659,1,0,0:0:0:0:
256,192,138774,1,0,0:0:0:0:
256,192,138889,1,8,0:0:0:0:
256,192,139120,1,0,0:0:0:0:
256,192,139582,1,8,0:0:0:0:
256,192,139813,1,8,0:0:0:0:
256,192,140043,1,0,0:0:0:0:
256,192,140505,1,0,0:0:0:0:
256,192,140736,1,8,0:0:0:0:
256,192,140966,1,0,0:0:0:0:
256,192,141197,1,12,0:0:0:0:
256,192,141428,1,0,0:0:0:0:
256,192,141543,1,0,0:0:0:0:
256,192,141659,1,8,0:0:0:0:
256,192,141774,1,8,0:0:0:0:
256,192,141889,1,0,0:0:0:0:
256,192,142120,1,4,0:0:0:0:
256,192,142351,1,0,0:0:0:0:
256,192,142466,1,0,0:0:0:0:
256,192,142582,1,8,0:0:0:0:
256,192,143043,1,0,0:0:0:0:
256,192,143274,1,8,0:0:0:0:
256,192,143389,1,8,0:0:0:0:
256,192,143505,1,8,0:0:0:0:
256,192,143736,1,8,0:0:0:0:
256,192,144197,1,0,0:0:0:0:
256,192,144428,1,8,0:0:0:0:
256,192,144659,1,0,0:0:0:0:
256,192,144774,1,0,0:0:0:0:
256,192,144889,1,0,0:0:0:0:
256,192,145120,1,0,0:0:0:0:
256,192,145351,1,8,0:0:0:0:
256,192,145582,1,0,0:0:0:0:
256,192,145813,1,0,0:0:0:0:
256,192,146274,1,8,0:0:0:0:
256,192,146736,1,8,0:0:0:0:
256,192,146851,1,8,0:0:0:0:
256,192,146966,1,0,0:0:0:0:
256,192,147197,1,8,0:0:0:0:
256,192,147428,1,8,0:0:0:0:
256,192,147659,1,4,0:0:0:0:
256,192,148120,1,12,0:0:0:0:
256,192,148582,1,4,0:0:0:0:
256,192,149043,1,12,0:0:0:0:
256,192,149274,1,0,0:0:0:0:
256,192,149389,1,8,0:0:0:0:
256,192,149505,1,0,0:0:0:0:
256,192,149966,1,8,0:0:0:0:
256,192,150428,1,0,0:0:0:0:
256,192,150659,1,8,0:0:0:0:
256,192,150774,1,8,0:0:0:0:
256,192,150889,1,8,0:0:0:0:
256,192,151120,1,8,0:0:0:0:
256,192,151582,1,0,0:0:0:0:
256,192,151697,1,0,0:0:0:0:
256,192,151813,1,8,0:0:0:0:
256,192,152043,1,8,0:0:0:0:
256,192,152159,1,0,0:0:0:0:
256,192,152274,1,8,0:0:0:0:
256,192,152505,1,8,0:0:0:0:
256,192,152736,1,0,0:0:0:0:
256,192,152851,1,0,0:0:0:0:
256,192,152966,1,8,0:0:0:0:
256,192,153197,1,8,0:0:0:0:
256,192,153659,1,8,0:0:0:0:
256,192,154120,1,8,0:0:0:0:
256,192,154351,1,0,0:0:0:0:
256,192,154466,1,0,0:0:0:0:
256,192,154582,1,8,0:0:0:0:
256,192,154813,1,8,0:0:0:0:
256,192,155043,1,0,0:0:0:0:
256,192,155505,1,8,0:0:0:0:
256,192,155966,1,12,0:0:0:0:
256,192,156197,1,0,0:0:0:0:
256,192,156313,1,0,0:0:0:0:
256,192,156428,1,8,0:0:0:0:
256,192,156543,1,8,0:0:0:0:
256,192,156659,1,0,0:0:0:0:
256,192,156774,1,0,0:0:0:0:
256,192,156889,1,8,0:0:0:0:
256,192,157351,1,8,0:0:0:0:
256,192,157582,1,8,0:0:0:0:
256,192,157697,1,8,0:0:0:0:
256,192,157813,1,0,0:0:0:0:
256,192,157928,1,0,0:0:0:0:
256,192,158043,1,0,0:0:0:0:
256,192,158274,1,8,0:0:0:0:
256,192,158505,1,0,0:0:0:0:
256,192,158736,1,0,0:0:0:0:
256,192,159197,1,8,0:0:0:0:
256,192,159428,1,8,0:0:0:0:
256,192,159543,1,8,0:0:0:0:
256,192,159659,1,8,0:0:0:0:
256,192,159889,1,0,0:0:0:0:
256,192,160005,1,0,0:0:0:0:
256,192,160120,1,8,0:0:0:0:
256,192,160236,1,8,0:0:0:0:
256,192,160351,1,0,0:0:0:0:
256,192,160582,1,8,0:0:0:0:
256,192,161043,1,8,0:0:0:0:
256,192,161159,1,8,0:0:0:0:
256,192,161274,1,0,0:0:0:0:
256,192,161505,1,0,0:0:0:0:
256,192,161736,1,0,0:0:0:0:
256,192,161851,1,0,0:0:0:0:
256,192,161966,1,8,0:0:0:0:
256,192,162197,1,8,0:0:0:0:
256,192,162428,1,8,0:0:0:0:
256,192,162659,1,0,0:0:0:0:
256,192,163120,1,8,0:0:0:0:
256,192,163236,1,8,0:0:0:0:
256,192,163351,1,0,0:0:0:0:
256,192,163466,1,0,0:0:0:0:
256,192,163582,1,0,0:0:0:0:
256,192,163813,1,8,0:0:0:0:
256,192,164043,1,8,0:0:0:0:
256,192,164274,1,4,0:0:0:0:
256,192,164736,1,8,0:0:0:0:
256,192,164966,1,0,0:0:0:0:
256,192,165082,1,0,0:0:0:0:
256,192,165197,1,8,0:0:0:0:
256,192,165313,1,8,0:0:0:0:
256,192,165428,1,0,0:0:0:0:
256,192,165543,1,8,0:0:0:0:
256,192,165659,1,0,0:0:0:0:
256,192,165774,1,8,0:0:0:0:
256,192,165889,1,0,0:0:0:0:
256,192,166005,1,0,0:0:0:0:
256,192,166120,1,8,0:0:0:0:
256,192,166351,1,0,0:0:0:0:
256,192,166582,1,8,0:0:0:0:
256,192,166813,1,0,0:0:0:0:
256,192,167274,1,0,0:0:0:0:
256,192,167505,1,8,0:0:0:0:
256,192,167736,1,0,0:0:0:0:
256,192,167851,1,0,0:0:0:0:
256,192,167966,1,8,0:0:0:0:
256,192,168197,1,0,0:0:0:0:
256,192,168659,1,0,0:0:0:0:
256,192,168774,1,0,0:0:0:0:
256,192,168889,1,8,0:0:0:0:
256,192,169120,1,8,0:0:0:0:
256,192,169351,1,0,0:0:0:0:
256,192,169582,1,0,0:0:0:0:
256,192,169813,1,12,0:0:0:0:
256,192,170043,12,0,171428,0:0:0:0:
256,192,171659,5,0,0:0:0:0:
256,192,172582,1,8,0:0:0:0:
256,192,173274,1,0,0:0:0:0:
256,192,173966,1,0,0:0:0:0:
256,192,174428,1,8,0:0:0:0:
256,192,175351,1,0,0:0:0:0:
256,192,176274,1,8,0:0:0:0:
256,192,176966,1,0,0:0:0:0:
256,192,177659,1,0,0:0:0:0:
256,192,178120,1,8,0:0:0:0:
256,192,179043,1,0,0:0:0:0:
256,192,179966,1,8,0:0:0:0:
256,192,180659,1,0,0:0:0:0:
256,192,181351,1,0,0:0:0:0:
256,192,181582,1,0,0:0:0:0:
256,192,181813,1,8,0:0:0:0:
256,192,182274,1,8,0:0:0:0:
256,192,182736,1,0,0:0:0:0:
256,192,183889,1,0,0:0:0:0:
256,192,184351,1,8,0:0:0:0:
256,192,184813,1,8,0:0:0:0:
256,192,185043,1,8,0:0:0:0:
256,192,185274,1,0,0:0:0:0:
256,192,185505,1,8,0:0:0:0:
256,192,185736,1,0,0:0:0:0:
256,192,185966,1,8,0:0:0:0:
256,192,186082,1,8,0:0:0:0:
256,192,186197,1,0,0:0:0:0:
256,192,186313,1,0,0:0:0:0:
256,192,186428,1,8,0:0:0:0:
256,192,186659,1,0,0:0:0:0:
256,192,186774,1,0,0:0:0:0:
256,192,186889,1,8,0:0:0:0:
256,192,187120,1,8,0:0:0:0:
256,192,187351,1,0,0:0:0:0:
256,192,187582,1,8,0:0:0:0:
256,192,187697,1,8,0:0:0:0:
256,192,187813,1,0,0:0:0:0:
256,192,188043,1,8,0:0:0:0:
256,192,188505,1,0,0:0:0:0:
256,192,188620,1,0,0:0:0:0:
256,192,188736,1,8,0:0:0:0:
256,192,188966,1,0,0:0:0:0:
256,192,189197,1,8,0:0:0:0:
256,192,189313,1,8,0:0:0:0:
256,192,189428,1,0,0:0:0:0:
256,192,189543,1,0,0:0:0:0:
256,192,189659,1,8,0:0:0:0:
256,192,189889,1,0,0:0:0:0:
256,192,190120,1,8,0:0:0:0:
256,192,190582,1,8,0:0:0:0:
256,192,190813,1,0,0:0:0:0:
256,192,191043,1,8,0:0:0:0:
256,192,191274,1,0,0:0:0:0:
256,192,191389,1,0,0:0:0:0:
256,192,191505,1,8,0:0:0:0:
256,192,191736,1,8,0:0:0:0:
256,192,192197,1,0,0:0:0:0:
256,192,192428,1,8,0:0:0:0:
256,192,192659,1,0,0:0:0:0:
256,192,192889,1,8,0:0:0:0:
256,192,193005,1,8,0:0:0:0:
256,192,193120,1,0,0:0:0:0:
256,192,193351,1,8,0:0:0:0:
256,192,193582,1,0,0:0:0:0:
256,192,193813,1,4,0:0:0:0:
256,192,194043,1,0,0:0:0:0:
256,192,194159,1,0,0:0:0:0:
256,192,194274,1,8,0:0:0:0:
256,192,194505,1,0,0:0:0:0:
256,192,194966,1,8,0:0:0:0:
256,192,195197,1,8,0:0:0:0:
256,192,195428,1,4,0:0:0:0:
256,192,195889,1,0,0:0:0:0:
256,192,196120,1,8,0:0:0:0:
256,192,196351,1,0,0:0:0:0:
256,192,196582,1,8,0:0:0:0:
256,192,196697,1,8,0:0:0:0:
256,192,196813,1,0,0:0:0:0:
256,192,196928,1,0,0:0:0:0:
256,192,197043,1,8,0:0:0:0:
256,192,197159,1,8,0:0:0:0:
256,192,197274,1,0,0:0:0:0:
256,192,197389,1,0,0:0:0:0:
256,192,197505,1,8,0:0:0:0:
256,192,197736,1,0,0:0:0:0:
256,192,197851,1,0,0:0:0:0:
256,192,197966,1,8,0:0:0:0:
256,192,198197,1,8,0:0:0:0:
256,192,198428,1,0,0:0:0:0:
256,192,198543,1,0,0:0:0:0:
256,192,198659,1,8,0:0:0:0:
256,192,198774,1,0,0:0:0:0:
256,192,198889,1,8,0:0:0:0:
256,192,199120,1,0,0:0:0:0:
256,192,199351,1,8,0:0:0:0:
256,192,199466,1,8,0:0:0:0:
256,192,199582,1,0,0:0:0:0:
256,192,199813,1,8,0:0:0:0:
256,192,200043,1,0,0:0:0:0:
256,192,200505,1,0,0:0:0:0:
256,192,200736,1,8,0:0:0:0:
256,192,200966,1,0,0:0:0:0:
256,192,201082,1,0,0:0:0:0:
256,192,201197,1,8,0:0:0:0:
256,192,201428,1,0,0:0:0:0:
256,192,201543,1,0,0:0:0:0:
256,192,201659,1,8,0:0:0:0:
256,192,201889,1,0,0:0:0:0:
256,192,202005,1,0,0:0:0:0:
256,192,202120,1,8,0:0:0:0:
256,192,202236,1,0,0:0:0:0:
256,192,202351,1,8,0:0:0:0:
256,192,202466,1,8,0:0:0:0:
256,192,202582,1,8,0:0:0:0:
256,192,202813,1,0,0:0:0:0:
256,192,202928,1,0,0:0:0:0:
256,192,203043,1,8,0:0:0:0:
256,192,203274,1,0,0:0:0:0:
256,192,203505,1,8,0:0:0:0:
256,192,203736,1,8,0:0:0:0:
256,192,204197,1,0,0:0:0:0:
256,192,204428,1,8,0:0:0:0:
256,192,204659,1,0,0:0:0:0:
256,192,204889,1,4,0:0:0:0:
256,192,205120,1,0,0:0:0:0:
256,192,205236,1,0,0:0:0:0:
256,192,205351,1,8,0:0:0:0:
256,192,205582,1,0,0:0:0:0:
256,192,205813,1,8,0:0:0:0:
256,192,206043,1,8,0:0:0:0:
256,192,206159,1,0,0:0:0:0:
256,192,206274,1,8,0:0:0:0:
256,192,206505,1,0,0:0:0:0:
256,192,206736,1,8,0:0:0:0:
256,192,206851,1,8,0:0:0:0:
256,192,206966,1,0,0:0:0:0:
256,192,207197,1,8,0:0:0:0:
256,192,207428,1,0,0:0:0:0:
256,192,207889,1,0,0:0:0:0:
256,192,208120,1,8,0:0:0:0:
256,192,208236,1,8,0:0:0:0:
256,192,208351,1,0,0:0:0:0:
256,192,208582,1,0,0:0:0:0:
256,192,209043,1,8,0:0:0:0:
256,192,209505,1,0,0:0:0:0:
256,192,209736,1,0,0:0:0:0:
256,192,209851,1,0,0:0:0:0:
256,192,209966,1,8,0:0:0:0:
256,192,210197,1,0,0:0:0:0:
256,192,210659,1,8,0:0:0:0:
256,192,210889,1,8,0:0:0:0:
256,192,211120,1,0,0:0:0:0:
256,192,211351,1,8,0:0:0:0:
256,192,211582,1,0,0:0:0:0:
256,192,211813,1,8,0:0:0:0:
256,192,211928,1,8,0:0:0:0:
256,192,212043,1,0,0:0:0:0:
256,192,212274,1,4,0:0:0:0:
256,192,212505,1,0,0:0:0:0:
256,192,212620,1,0,0:0:0:0:
256,192,212736,1,8,0:0:0:0:
256,192,212966,1,8,0:0:0:0:
256,192,213197,1,0,0:0:0:0:
256,192,213428,1,8,0:0:0:0:
256,192,213543,1,8,0:0:0:0:
256,192,213659,1,8,0:0:0:0:
256,192,213889,1,0,0:0:0:0:
256,192,214005,1,0,0:0:0:0:
256,192,214120,1,8,0:0:0:0:
256,192,214351,1,0,0:0:0:0:
256,192,214582,1,8,0:0:0:0:
256,192,214813,1,0,0:0:0:0:
256,192,215274,1,0,0:0:0:0:
256,192,215505,1,8,0:0:0:0:
256,192,215736,1,0,0:0:0:0:
256,192,215851,1,0,0:0:0:0:
256,192,215966,1,8,0:0:0:0:
256,192,216197,1,0,0:0:0:0:
256,192,216428,1,8,0:0:0:0:
256,192,216659,1,0,0:0:0:0:
256,192,216889,1,0,0:0:0:0:
256,192,217005,1,8,0:0:0:0:
256,192,217120,1,0,0:0:0:0:
256,192,217236,1,0,0:0:0:0:
256,192,217351,1,8,0:0:0:0:
256,192,217582,1,0,0:0:0:0:
256,192,217697,1,8,0:0:0:0:
256,192,217813,1,8,0:0:0:0:
256,192,218043,1,0,0:0:0:0:
256,192,218274,1,8,0:0:0:0:
256,192,218505,1,0,0:0:0:0:
256,192,218966,1,0,0:0:0:0:
256,192,219197,1,8,0:0:0:0:
256,192,219428,1,0,0:0:0:0:
256,192,219659,1,4,0:0:0:0:
256,192,219889,1,0,0:0:0:0:
256,192,220005,1,0,0:0:0:0:
256,192,220120,1,8,0:0:0:0:
256,192,220351,1,0,0:0:0:0:
256,192,220466,1,0,0:0:0:0:
256,192,220582,1,0,0:0:0:0:
256,192,220813,1,0,0:0:0:0:
256,192,221043,1,8,0:0:0:0:
256,192,221274,1,0,0:0:0:0:
256,192,221736,1,0,0:0:0:0:
256,192,221966,1,8,0:0:0:0:
256,192,222197,1,0,0:0:0:0:
256,192,222428,1,12,0:0:0:0:
256,192,222659,1,0,0:0:0:0:
256,192,222774,1,0,0:0:0:0:
256,192,222889,1,8,0:0:0:0:
256,192,223005,1,8,0:0:0:0:
256,192,223120,1,0,0:0:0:0:
256,192,223351,1,4,0:0:0:0:
256,192,223813,1,0,0:0:0:0:
256,192,224274,1,0,0:0:0:0:
256,192,224505,1,0,0:0:0:0:
256,192,224736,1,8,0:0:0:0:
256,192,224966,1,0,0:0:0:0:
256,192,225428,1,8,0:0:0:0:
256,192,225889,1,0,0:0:0:0:
256,192,226120,1,0,0:0:0:0:
256,192,226582,1,0,0:0:0:0:
256,192,226813,1,8,0:0:0:0:
256,192,227043,1,8,0:0:0:0:
256,192,227505,1,0,0:0:0:0:
256,192,227966,1,0,0:0:0:0:
256,192,228197,1,0,0:0:0:0:
256,192,228428,1,8,0:0:0:0:
256,192,228659,1,0,0:0:0:0:
256,192,229120,1,8,0:0:0:0:
256,192,229582,1,0,0:0:0:0:
256,192,229813,1,0,0:0:0:0:
256,192,230274,1,0,0:0:0:0:
256,192,230505,1,8,0:0:0:0:
256,192,230736,1,4,0:0:0:0:
256,192,231197,1,0,0:0:0:0:
256,192,231659,1,0,0:0:0:0:
256,192,231889,1,0,0:0:0:0:
256,192,232120,1,8,0:0:0:0:
256,192,232351,1,0,0:0:0:0:
256,192,232813,1,8,0:0:0:0:
256,192,233274,1,0,0:0:0:0:
256,192,233505,1,0,0:0:0:0:
256,192,233966,1,0,0:0:0:0:
256,192,234197,1,8,0:0:0:0:
256,192,234428,1,8,0:0:0:0:
256,192,234889,1,0,0:0:0:0:
256,192,235351,1,0,0:0:0:0:
256,192,235582,1,0,0:0:0:0:
256,192,235813,1,8,0:0:0:0:
256,192,236043,1,0,0:0:0:0:
256,192,236505,1,8,0:0:0:0:
256,192,236966,1,0,0:0:0:0:
256,192,237197,1,0,0:0:0:0:
256,192,237659,1,0,0:0:0:0:
256,192,237889,1,8,0:0:0:0:
256,192,238120,12,0,239966,0:0:0:0:
