osu file format v14

[General]
AudioFilename: quantum jump .mp3
AudioLeadIn: 0
PreviewTime: 171197
Countdown: 0
SampleSet: Soft
StackLeniency: 0.7
Mode: 0
LetterboxInBreaks: 0
EpilepsyWarning: 1
WidescreenStoryboard: 0

[Editor]
Bookmarks: 218736,229120
DistanceSpacing: 1.2
BeatDivisor: 4
GridSize: 32
TimelineZoom: 2.499999

[Metadata]
Title:quantum jump
TitleUnicode:quantum jump
Artist:Marika
ArtistUnicode:真里歌
Creator:Shurelia
Version:Normal
Source:フレラバ ~Friend to Lover~
Tags:Eroge Opening Visual Novel smee fureraba kanari xXCrystalMoonAnimeXx El Solarbeam Nardoxyribonucleic
BeatmapID:1098051
BeatmapSetID:183467

[Difficulty]
HPDrainRate:4
CircleSize:3
OverallDifficulty:4
ApproachRate:5
SliderMultiplier:1.4
SliderTickRate:1

[Events]
//Background and Video events
0,0,"rina2.jpg",0,0
//Break Periods
2,74936,85536
2,160782,170459
Sprite,Background,Centre,"rina2.jpg",320,240
//Storyboard Layer 0 (Background)
//Storyboard Layer 1 (Fail)
//Storyboard Layer 2 (Pass)
//Storyboard Layer 3 (Foreground)
//Storyboard Sound Samples

[TimingPoints]
1813,461.538461538462,4,2,1,47,1,0
16582,-100,4,2,1,32,0,0
17043,-100,4,2,1,32,0,0
23851,-100,4,2,1,5,0,0
23966,-100,4,2,1,32,0,0
30889,-100,4,2,2,42,0,0
31236,-100,4,2,2,5,0,0
31351,-100,4,2,1,52,0,0
46120,-100,4,2,1,57,0,1
59966,-100,4,2,1,57,0,0
60889,-100,4,2,1,57,0,1
71966,-100,4,2,1,57,0,0
72082,-100,4,2,1,12,0,0
74736,-100,4,2,1,45,0,0
86736,-100,4,2,1,32,0,0
94005,-100,4,2,1,5,0,0
94120,-100,4,2,1,32,0,0
95736,-100,4,2,1,32,0,0
96197,-100,4,2,1,32,0,0
99428,-100,4,2,1,32,0,0
99659,-100,4,2,1,32,0,0
100351,-100,4,2,1,32,0,0
101043,-100,4,2,1,42,0,0
101389,-100,4,2,1,5,0,0
101505,-100,4,2,1,52,0,0
116274,-100,4,2,1,57,0,1
130120,-100,4,2,1,57,0,0
131043,-100,4,2,1,57,0,1
142582,-100,4,2,1,57,0,0
148120,-100,4,2,1,57,0,0
148466,-100,4,2,1,5,0,0
148582,-100,4,2,1,57,0,0
148928,-100,4,2,1,5,0,0
149043,-100,4,2,1,57,0,0
169813,-100,4,2,1,25,0,0
171659,-100,4,2,1,25,0,0
185274,-100,4,2,1,69,0,0
185505,-100,4,2,1,69,0,0
186428,-100,4,2,1,57,0,1
195889,-100,4,2,1,57,0,0
197505,-100,4,2,1,57,0,1
210889,-100,4,2,1,57,0,0
212274,-100,4,2,1,57,0,1
223351,-100,4,2,1,47,0,0
238120,-100,4,2,1,47,0,0
238236,-100,4,2,1,10,0,0

[Colours]
Combo1 : 236,211,182
Combo2 : 226,146,133
Combo3 : 202,50,82
Combo4 : 63,71,132

[HitObjects]
108,52,1813,6,8,P|172:76|241:66,1,140,6|10,0:0|0:0,0:0:0:0:
408,61,2736,2,0,P|437:79|457:108,2,70,2|0|10,0:0|0:0|0:0,0:0:0:0:
378,139,3428,2,0,L|343:274,1,140
320,356,4120,1,10,0:0:0:0:
156,316,4582,2,0,L|121:180,1,140,0|10,0:0|0:0,0:0:0:0:
103,98,5274,1,0,0:0:0:0:
123,16,5505,5,2,0:0:0:0:
281,71,5966,2,0,P|296:138|283:206,1,140,10|2,0:0|0:0,0:0:0:0:
222,266,6659,1,0,0:0:0:0:
252,342,6889,1,10,0:0:0:0:
316,288,7120,2,0,P|383:303|451:290,1,140
500,220,7813,1,10,0:0:0:0:
417,72,8274,2,0,P|350:57|282:70,1,140,2|10,0:0|0:0,0:0:0:0:
222,131,8966,1,0,0:0:0:0:
283,188,9197,5,6,0:0:0:0:
337,347,9659,2,0,P|267:349|199:331,1,140,10|2,0:0|0:0,0:0:0:0:
123,295,10351,1,0,0:0:0:0:
78,223,10582,1,10,0:0:0:0:
124,152,10813,2,0,P|193:149|261:167,1,140
336,203,11505,1,10,0:0:0:0:
398,358,11966,2,0,L|419:219,1,140,2|10,0:0|0:0,0:0:0:0:
436,136,12659,1,0,0:0:0:0:
452,53,12889,5,2,0:0:0:0:
286,6,13351,1,10,0:0:0:0:
156,110,13813,2,0,P|148:143|156:177,2,70,2|0|10,0:0|0:0|0:0,0:0:0:0:
232,143,14505,2,0,L|261:279,1,140
287,359,15197,1,10,0:0:0:0:
437,283,15659,2,0,L|407:146,1,140,2|10,0:0|0:0,0:0:0:0:
389,63,16351,1,0,0:0:0:0:
322,116,16582,6,0,P|254:128|189:104,1,140,6|2,0:0|0:0,0:0:0:0:
51,7,17505,2,0,L|36:146,1,140,8|2,0:1|0:0,0:0:0:0:
9,312,18428,2,0,P|70:343|137:329,1,140,2|2,0:0|0:0,0:0:0:0:
238,195,19351,2,0,P|305:181|366:212,1,140,8|2,0:1|0:0,0:0:0:0:
499,315,20274,6,0,L|488:171,1,140,2|2,0:0|0:0,0:0:0:0:
379,47,21197,2,0,L|368:186,1,140,8|2,0:1|0:0,0:0:0:0:
355,354,22120,1,2,0:0:0:0:
195,300,22582,1,2,0:0:0:0:
40,367,23043,2,0,P|25:300|47:235,1,140,8|2,0:1|0:0,0:0:0:0:
200,163,23966,6,0,P|222:228|206:295,1,140,6|2,0:0|0:0,0:0:0:0:
46,234,24889,2,0,P|23:168|39:101,1,140,8|2,0:1|0:0,0:0:0:0:
188,22,25813,2,0,L|328:17,1,140,2|2,0:0|0:0,0:0:0:0:
478,90,26736,2,0,L|483:229,1,140,8|2,0:1|0:0,0:0:0:0:
365,349,27659,6,0,P|295:346|234:313,1,140,2|2,0:0|0:0,0:0:0:0:
146,170,28582,2,0,L|195:39,1,140,8|2,0:1|0:0,0:0:0:0:
347,116,29505,1,2,0:0:0:0:
484,216,29966,1,2,0:0:0:0:
328,278,30428,5,8,0:1:0:0:
250,245,30659,1,0,0:0:0:0:
177,286,30889,2,0,P|142:290|107:285,1,70,12|0,0:0|0:0,0:0:0:0:
48,224,31351,5,4,0:0:0:0:
53,55,31813,1,4,0:1:0:0:
175,170,32274,2,0,B|255:189|310:150,1,140,0|4,0:0|0:1,0:0:0:0:
349,76,32966,2,0,B|371:214,1,140,2|2,0:0|0:0,0:0:0:0:
386,297,33659,2,0,P|398:330|397:366,1,70,4|0,0:1|0:0,0:0:0:0:
316,343,34120,1,0,0:0:0:0:
201,222,34582,1,4,0:1:0:0:
93,348,35043,5,2,0:0:0:0:
125,183,35505,2,0,P|147:155|178:139,2,70,4|0|0,0:1|0:0|0:0,0:0:0:0:
63,239,36197,2,0,B|66:99,2,140,2|0|2,0:0|0:0|0:0,0:0:0:0:
136,279,37351,1,4,0:1:0:0:
215,307,37582,2,0,L|354:317,1,140,2|2,0:0|0:0,0:0:0:0:
438,323,38274,1,4,0:1:0:0:
484,160,38736,6,0,P|415:168|351:141,1,140,6|4,0:0|0:1,0:0:0:0:
201,64,39659,2,0,P|137:36|68:44,1,140,2|4,0:0|0:1,0:0:0:0:
33,119,40351,2,0,L|43:258,1,140,2|2,0:0|0:0,0:0:0:0:
92,326,41043,2,0,P|126:330|159:318,1,70,4|0,0:1|0:0,0:0:0:0:
208,249,41505,1,2,0:0:0:0:
360,319,41966,2,0,P|394:326|428:325,1,70,4|0,0:1|0:1,0:1:0:0:
490,382,42428,6,0,P|469:315|474:246,1,140,4|4,0:0|0:1,0:0:0:0:
511,170,43120,2,0,P|516:100|495:34,1,140,2|2,0:0|0:0,0:0:0:0:
411,20,43813,1,4,0:1:0:0:
340,65,44043,2,0,B|301:99|252:63|203:74,1,140,6|0,0:0|0:0,0:0:0:0:
138,20,44736,2,8,P|81:59|49:120,1,140,4|6,0:1|0:0,0:0:0:0:
33,203,45428,1,2,0:0:0:0:
35,287,45659,1,4,0:1:0:0:
198,263,46120,6,0,P|261:234|329:245,1,140,4|4,0:0|0:1,0:0:0:0:
365,322,46813,2,0,L|396:185,1,140,2|2,0:0|0:0,0:0:0:0:
421,105,47505,1,4,0:1:0:0:
440,23,47736,2,0,L|300:15,1,140,2|2,0:0|0:0,0:0:0:0:
216,9,48428,1,4,0:1:0:0:
69,91,48889,2,0,L|57:21,2,70,2|2|4,0:0|0:0|0:1,0:0:0:0:
129,151,49582,1,0,0:0:0:0:
197,196,49813,6,0,P|267:200|335:185,1,140,2|4,0:0|0:1,0:0:0:0:
376,112,50505,2,0,P|390:180|386:249,1,140,2|2,0:0|0:0,0:0:0:0:
366,331,51197,1,4,0:1:0:0:
285,355,51428,2,0,L|139:360,1,140,2|0,0:0|0:0,0:0:0:0:
108,283,52120,2,0,B|110:213,2,70,4|2|0,0:1|0:0|0:0,0:0:0:0:
48,344,52813,1,2,0:0:0:0:
9,269,53043,1,4,0:1:0:0:
70,112,53505,6,0,P|138:126|204:107,1,140,6|4,0:0|0:1,0:0:0:0:
270,54,54197,2,0,B|263:193,1,140,0|2,0:0|0:0,0:0:0:0:
255,277,54889,1,4,0:1:0:0:
250,360,55120,2,0,P|182:342|113:350,1,140,2|0,0:0|0:0,0:0:0:0:
34,379,55812,1,4,0:1:0:0:
47,296,56043,2,0,L|24:158,1,140,2|0,0:0|0:0,0:0:0:0:
96,112,56736,2,0,P|130:106|165:104,1,70,4|0,0:1|0:0,0:0:0:0:
231,163,57197,6,8,B|215:23,2,140,6|4|2,0:0|0:1|0:0,0:0:0:0:
259,241,58351,2,0,P|293:245|327:235,1,70,0|4,0:0|0:1,0:0:0:0:
388,177,58813,2,0,L|384:316,1,140,2|0,0:0|0:0,0:0:0:0:
320,372,59505,1,4,0:1:0:0:
154,342,59966,1,4,0:1:0:0:
72,194,60428,1,8,0:3:0:0:
88,111,60659,1,4,0:3:0:0:
109,30,60889,6,0,L|248:43,1,140,6|4,0:0|0:1,0:0:0:0:
331,55,61582,2,0,P|351:121|339:189,1,140,2|2,0:0|0:0,0:0:0:0:
321,271,62274,1,4,0:1:0:0:
279,344,62505,2,0,P|211:346|153:308,1,140,2|2,0:0|0:0,0:0:0:0:
82,259,63197,2,0,P|72:292|69:327,2,70,4|0|2,0:1|0:0|0:0,0:0:0:0:
238,186,64120,2,0,L|235:255,1,70,4|0,0:1|0:1,0:1:0:0:
265,341,64582,6,0,B|403:362,1,140,2|4,0:0|0:1,0:0:0:0:
484,341,65274,2,0,P|502:273|482:207,1,140,2|2,0:0|0:0,0:0:0:0:
428,143,65966,1,4,0:1:0:0:
481,78,66197,2,0,B|439:95|397:57|343:72,1,140,2|2,0:0|0:0,0:0:0:0:
272,117,66889,1,4,0:1:0:0:
195,82,67120,2,0,P|174:148|190:215,1,140,0|2,0:0|0:0,0:0:0:0:
244,280,67813,1,4,0:1:0:0:
386,369,68274,6,0,L|395:229,1,140,4|4,0:0|0:1,0:0:0:0:
454,169,68966,2,0,P|462:99|444:32,1,140,0|2,0:0|0:0,0:0:0:0:
359,40,69659,2,0,P|325:44|290:41,1,70,4|2,0:1|0:0,0:0:0:0:
39,63,70582,5,4,0:1:0:0:
115,28,70813,2,0,B|134:67|116:103|116:103|152:143|152:143|125:173|132:215,1,210,0|4,0:0|0:1,0:0:0:0:
169,291,71736,1,12,0:3:0:0:
235,342,71966,1,4,0:0:0:0:
256,192,72082,12,0,74736,0:0:0:0:
144,384,86736,6,0,P|120:318|128:249,1,140,6|2,0:0|0:0,0:0:0:0:
211,105,87659,2,0,P|276:81|345:89,1,140,8|2,0:1|0:0,0:0:0:0:
473,198,88582,2,0,L|473:337,1,140,2|2,0:0|0:0,0:0:0:0:
332,244,89505,2,0,P|263:235|198:260,1,140,8|2,0:1|0:0,0:0:0:0:
53,344,90428,6,0,L|61:204,1,140,2|2,0:0|0:0,0:0:0:0:
135,53,91351,2,0,L|274:61,1,140,8|2,0:1|0:0,0:0:0:0:
434,116,92274,1,2,0:0:0:0:
489,272,92736,1,2,0:0:0:0:
332,336,93197,2,0,P|308:271|316:202,1,140,8|2,0:1|0:0,0:0:0:0:
382,47,94120,6,0,L|243:30,1,140,6|2,0:0|0:0,0:0:0:0:
148,169,95043,2,0,L|288:154,1,140,8|2,0:1|0:0,0:0:0:0:
433,71,95966,2,0,P|456:136|449:205,1,140,2|2,0:0|0:0,0:0:0:0:
319,311,96889,2,0,P|254:335|185:327,1,140,8|2,0:1|0:0,0:0:0:0:
64,208,97813,6,0,L|65:68,1,140,2|2,0:0|0:0,0:0:0:0:
218,138,98736,2,0,P|283:114|352:122,1,140,8|2,0:1|0:0,0:0:0:0:
299,281,99659,1,2,0:0:0:0:
132,305,100120,1,2,0:0:0:0:
101,138,100582,2,0,P|135:133|170:138,1,70,4|4,0:1|0:3,0:0:0:0:
241,182,101043,2,0,B|306:161|347:180|347:180|377:174,1,140,4|4,0:0|0:0,0:0:0:0:
501,59,101966,5,4,0:1:0:0:
459,222,102428,2,0,B|427:254|427:254|335:277,1,140,0|4,0:0|0:1,0:0:0:0:
251,273,103120,2,0,P|182:275|126:316,1,140,2|2,0:0|0:0,0:0:0:0:
44,335,103813,2,0,L|3:277,2,70,4|0|2,0:1|0:0|0:0,0:0:0:0:
210,359,104736,1,4,0:1:0:0:
366,271,105197,5,2,0:0:0:0:
421,112,105659,2,0,L|442:45,2,70,4|0|2,0:1|0:0|0:0,0:0:0:0:
352,162,106351,2,0,B|492:155,2,140,2|2|0,0:0|0:0|0:0,0:0:0:0:
268,171,107505,1,4,0:1:0:0:
183,171,107736,2,0,P|148:144|133:49,1,140,2|0,0:0|0:0,0:0:0:0:
206,17,108428,1,4,0:1:0:0:
268,171,108890,6,0,L|306:305,1,140,4|4,0:0|0:1,0:0:0:0:
466,355,109813,2,0,L|427:220,1,140,0|4,0:0|0:1,0:0:0:0:
465,145,110505,2,0,P|410:186|341:189,1,140,2|2,0:0|0:0,0:0:0:0:
261,217,111197,2,0,P|260:182|269:148,1,70,4|0,0:1|0:0,0:0:0:0:
342,106,111659,1,2,0:0:0:0:
196,20,112120,2,0,P|162:25|127:22,1,70,4|0,0:1|0:0,0:0:0:0:
52,61,112582,6,0,B|72:99|41:152|53:199,1,140,4|4,0:0|0:1,0:0:0:0:
82,278,113274,2,8,B|154:294|154:294|218:278,1,140,0|2,0:0|0:0,0:0:0:0:
300,260,113967,1,4,0:1:0:0:
355,322,114197,2,0,P|341:253|361:187,1,140,4|2,0:0|0:0,0:0:0:0:
438,153,114890,2,8,P|369:160|308:128,1,140,4|4,0:1|0:1,0:0:0:0:
241,76,115582,1,2,0:0:0:0:
156,73,115813,1,4,0:1:0:0:
65,213,116274,6,0,P|129:241|198:233,1,140,6|4,0:0|0:1,0:0:0:0:
264,183,116966,2,0,P|332:192|398:170,1,140,2|2,0:0|0:0,0:0:0:0:
474,134,117659,1,4,0:1:0:0:
512,64,117890,2,0,L|511:203,1,140,2|2,0:0|0:0,0:0:0:0:
468,276,118582,1,4,0:1:0:0:
304,314,119043,2,0,L|300:383,2,70,2|2|4,0:0|0:0|0:1,0:0:0:0:
281,232,119736,1,0,0:0:0:0:
352,188,119967,6,0,B|208:180,1,140,2|4,0:0|0:1,0:0:0:0:
153,240,120659,2,0,P|178:175|171:106,1,140,2|2,0:0|0:0,0:0:0:0:
146,26,121351,1,4,0:1:0:0:
229,38,121582,2,0,L|379:38,1,140,2|0,0:0|0:0,0:0:0:0:
442,78,122274,2,0,P|450:44|444:9,2,70,4|2|0,0:1|0:0|0:0,0:0:0:0:
400,152,122966,1,2,0:0:0:0:
350,219,123197,1,4,0:1:0:0:
277,370,123659,6,0,L|263:231,1,140,6|4,0:0|0:1,0:0:0:0:
183,210,124351,2,0,B|168:71,1,140,0|2,0:0|0:0,0:0:0:0:
85,57,125043,1,4,0:1:0:0:
37,125,125274,2,0,P|15:191|30:259,1,140,2|0,0:0|0:0,0:0:0:0:
84,324,125966,2,0,L|153:320,1,70,4|0,0:1|0:0,0:0:0:0:
239,316,126428,1,2,0:0:0:0:
346,186,126890,2,0,L|345:255,1,70,4|0,0:1|0:0,0:0:0:0:
367,337,127351,6,8,P|307:305|239:315,2,140,6|4|2,0:0|0:1|0:0,0:0:0:0:
446,309,128505,1,0,0:0:0:0:
494,240,128736,1,4,0:1:0:0:
492,156,128966,2,0,L|467:18,1,140,2|2,0:0|0:0,0:0:0:0:
382,18,129659,1,4,0:1:0:0:
214,18,130120,1,4,0:1:0:0:
249,182,130582,1,8,0:3:0:0:
165,173,130813,1,4,0:3:0:0:
113,108,131043,6,0,P|126:176|112:244,1,140,6|4,0:0|0:1,0:0:0:0:
57,308,131736,2,0,P|124:293|192:311,1,140,2|2,0:0|0:0,0:0:0:0:
270,340,132428,1,4,0:1:0:0:
341,383,132659,2,0,P|323:315|334:246,1,140,2|2,0:0|0:0,0:0:0:0:
324,163,133351,2,0,P|358:166|396:187,2,70,4|0|2,0:1|0:0|0:0,0:0:0:0:
251,11,134274,1,4,0:1:0:0:
128,124,134736,6,0,L|122:263,1,140,6|4,0:0|0:1,0:0:0:0:
205,271,135428,2,0,L|211:131,1,140,2|2,0:0|0:0,0:0:0:0:
209,47,136120,1,4,0:1:0:0:
285,82,136351,2,0,B|424:73,1,140,2|2,0:0|0:0,0:0:0:0:
496,116,137043,2,0,L|494:185,1,70,4|0,0:1|0:0,0:0:0:0:
495,270,137505,1,0,0:0:0:0:
493,354,137736,1,2,0:0:0:0:
418,315,137966,2,8,L|348:313,1,70,4|2,0:1|0:0,0:0:0:0:
357,228,138428,6,8,L|287:226,1,70,4|2,0:0|0:0,0:0:0:0:
232,290,138890,2,0,L|242:150,1,140,4|2,0:1|0:0,0:0:0:0:
294,88,139582,2,0,B|272:65|228:69,2,70,2|4|2,0:0|0:1|0:0,0:0:0:0:
415,204,140505,1,2,0:0:0:0:
463,275,140736,2,0,B|419:311|376:266|328:283,1,140,4|4,0:1|0:0,0:0:0:0:
250,315,141428,1,0,0:0:0:0:
169,289,141659,2,0,L|99:289,1,70,4|4,0:1|0:3,0:0:0:0:
9,288,142120,5,6,0:0:0:0:
89,140,142582,1,4,0:1:0:0:
169,289,143043,1,2,0:0:0:0:
205,213,143274,1,2,0:0:0:0:
248,140,143505,1,4,0:1:0:0:
415,140,143966,1,2,0:0:0:0:
492,289,144428,2,8,P|422:287|358:314,1,140,4|2,0:1|0:0,0:0:0:0:
278,340,145120,1,2,0:0:0:0:
196,358,145351,1,4,0:1:0:0:
60,267,145812,5,2,0:0:0:0:
194,166,146274,1,4,0:1:0:0:
60,63,146736,1,2,0:0:0:0:
141,42,146966,1,2,0:0:0:0:
223,24,147197,1,4,0:1:0:0:
298,60,147428,1,0,0:0:0:0:
373,96,147659,6,8,B|442:91,1,70,6|0,0:0|0:0,0:0:0:0:
474,168,148120,2,8,B|404:163,1,70,2|0,0:0|0:0,0:0:0:0:
360,235,148582,2,8,B|429:230,1,70,2|0,0:0|0:0,0:0:0:0:
461,307,149043,2,8,B|391:302,1,70,2|0,0:0|0:0,0:0:0:0:
344,372,149505,5,6,0:0:0:0:
188,308,149966,1,4,0:1:0:0:
32,372,150428,1,2,0:0:0:0:
45,289,150659,1,0,0:0:0:0:
61,206,150889,1,4,0:1:0:0:
47,38,151351,2,8,L|186:53,1,140,2|4,0:0|0:1,0:0:0:0:
315,160,152274,2,8,P|352:101|355:32,1,140,2|4,0:0|0:1,0:0:0:0:
271,32,152966,1,0,0:0:0:0:
247,112,153197,5,2,0:0:0:0:
360,235,153659,1,4,0:1:0:0:
247,112,154120,1,2,0:0:0:0:
165,132,154351,1,2,0:0:0:0:
82,149,154582,1,4,0:1:0:0:
197,275,155043,2,8,P|265:287|333:270,1,140,2|4,0:0|0:1,0:0:0:0:
404,117,155966,2,8,P|335:105|267:122,1,140,4|4,0:1|0:1,0:0:0:0:
223,193,156659,1,4,0:3:0:0:
197,275,156889,5,6,0:0:0:0:
256,192,157005,12,2,160582,0:0:0:0:
428,116,171659,6,0,B|288:109,1,140
172,28,172582,2,0,P|150:129|198:220,2,210
288,109,174428,1,0,0:0:0:0:
288,109,175351,6,0,P|309:175|291:242,1,140
182,336,176274,2,0,B|133:285|204:196|145:137,2,210
288,245,178120,1,0,0:0:0:0:
288,245,179043,6,0,B|332:232|375:271|425:244,1,140
480,115,179966,2,0,P|449:213|479:312,2,210
353,54,181813,1,0,0:0:0:0:
228,118,182274,2,0,B|158:120,1,70
87,124,182736,5,0,0:0:0:0:
256,192,182966,12,4,185505,0:1:0:0:
304,64,186428,6,0,P|243:95|205:153,1,140,6|4,0:0|0:1,0:0:0:0:
128,188,187120,2,0,P|197:191|255:229,1,140,2|2,0:0|0:0,0:0:0:0:
313,290,187813,1,4,0:1:0:0:
377,344,188043,2,0,B|385:204,1,140,2|2,0:0|0:0,0:0:0:0:
390,120,188736,1,4,0:1:0:0:
243,38,189197,2,0,L|175:18,2,70,2|2|4,0:0|0:0|0:1,0:0:0:0:
319,72,189889,1,0,0:0:0:0:
390,120,190121,6,0,P|414:184|400:252,1,140,2|4,0:0|0:1,0:0:0:0:
365,329,190813,2,0,L|225:314,1,140
142,301,191505,1,4,0:1:0:0:
78,357,191736,2,0,P|105:292|102:223,1,140,2|0,0:0|0:0,0:0:0:0:
51,156,192428,2,0,P|113:184|182:173,1,140,4|2,0:1|0:0,0:0:0:0:
259,139,193120,1,2,0:0:0:0:
333,99,193351,1,4,0:1:0:0:
487,164,193813,6,0,P|509:229|499:298,1,140,6|4,0:0|0:1,0:0:0:0:
420,325,194505,2,0,B|281:307,1,140,0|2,0:0|0:0,0:0:0:0:
197,296,195197,1,4,0:1:0:0:
136,354,195428,2,0,L|177:220,1,140,6|2,0:0|0:0,0:0:0:0:
256,187,196120,1,4,0:1:0:0:
408,116,196582,2,0,L|403:46,1,70,8|8,0:3|0:3,0:0:0:0:
484,67,197043,2,0,L|488:136,1,70,8|8,0:3|0:3,0:0:0:0:
429,197,197505,6,0,B|361:202|361:202|291:183,1,140,6|4,0:0|0:1,0:0:0:0:
247,111,198197,2,0,L|220:248,1,140,2|2,0:0|0:0,0:0:0:0:
179,321,198889,1,4,0:1:0:0:
248,369,199121,2,0,P|318:360|386:374,1,140,2|2,0:0|0:0,0:0:0:0:
468,360,199813,1,4,0:1:0:0:
493,193,200274,2,0,L|512:125,2,70,2|2|4,0:0|0:0|0:1,0:0:0:0:
450,265,200966,1,0,0:0:0:0:
404,191,201198,6,0,B|367:174|304:208|267:185,1,140,2|4,0:0|0:1,0:0:0:0:
214,120,201889,2,0,P|146:103|78:118,1,140,0|2,0:0|0:0,0:0:0:0:
35,191,202582,1,4,0:1:0:0:
27,273,202813,2,0,P|92:300|138:352,1,140,2|0,0:0|0:0,0:0:0:0:
215,317,203505,2,0,B|354:315,1,140,4|2,0:1|0:0,0:0:0:0:
429,352,204197,1,2,0:0:0:0:
508,324,204428,2,0,P|487:295|459:274,1,70,4|0,0:1|0:1,0:1:0:0:
382,239,204890,22,0,P|368:170|383:102,1,140,6|4,0:0|0:1,0:0:0:0:
443,44,205582,2,0,B|303:49,1,140,0|2,0:0|0:0,0:0:0:0:
220,64,206274,1,4,0:1:0:0:
155,120,206505,2,0,B|136:161|178:210|159:258,1,140,0|2,0:0|0:0,0:0:0:0:
97,314,207197,1,4,0:1:0:0:
177,339,207429,2,0,L|243:359,1,70,2|0,0:0|0:0,0:0:0:0:
374,262,208121,2,0,L|371:189,1,70,4|2,0:1|0:0,0:0:0:0:
313,131,208582,6,8,B|337:83|337:83|337:35|337:35|353:-5,2,140,6|4|2,0:0|0:1|0:0,0:0:0:0:
259,196,209736,1,0,0:0:0:0:
232,115,209967,2,0,P|166:94|98:104,1,140,4|0,0:1|0:0,0:0:0:0:
41,166,210659,1,0,0:0:0:0:
19,246,210889,2,0,P|20:280|36:311,1,70,4|0,0:1|0:0,0:0:0:0:
105,361,211351,1,4,0:1:0:0:
180,210,211813,1,8,0:3:0:0:
223,281,212043,1,4,0:3:0:0:
287,333,212274,6,0,P|353:313|394:258,1,140,6|4,0:0|0:1,0:0:0:0:
332,202,212966,2,0,P|319:133|334:65,1,140,0|2,0:0|0:0,0:0:0:0:
417,52,213659,1,4,0:1:0:0:
402,133,213889,2,0,P|332:123|263:130,1,140,2|0,0:0|0:0,0:0:0:0:
195,181,214582,1,4,0:1:0:0:
123,224,214813,2,0,P|113:190|118:156,1,70,0|2,0:1|0:0,0:0:0:0:
75,83,215274,1,2,0:0:0:0:
139,28,215505,1,4,0:1:0:0:
305,48,215966,6,0,B|445:59,1,140,2|4,0:0|0:1,0:0:0:0:
511,12,216659,2,0,P|483:75|489:144,1,140,0|2,0:0|0:0,0:0:0:0:
508,225,217351,1,4,0:1:0:0:
468,299,217582,2,0,B|445:294|433:276|433:276|387:295|339:278,1,140,2|2,0:0|0:0,0:0:0:0:
280,216,218274,2,0,P|253:208|211:207,1,70,4|0,0:1|0:0,0:0:0:0:
155,271,218736,2,0,P|121:272|87:262,1,70,2|2,0:0|0:0,0:0:0:0:
36,195,219197,1,4,0:1:0:0:
132,57,219659,6,0,P|153:122|132:188,1,140,6|4,0:0|0:1,0:0:0:0:
155,270,220351,2,0,B|196:299|264:276|289:304,1,140,0|2,0:0|0:0,0:0:0:0:
355,354,221043,1,4,0:1:0:0:
420,301,221274,2,0,B|455:214|455:214|452:167,1,140,2|2,0:0|0:0,0:0:0:0:
459,83,221966,2,0,P|425:89|395:107,1,70,4|2,0:1|0:0,0:0:0:0:
371,188,222428,2,0,B|313:156|313:156|239:154,1,140,6|8,0:0|0:3,0:0:0:0:
155,155,223120,1,4,0:3:0:0:
114,81,223351,6,0,B|95:219,1,140,6|10,0:0|0:0,0:0:0:0:
179,365,224274,2,0,L|256:376,2,70,2|0|10,0:0|0:0|0:0,0:0:0:0:
104,326,224966,2,0,L|97:256,1,70,0|2,0:0|0:0,0:0:0:0:
173,218,225428,2,0,L|179:148,1,70,0|10,0:0|0:0,0:0:0:0:
191,61,225889,1,0,0:0:0:0:
260,108,226120,2,0,P|294:102|324:85,1,70,2|0,0:0|0:0,0:0:0:0:
395,39,226582,1,10,0:0:0:0:
395,39,226813,1,0,0:0:0:0:
444,106,227043,6,0,B|456:182|456:182|446:244,1,140,2|10,0:0|0:0,0:0:0:0:
313,345,227966,2,0,P|278:352|244:344,2,70,2|0|10,0:0|0:0|0:0,0:0:0:0:
362,276,228659,2,0,L|360:206,1,70,0|2,0:0|0:0,0:0:0:0:
277,191,229120,2,0,L|278:260,1,70,0|10,0:0|0:0,0:0:0:0:
194,272,229582,1,0,0:0:0:0:
128,324,229813,2,0,P|97:308|79:279,1,70
52,199,230274,1,10,0:0:0:0:
52,199,230505,1,0,0:0:0:0:
86,122,230736,6,0,B|123:151|192:113|223:131,1,140,6|10,0:0|0:0,0:0:0:0:
388,104,231659,2,0,P|392:138|388:173,1,70,2|0,0:0|0:0,0:0:0:0:
366,254,232121,1,10,0:0:0:0:
342,334,232352,2,0,P|307:341|272:339,1,70,0|2,0:0|0:0,0:0:0:0:
213,280,232813,2,0,P|178:278|143:285,1,70,0|10,0:0|0:0,0:0:0:0:
86,347,233274,1,0,0:0:0:0:
40,276,233505,2,0,L|45:206,1,70,2|0,0:0|0:0,0:0:0:0:
129,200,233966,2,0,L|123:130,1,70,8|0,0:0|0:0,0:0:0:0:
119,45,234428,5,2,0:0:0:0:
246,152,234889,2,0,P|280:161|315:159,1,70,10|0,0:0|0:0,0:0:0:0:
397,177,235351,2,0,P|398:143|384:111,2,70,2|0|10,0:0|0:0|0:0,0:0:0:0:
362,253,236043,2,0,P|396:259|430:254,1,70,0|2,0:0|0:0,0:0:0:0:
506,215,236505,2,0,P|513:250|508:284,1,70,0|10,0:0|0:0,0:0:0:0:
484,364,236966,1,0,0:0:0:0:
399,366,237197,2,0,L|330:359,1,70,2|0,0:0|0:0,0:0:0:0:
247,339,237659,1,14,0:0:0:0:
172,300,237889,1,0,0:0:0:0:
121,232,238120,5,0,0:0:0:0:
256,192,238236,12,0,239966,0:0:0:0:
