osu file format v14

[General]
AudioFilename: quantum jump .mp3
AudioLeadIn: 0
PreviewTime: 171197
Countdown: 0
SampleSet: Soft
StackLeniency: 0.7
Mode: 0
LetterboxInBreaks: 0
EpilepsyWarning: 1
WidescreenStoryboard: 0

[Editor]
Bookmarks: 1829,75675,79367,160598,169829,230752,239982
DistanceSpacing: 1.3
BeatDivisor: 4
GridSize: 32
TimelineZoom: 1.499999

[Metadata]
Title:quantum jump
TitleUnicode:quantum jump
Artist:Marika
ArtistUnicode:真里歌
Creator:Shurelia
Version:Kanari's Hard
Source:フレラバ ~Friend to Lover~
Tags:Eroge Opening Visual Novel smee fureraba kanari xXCrystalMoonAnimeXx El Solarbeam Nardoxyribonucleic
BeatmapID:448965
BeatmapSetID:183467

[Difficulty]
HPDrainRate:5.5
CircleSize:4
OverallDifficulty:6
ApproachRate:7
SliderMultiplier:1.6
SliderTickRate:1

[Events]
//Background and Video events
0,0,"rina3.jpg",0,0
//Break Periods
2,75859,85836
2,160782,168913
2,227243,229836
Sprite,Background,Centre,"rina3.jpg",320,240
//Storyboard Layer 0 (Background)
//Storyboard Layer 1 (Fail)
//Storyboard Layer 2 (Pass)
//Storyboard Layer 3 (Foreground)
//Storyboard Sound Samples

[TimingPoints]
1813,461.538461538462,4,2,1,47,1,0
2274,-100,4,2,1,47,0,0
7582,-100,4,2,1,47,0,0
8043,-100,4,2,1,47,0,0
9197,-100,4,2,1,47,0,0
9659,-100,4,2,1,47,0,0
16582,-100,4,2,1,32,0,0
17043,-100,4,2,1,32,0,0
23851,-100,4,2,1,5,0,0
23966,-100,4,2,1,32,0,0
24197,-100,4,2,1,32,0,0
30889,-100,4,2,2,42,0,0
31236,-100,4,2,2,5,0,0
31351,-100,4,2,1,52,0,0
31582,-100,4,2,1,52,0,0
38736,-100,4,2,1,52,0,0
39197,-100,4,2,1,52,0,0
44043,-100,4,2,1,52,0,0
44274,-100,4,2,1,52,0,0
46120,-100,4,2,1,57,0,1
46582,-100,4,2,1,57,0,1
49813,-100,4,2,1,57,0,1
50274,-100,4,2,1,57,0,1
53505,-100,4,2,1,57,0,1
53736,-100,4,2,1,57,0,1
57197,-100,4,2,1,57,0,1
57659,-100,4,2,1,57,0,1
60774,-100,4,2,1,57,0,0
60889,-100,4,2,1,57,0,1
61120,-100,4,2,1,57,0,1
64582,-100,4,2,1,57,0,1
65043,-100,4,2,1,57,0,1
68274,-100,4,2,1,57,0,1
68736,-100,4,2,1,57,0,1
71966,-100,4,2,1,57,0,0
72082,-100,4,2,1,12,0,0
73813,-100,4,2,1,12,0,0
74736,-100,4,2,1,45,0,0
75659,-100,4,2,1,45,0,0
79351,-100,4,2,1,45,0,0
79813,-100,4,2,1,45,0,0
86736,-100,4,2,1,32,0,0
94005,-100,4,2,1,5,0,0
94120,-100,4,2,1,32,0,0
100582,-100,4,2,1,32,0,0
101043,-100,4,2,1,42,0,0
101389,-100,4,2,1,5,0,0
101505,-100,4,2,1,52,0,0
114197,-100,4,2,1,52,0,0
114428,-100,4,2,1,52,0,0
115351,-100,4,2,1,52,0,0
115582,-100,4,2,1,52,0,0
116274,-100,4,2,1,57,0,1
119966,-100,4,2,1,57,0,1
120197,-100,4,2,1,57,0,1
127351,-100,4,2,1,57,0,1
127582,-100,4,2,1,57,0,1
130928,-100,4,2,1,57,0,0
131043,-100,4,2,1,57,0,1
134736,-100,4,2,1,57,0,1
135197,-100,4,2,1,57,0,1
141197,-100,4,2,1,57,0,1
141428,-100,4,2,1,57,0,1
142005,-100,4,2,1,57,0,0
142120,-100,4,2,1,57,0,1
142582,-100,4,2,1,57,0,0
147659,-100,4,2,1,57,0,0
147774,-100,4,2,1,5,0,0
148120,-100,4,2,1,57,0,0
148466,-100,4,2,1,5,0,0
148582,-100,4,2,1,57,0,0
148928,-100,4,2,1,5,0,0
149043,-100,4,2,1,57,0,0
149505,-100,4,2,1,57,0,0
153197,-100,4,2,1,57,0,0
153659,-100,4,2,1,57,0,0
169813,-100,4,2,1,25,0,0
172120,-133.333333333333,4,2,1,25,0,0
173043,-133.333333333333,4,2,1,25,0,0
179043,-133.333333333333,4,2,1,25,0,0
185274,-133.333333333333,4,2,1,69,0,0
185505,-133.333333333333,4,2,1,69,0,0
186428,-100,4,2,1,57,0,1
190120,-100,4,2,1,57,0,1
190351,-100,4,2,1,57,0,1
197389,-100,4,2,1,57,0,0
197505,-100,4,2,1,57,0,1
201197,-100,4,2,1,57,0,1
201428,-100,4,2,1,57,0,1
208582,-100,4,2,1,57,0,1
209043,-100,4,2,1,57,0,1
212159,-100,4,2,1,57,0,0
212274,-100,4,2,1,57,0,1
215966,-100,4,2,1,57,0,1
216313,-100,4,2,1,57,0,1
222428,-100,4,2,1,57,0,1
222659,-100,4,2,1,57,0,1
223351,-100,4,2,1,47,0,0
225197,-100,4,2,1,47,0,0
227043,-100,4,2,1,47,0,0
230736,-100,4,2,1,47,0,0
234428,-100,4,2,1,47,0,0
238120,-100,4,2,1,47,0,0
238236,-100,4,2,1,10,0,0
239043,-100,4,2,1,10,0,0
239966,-100,4,2,1,10,0,0

[Colours]
Combo1 : 236,211,182
Combo2 : 226,146,133
Combo3 : 202,50,82
Combo4 : 63,71,132

[HitObjects]
256,116,1813,6,0,P|324:68|400:64,1,160,6|10,0:0|0:0,0:0:0:0:
480,240,2736,2,0,L|452:316,1,80,2|0,0:0|0:0,0:0:0:0:
357,297,3197,1,10,0:0:0:0:
292,228,3429,6,0,P|303:151|368:108,1,160
459,230,4120,2,0,L|383:202,1,80,8|0,0:0|0:0,0:0:0:0:
292,228,4582,1,2,0:0:0:0:
316,320,4813,1,0,0:0:0:0:
292,228,5044,2,0,P|252:244|228:280,1,80,10|0,0:0|0:0,0:0:0:0:
316,320,5505,6,0,P|372:284|380:192,1,160,2|10,0:0|0:0,0:0:0:0:
256,48,6428,2,0,P|220:36|176:40,1,80,2|0,0:0|0:0,0:0:0:0:
112,108,6889,1,10,0:0:0:0:
156,196,7120,2,0,P|160:268|100:332,1,160,0|0,0:0|0:0,0:0:0:0:
28,156,8043,5,0,0:0:0:0:
156,196,8274,1,2,0:0:0:0:
72,240,8505,1,0,0:0:0:0:
112,108,8736,2,0,P|152:92|192:100,1,80,10|0,0:0|0:0,0:0:0:0:
256,164,9197,6,0,P|296:232|380:244,1,160,6|10,0:0|0:0,0:0:0:0:
352,152,9889,1,0,0:0:0:0:
332,56,10120,2,0,P|408:72|447:139,1,160,2|10,0:0|0:0,0:0:0:0:
352,152,10813,1,0,0:0:0:0:
256,164,11043,6,0,B|208:216|156:168|108:212,1,160,2|10,0:0|0:0,0:0:0:0:
112,307,11736,1,0,0:0:0:0:
108,211,11967,2,0,P|98:172|75:140,1,80,2|0,0:0|0:0,0:0:0:0:
24,256,12428,2,0,P|8:300|12:336,1,80,10|0,0:0|0:0,0:0:0:0:
112,308,12889,6,0,P|172:284|200:196,1,160,2|10,0:0|0:0,0:0:0:0:
160,112,13582,1,0,0:0:0:0:
64,108,13813,2,0,P|16:144|4:172,1,80,2|0,0:0|0:0,0:0:0:0:
24,256,14274,1,10,0:0:0:0:
112,308,14505,2,0,P|172:284|200:196,1,160,0|0,0:0|0:0,0:0:0:0:
160,112,15197,6,0,P|176:75|205:48,1,80,10|0,0:0|0:0,0:0:0:0:
299,31,15658,1,2,0:0:0:0:
352,112,15889,2,0,B|380:124|400:108|432:116,2,80,0|10|0,0:0|0:0|0:0,0:0:0:0:
311,198,16582,6,0,P|330:273|399:307,1,160,6|2,0:0|0:0,0:0:0:0:
408,212,17274,1,0,0:0:0:0:
408,212,17505,2,0,L|282:317,1,160,8|2,0:1|0:0,0:0:0:0:
196,356,18197,2,0,P|112:352|40:312,1,160,0|0,0:0|0:0,0:0:0:0:
32,220,18889,5,2,0:0:0:0:
102,57,19351,2,0,P|179:74|256:56,1,160,8|0,0:1|0:0,0:0:0:0:
346,62,20043,2,0,P|385:129|364:204,1,160
292,140,20735,5,2,0:0:0:0:
292,140,20966,1,0,0:0:0:0:
272,232,21197,2,0,P|296:280|340:296,1,80,8|0,0:1|0:0,0:0:0:0:
412,280,21659,1,2,0:0:0:0:
468,204,21889,2,0,P|484:120|464:48,1,160,0|0,0:0|0:0,0:0:0:0:
368,32,22582,5,2,0:0:0:0:
188,192,23043,2,0,P|180:252|264:280,1,160,8|2,0:1|0:0,0:0:0:0:
332,216,23736,1,0,0:0:0:0:
364,124,23966,6,0,P|321:105|284:104,1,80,6|0,0:0|0:0,0:0:0:0:
192,96,24428,2,0,P|136:108|76:192,1,160,2|8,0:0|0:1,0:0:0:0:
96,280,25120,2,0,P|120:312|164:336,1,80,0|2,0:0|0:0,0:0:0:0:
252,348,25582,2,0,P|320:316|408:316,1,160,0|0,0:0|0:0,0:0:0:0:
476,252,26274,5,2,0:0:0:0:
380,232,26505,2,0,P|328:232|284:244,1,80,0|8,0:0|0:1,0:0:0:0:
204,232,26966,2,0,P|224:180|256:152,1,80,0|2,0:0|0:0,0:0:0:0:
336,144,27428,2,0,P|385:91|334:39,1,160
228,68,28120,5,2,0:0:0:0:
227,68,28351,2,0,P|152:84|97:30,1,160
32,100,29043,1,0,0:0:0:0:
32,100,29274,2,0,P|84:156|164:176,1,160,0|0,0:0|0:0,0:0:0:0:
260,168,29966,6,0,P|304:144|320:112,1,80,2|0,0:0|0:0,0:0:0:0:
384,48,30428,1,8,0:1:0:0:
300,300,30889,1,12,0:0:0:0:
480,268,31120,1,0,0:0:0:0:
480,268,31351,6,0,P|476:312|452:340,1,80,4|0,0:0|0:0,0:0:0:0:
388,268,31813,1,4,0:1:0:0:
308,216,32043,2,0,P|376:172|452:196,1,160,0|2,0:0|0:0,0:0:0:0:
388,268,32736,1,4,0:1:0:0:
300,300,32966,2,0,P|248:280|232:184,1,160,2|2,0:0|0:0,0:0:0:0:
308,128,33659,5,4,0:1:0:0:
404,112,33889,2,0,P|424:64|416:32,1,80,0|2,0:0|0:0,0:0:0:0:
323,31,34351,1,2,0:0:0:0:
307,127,34583,2,0,P|306:167|324:203,1,80,4|0,0:1|0:0,0:0:0:0:
212,136,35043,6,0,P|164:168|60:136,1,160,2|4,0:0|0:1,0:0:0:0:
136,76,35736,2,0,B|168:136|112:160|136:236,1,160,0|2,0:0|0:0,0:0:0:0:
200,300,36428,1,4,0:1:0:0:
296,300,36659,2,0,P|340:284|364:248,1,80,0|0,0:0|0:0,0:0:0:0:
364,152,37120,5,2,0:0:0:0:
468,132,37351,1,4,0:1:0:0:
504,262,37582,2,0,P|431:288|358:258,1,160
291,189,38274,1,4,0:1:0:0:
236,264,38505,1,0,0:0:0:0:
236,264,38620,1,0,0:0:0:0:
236,264,38736,6,0,P|192:256|76:280,1,160,6|4,0:0|0:1,0:0:0:0:
32,196,39428,2,0,L|56:120,1,80,0|0,0:0|0:0,0:0:0:0:
152,100,39889,2,0,L|128:176,1,80,2|4,0:0|0:1,0:0:0:0:
224,180,40351,2,0,P|284:184|324:272,1,160,2|2,0:0|0:0,0:0:0:0:
388,340,41043,5,4,0:1:0:0:
432,256,41274,2,0,P|424:210|412:180,1,80,0|2,0:0|0:0,0:0:0:0:
348,108,41736,1,2,0:0:0:0:
256,80,41966,1,4,0:1:0:0:
164,108,42197,1,0,0:0:0:0:
100,179,42429,6,0,P|85:216|80:256,1,80,6|0,0:0|0:0,0:0:0:0:
140,328,42889,1,4,0:1:0:0:
236,320,43120,2,0,B|284:288|336:344|392:316,1,160,0|2,0:0|0:0,0:0:0:0:
352,228,43813,1,4,0:1:0:0:
256,216,44043,6,0,P|196:224|172:240,1,80,6|0,0:0|0:0,0:0:0:0:
100,180,44505,2,0,P|84:136|84:104,1,80,0|4,0:0|0:1,0:0:0:0:
160,44,44966,1,0,0:0:0:0:
256,52,45197,1,6,0:0:0:0:
320,132,45428,2,0,P|276:156|244:156,1,80,2|4,0:0|0:1,0:0:0:0:
228,152,45774,1,4,0:1:0:0:
208,144,45889,1,4,0:1:0:0:
144,220,46120,6,0,P|200:272|280:272,1,160,4|4,0:0|0:1,0:0:0:0:
372,224,46813,2,0,P|412:232|444:256,1,80,0|2,0:0|0:0,0:0:0:0:
440,360,47274,2,0,P|400:352|368:328,1,80,2|4,0:0|0:1,0:0:0:0:
371,223,47736,2,0,P|349:191|314:171,1,80,2|0,0:0|0:0,0:0:0:0:
216,140,48196,5,2,0:0:0:0:
112,122,48428,1,4,0:1:0:0:
144,220,48658,2,0,P|201:272|279:272,1,160,0|2,0:0|0:0,0:0:0:0:
372,224,49351,2,0,P|340:184|296:168,1,80,4|0,0:1|0:0,0:0:0:0:
216,140,49813,6,0,P|132:128|60:156,1,160,2|4,0:0|0:1,0:0:0:0:
36,256,50505,2,0,L|48:336,1,80,0|2,0:0|0:0,0:0:0:0:
152,336,50966,1,2,0:0:0:0:
256,316,51197,1,4,0:1:0:0:
320,232,51428,2,0,P|260:208|232:216,1,80,2|0,0:0|0:0,0:0:0:0:
256,316,51889,5,2,0:0:0:0:
360,332,52120,1,4,0:1:0:0:
416,244,52351,2,0,P|408:188|312:132,1,160,0|2,0:0|0:0,0:0:0:0:
280,124,52928,1,0,0:0:0:0:
244,92,53043,1,4,0:1:0:0:
136,32,53274,1,0,0:0:0:0:
136,32,53505,6,0,P|116:80|124:116,1,80,6|0,0:0|0:0,0:0:0:0:
157,203,53966,1,4,0:1:0:0:
261,205,54198,2,0,P|300:202|339:210,1,80,2|2,0:0|0:0,0:0:0:0:
440,248,54659,2,0,P|472:272|491:308,1,80,2|4,0:0|0:1,0:0:0:0:
392,344,55120,2,0,P|316:360|252:316,1,160,2|2,0:0|0:0,0:0:0:0:
184,236,55813,2,0,P|156:264|144:304,1,80,4|0,0:1|0:0,0:0:0:0:
52,352,56274,1,2,0:0:0:0:
32,248,56505,1,2,0:0:0:0:
84,156,56736,2,0,P|116:180|136:224,1,80,4|0,0:1|0:0,0:0:0:0:
216,276,57197,6,0,B|264:320|324:296|324:296|356:324,1,160,6|4,0:0|0:1,0:0:0:0:
464,216,57889,1,0,0:0:0:0:
460,320,58120,1,2,0:0:0:0:
360,220,58351,2,0,P|320:212|272:224,1,80,2|4,0:0|0:1,0:0:0:0:
180,200,58813,2,0,P|196:160|236:132,1,80,2|0,0:0|0:0,0:0:0:0:
328,120,59274,5,2,0:0:0:0:
432,124,59505,1,4,0:1:0:0:
380,32,59736,1,0,0:0:0:0:
276,36,59966,2,0,P|232:40|196:28,1,80,4|0,0:1|0:0,0:0:0:0:
108,80,60428,2,0,L|60:96,2,40,4|8|4,0:1|0:3|0:3,0:0:0:0:
140,220,60889,5,6,0:0:0:0:
207,140,61120,1,0,0:0:0:0:
108,176,61351,1,4,0:1:0:0:
192,240,61582,2,0,P|240:240|304:152,1,160,0|2,0:0|0:0,0:0:0:0:
360,68,62274,1,4,0:1:0:0:
456,28,62505,2,0,P|468:68|456:112,1,80,2|0,0:0|0:0,0:0:0:0:
384,172,62966,5,2,0:0:0:0:
384,172,63197,2,0,P|424:200|464:204,1,80,4|0,0:1|0:0,0:0:0:0:
442,307,63659,2,0,P|363:296|304:243,1,160,2|4,0:0|0:1,0:0:0:0:
205,244,64351,1,0,0:0:0:0:
204,244,64582,6,0,P|146:296|68:308,1,160,2|4,0:0|0:1,0:0:0:0:
57,204,65274,2,0,P|96:196|128:172,1,80,0|2,0:0|0:0,0:0:0:0:
124,68,65736,2,0,P|85:76|53:100,1,80,2|4,0:0|0:1,0:0:0:0:
127,172,66197,2,0,P|180:164|232:68,1,160,2|2,0:0|0:0,0:0:0:0:
324,28,66889,5,4,0:1:0:0:
400,100,67120,1,0,0:0:0:0:
308,152,67351,1,2,0:0:0:0:
232,78,67582,1,2,0:0:0:0:
324,28,67813,1,4,0:1:0:0:
384,184,68043,1,0,0:0:0:0:
384,184,68159,1,0,0:0:0:0:
384,184,68274,6,0,P|344:228|248:208,1,160,4|4,0:0|0:1,0:0:0:0:
164,156,68966,1,0,0:0:0:0:
164,156,69197,2,0,P|112:156|76:168,1,80,2|2,0:0|0:0,0:0:0:0:
32,256,69659,1,4,0:1:0:0:
104,332,69889,2,0,P|156:332|192:320,1,80,2|0,0:0|0:0,0:0:0:0:
256,248,70351,5,2,0:0:0:0:
256,248,70582,2,0,P|296:228|336:216,1,80,4|0,0:1|0:0,0:0:0:0:
432,212,71043,2,0,P|464:176|476:144,1,80,12|0,0:0|0:0,0:0:0:0:
440,48,71505,2,0,L|472:24,3,40,4|8|12|0,0:1|0:3|0:3|0:0,0:0:0:0:
368,109,71966,5,4,0:0:0:0:
256,192,72082,12,0,75659,0:0:0:0:
472,192,86736,6,0,P|476:116|444:40,1,160,2|2,0:0|0:0,0:0:0:0:
348,40,87428,2,0,B|280:24|272:100|197:70,1,160,0|2,0:0|0:0,0:0:0:0:
100,76,88120,1,0,0:0:0:0:
100,76,88351,1,0,0:0:0:0:
100,76,88582,6,0,P|116:128|208:168,1,160,2|2,0:0|0:0,0:0:0:0:
412,307,89505,2,0,P|379:237|305:215,1,160,8|2,0:1|0:0,0:0:0:0:
208,220,90197,1,0,0:0:0:0:
208,220,90428,6,0,P|240:290|314:312,1,160,2|2,0:0|0:0,0:0:0:0:
412,308,91120,2,0,P|456:300|484:280,1,80,0|8,0:0|0:1,0:0:0:0:
492,184,91582,2,0,P|448:192|420:212,1,80,0|2,0:0|0:0,0:0:0:0:
324,220,92043,1,0,0:0:0:0:
324,220,92274,6,0,P|368:140|432:112,1,160,2|2,0:0|0:0,0:0:0:0:
476,28,92966,1,0,0:0:0:0:
380,32,93197,2,0,P|340:48|256:132,1,160,8|2,0:1|0:0,0:0:0:0:
168,352,94120,6,0,B|128:304|60:376|8:296,1,160,6|2,0:0|0:0,0:0:0:0:
84,235,94813,2,0,P|162:226|232:263,1,160,0|2,0:0|0:0,0:0:0:0:
292,340,95505,1,0,0:0:0:0:
292,340,95736,2,0,P|372:348|448:316,1,160,0|0,0:0|0:0,0:0:0:0:
472,228,96428,6,0,P|476:184|476:144,1,80,2|0,0:0|0:0,0:0:0:0:
408,96,96889,2,0,B|368:140|408:200|368:252,1,160,8|2,0:1|0:0,0:0:0:0:
292,192,97582,2,0,P|296:132|304:104,1,80,0|2,0:0|0:0,0:0:0:0:
472,228,98274,5,2,0:0:0:0:
292,332,98736,1,8,0:1:0:0:
312,123,99197,1,2,0:0:0:0:
312,123,99428,2,0,B|239:106|155:182|75:150,1,240,0|2,0:0|0:0,0:0:0:0:
232,312,100582,5,4,0:1:0:0:
264,316,100697,1,4,0:3:0:0:
296,308,100813,1,4,0:3:0:0:
328,304,100928,1,8,0:3:0:0:
360,308,101043,2,0,P|412:320|456:308,1,80,4|0,0:0|0:0,0:0:0:0:
424,212,101505,6,0,P|384:196|344:192,1,80,4|0,0:0|0:0,0:0:0:0:
244,212,101966,2,0,P|176:204|156:188,1,80,4|0,0:1|0:0,0:0:0:0:
88,132,102428,1,0,0:0:0:0:
8,196,102659,1,2,0:0:0:0:
88,260,102889,1,4,0:1:0:0:
167,198,103120,2,0,P|196:144|156:52,1,160,2|2,0:0|0:0,0:0:0:0:
88,132,103813,5,4,0:1:0:0:
88,132,104043,2,0,B|151:118|200:141|252:128,1,160,0|2,0:0|0:0,0:0:0:0:
332,64,104736,2,0,P|372:60|412:72,1,80,4|0,0:1|0:0,0:0:0:0:
460,164,105197,5,2,0:0:0:0:
360,200,105428,1,0,0:0:0:0:
252,224,105659,2,0,P|245:185|262:150,1,80,4|0,0:1|0:0,0:0:0:0:
360,200,106120,1,2,0:0:0:0:
360,200,106351,2,0,P|367:238|350:274,1,80,2|4,0:0|0:1,0:0:0:0:
256,336,106813,2,0,P|216:324|176:324,1,80,2|0,0:0|0:0,0:0:0:0:
103,251,107274,5,2,0:0:0:0:
191,195,107505,1,4,0:1:0:0:
77,83,107736,2,0,P|145:67|233:91,1,160,0|2,0:0|0:0,0:0:0:0:
320,169,108428,1,4,0:1:0:0:
336,49,108659,1,0,0:0:0:0:
428,144,108889,6,0,P|460:164|476:204,1,80,4|0,0:0|0:0,0:0:0:0:
456,304,109351,2,0,P|424:284|408:244,1,80,4|0,0:1|0:0,0:0:0:0:
304,248,109813,2,0,P|289:284|256:305,1,80,0|2,0:0|0:0,0:0:0:0:
216,220,110274,1,4,0:1:0:0:
220,124,110505,2,0,P|256:128|296:160,1,80,2|0,0:0|0:0,0:0:0:0:
304,248,110966,5,2,0:0:0:0:
232,312,111197,1,4,0:1:0:0:
144,276,111428,2,0,P|128:220|136:184,1,80,0|2,0:0|0:0,0:0:0:0:
120,104,111889,1,2,0:0:0:0:
120,104,112120,2,0,P|60:136|44:168,1,80,4|0,0:1|0:0,0:0:0:0:
0,232,112582,1,6,0:0:0:0:
52,316,112813,5,2,0:0:0:0:
136,263,113044,1,4,0:1:0:0:
185,353,113274,2,0,P|218:332|238:297,1,80
136,263,113736,1,2,0:0:0:0:
241,206,113966,2,0,P|233:166|201:134,1,80,4|6,0:1|0:0,0:0:0:0:
112,180,114428,5,0,0:0:0:0:
56,100,114659,1,2,0:0:0:0:
152,88,114889,2,0,P|192:108|208:140,1,80,4|2,0:1|0:0,0:0:0:0:
312,129,115351,1,4,0:0:0:0:
408,172,115582,1,2,0:0:0:0:
480,96,115813,1,4,0:0:0:0:
444,72,115928,1,4,0:1:0:0:
404,68,116043,1,4,0:3:0:0:
408,172,116274,6,0,P|448:200|480:204,1,80,6|0,0:0|0:0,0:0:0:0:
484,308,116736,1,4,0:1:0:0:
484,308,116966,2,0,P|412:300|336:248,1,160,0|2,0:0|0:0,0:0:0:0:
256,188,117659,1,4,0:1:0:0:
164,136,117889,2,0,P|120:124|80:128,1,80,2|0,0:0|0:0,0:0:0:0:
12,200,118351,5,2,0:0:0:0:
28,308,118582,1,4,0:1:0:0:
28,308,118813,2,0,P|106:297|174:256,1,160,2|2,0:0|0:0,0:0:0:0:
256,188,119505,2,0,L|256:104,1,80,4|0,0:1|0:0,0:0:0:0:
332,44,119966,6,0,P|368:28|424:32,1,80,2|0,0:0|0:0,0:0:0:0:
464,116,120428,2,0,P|427:132|387:132,1,80,4|0,0:1|0:0,0:0:0:0:
340,224,120889,1,0,0:0:0:0:
387,132,121120,1,2,0:0:0:0:
280,136,121351,1,4,0:1:0:0:
240,232,121582,2,0,P|248:272|280:304,1,80,2|0,0:0|0:0,0:0:0:0:
376,316,122043,5,2,0:0:0:0:
340,224,122274,1,4,0:1:0:0:
280,136,122505,1,0,0:0:0:0:
176,148,122736,2,0,P|152:208|172:304,1,160,2|4,0:0|0:1,0:0:0:0:
256,356,123428,1,0,0:0:0:0:
304,336,123543,1,0,0:0:0:0:
342,299,123659,6,0,P|361:222|336:148,1,160,6|4,0:0|0:1,0:0:0:0:
260,76,124351,1,0,0:0:0:0:
260,76,124582,2,0,P|292:52|332:44,1,80,2|2,0:0|0:0,0:0:0:0:
248,172,125043,2,0,P|200:156|180:136,1,80,4|2,0:1|0:0,0:0:0:0:
108,56,125505,6,0,P|68:64|36:88,1,80,0|2,0:0|0:0,0:0:0:0:
32,192,125966,1,4,0:1:0:0:
32,296,126198,2,0,P|25:335|36:373,1,80,2|0,0:0|0:0,0:0:0:0:
156,242,126659,1,2,0:0:0:0:
100,328,126889,1,4,0:1:0:0:
220,324,127120,1,0,0:0:0:0:
220,324,127351,6,0,P|248:296|288:284,1,80,6|0,0:0|0:0,0:0:0:0:
388,312,127813,2,0,P|416:340|460:348,1,80,4|0,0:1|0:0,0:0:0:0:
464,244,128274,1,2,0:0:0:0:
399,162,128505,1,2,0:0:0:0:
399,162,128736,1,4,0:1:0:0:
318,227,128966,2,0,P|279:235|240:224,1,80,2|0,0:0|0:0,0:0:0:0:
148,276,129428,6,0,P|140:216|152:188,1,80,2|4,0:0|0:1,0:0:0:0:
220,124,129889,1,0,0:0:0:0:
64,136,130120,1,4,0:1:0:0:
146,198,130351,1,0,0:0:0:0:
136,60,130582,1,8,0:3:0:0:
136,60,130697,1,8,0:3:0:0:
136,60,130813,1,4,0:3:0:0:
28,28,131043,5,6,0:0:0:0:
64,136,131274,1,0,0:0:0:0:
146,198,131505,2,0,P|196:224|232:220,1,80,4|0,0:1|0:0,0:0:0:0:
292,148,131966,2,0,P|242:122|206:126,1,80,2|2,0:0|0:0,0:0:0:0:
146,198,132428,1,4,0:1:0:0:
44,228,132659,2,0,L|32:308,1,80,2|0,0:0|0:0,0:0:0:0:
188,344,133120,6,0,L|200:264,1,80,2|4,0:0|0:1,0:0:0:0:
116,280,133582,2,0,L|104:360,1,80,0|2,0:0|0:0,0:0:0:0:
268,360,134043,1,2,0:0:0:0:
280,256,134274,1,4,0:1:0:0:
352,192,134505,1,0,0:0:0:0:
400,180,134620,1,0,0:0:0:0:
448,188,134736,6,0,P|472:156|472:40,1,160,6|4,0:0|0:1,0:0:0:0:
372,72,135428,2,0,B|300:82|280:31|209:56,1,160,0|2,0:0|0:0,0:0:0:0:
116,88,136120,1,4,0:1:0:0:
44,164,136351,2,0,P|20:216|24:248,1,80,2|0,0:0|0:0,0:0:0:0:
124,256,136813,6,0,P|148:204|144:172,1,80,2|4,0:0|0:1,0:0:0:0:
60,312,137274,1,0,0:0:0:0:
60,312,137505,2,0,P|120:344|196:304,1,160,2|4,0:0|0:1,0:0:0:0:
232,208,138197,1,0,0:0:0:0:
288,120,138428,6,0,P|328:148|336:184,1,80,6|0,0:0|0:0,0:0:0:0:
380,272,138889,2,0,P|341:281|301:276,1,80,4|0,0:1|0:0,0:0:0:0:
232,208,139351,1,2,0:0:0:0:
176,116,139582,1,2,0:0:0:0:
244,36,139813,2,0,P|300:28|340:40,1,80,4|2,0:1|0:0,0:0:0:0:
420,72,140274,5,0,0:0:0:0:
420,72,140505,2,0,P|448:98|472:136,1,80,2|4,0:0|0:1,0:0:0:0:
480,252,140966,1,0,0:0:0:0:
372,200,141197,1,14,0:0:0:0:
470,132,141428,1,2,0:0:0:0:
404,280,141659,1,4,0:1:0:0:
364,284,141774,1,4,0:1:0:0:
328,272,141889,1,4,0:3:0:0:
300,240,142005,1,4,0:3:0:0:
288,204,142120,6,0,P|276:148|184:136,1,160,6|4,0:0|0:1,0:0:0:0:
188,240,142813,1,0,0:0:0:0:
180,344,143043,2,0,P|96:304|88:240,1,160,2|4,0:0|0:1,0:0:0:0:
132,152,143736,1,0,0:0:0:0:
32,176,143966,6,0,P|8:208|0:248,2,80,2|0|4,0:0|0:0|0:1,0:0:0:0:
132,152,144659,1,0,0:0:0:0:
224,104,144889,2,0,P|240:56|236:24,1,80,2|2,0:0|0:0,0:0:0:0:
136,48,145351,2,0,P|96:51|62:71,1,80,4|0,0:1|0:0,0:0:0:0:
32,176,145813,6,0,P|48:220|76:244,1,80,2|0,0:0|0:0,0:0:0:0:
171,218,146274,2,0,P|155:174|127:150,1,80,4|0,0:1|0:0,0:0:0:0:
32,176,146736,1,2,0:0:0:0:
36,284,146966,1,2,0:0:0:0:
140,320,147197,2,0,P|196:320|240:300,1,80,4|2,0:1|0:0,0:0:0:0:
384,200,147659,5,6,0:0:0:0:
183,354,148120,1,2,0:0:0:0:
257,104,148582,1,2,0:0:0:0:
332,349,149043,1,2,0:0:0:0:
180,236,149274,1,4,0:1:0:0:
152,216,149389,1,4,0:1:0:0:
128,195,149505,5,6,0:0:0:0:
183,354,149966,1,4,0:1:0:0:
182,353,150428,2,0,P|144:345|105:352,1,80,2|0,0:0|0:1,0:0:0:0:
37,286,150889,1,4,0:1:0:0:
36,188,151120,2,0,L|100:136,1,80,0|2,0:0|0:0,0:0:0:0:
196,100,151582,5,2,0:0:0:0:
104,48,151813,2,0,P|64:56|32:80,1,80,4|0,0:1|0:0,0:0:0:0:
36,188,152274,1,2,0:0:0:0:
116,256,152505,2,0,L|152:272,2,40,2|0|4,0:0|0:0|0:1,0:0:0:0:
36,320,152966,1,0,0:0:0:0:
136,356,153197,6,0,P|208:348|240:272,1,160,2|4,0:0|0:1,0:0:0:0:
308,176,153889,1,0,0:0:0:0:
308,176,154120,2,0,P|336:148|372:132,1,80,2|2,0:0|0:0,0:0:0:0:
476,268,154582,2,0,P|448:296|412:312,1,80,4|0,0:1|0:0,0:0:0:0:
304,280,155043,6,0,P|240:252|152:260,1,160,2|4,0:0|0:1,0:0:0:0:
44,292,155736,1,2,0:0:0:0:
56,180,155966,2,0,P|96:172|124:140,1,80,4|2,0:1|0:0,0:0:0:0:
216,84,156428,2,0,L|256:80,3,40,4|4|4|4,0:1|0:1|0:3|0:3,0:0:0:0:
353,70,156889,5,0,0:0:0:0:
256,192,157005,12,2,160582,0:0:0:0:
256,192,169813,12,0,171659,0:0:0:0:
254,24,172582,5,0,0:0:0:0:
260,192,173043,1,0,0:0:0:0:
260,192,173274,2,0,B|212:180|148:248|80:208,1,180.000006866455,0|0,0:0|0:0,0:0:0:0:
18,283,174197,1,0,0:0:0:0:
18,283,174428,2,0,P|72:306|132:302,1,120.000004577637
224,296,175120,1,0,0:0:0:0:
224,296,175351,6,0,P|280:272|340:272,1,120.000004577637,0|0,0:0|0:0,0:0:0:0:
428,284,176043,2,0,B|436:244|388:216|412:168,1,120.000004577637
368,92,176736,1,0,0:0:0:0:
368,92,176966,2,0,P|425:80|480:112,1,120.000004577637,0|0,0:0|0:0,0:0:0:0:
411,169,177659,5,0,0:0:0:0:
320,168,177889,2,0,P|292:140|284:116,1,60.0000022888184,0|0,0:0|0:0,0:0:0:0:
272,32,178351,2,0,P|236:44|216:64,1,60.0000022888184,0|0,0:0|0:0,0:0:0:0:
120,124,178813,1,0,0:0:0:0:
120,124,179043,6,0,P|60:120|12:152,1,120.000004577637,0|0,0:0|0:0,0:0:0:0:
20,244,179736,1,0,0:0:0:0:
20,244,179966,2,0,L|80:352,1,120.000004577637,0|0,0:0|0:0,0:0:0:0:
160,312,180659,2,0,P|216:288|276:288,1,120.000004577637,0|0,0:0|0:0,0:0:0:0:
356,328,181351,5,0,0:0:0:0:
444,340,181582,2,0,P|436:288|424:272,1,60.0000022888184,0|0,0:0|0:0,0:0:0:0:
256,120,182274,2,0,L|256:56,1,60.0000022888184,0|0,0:0|0:0,0:0:0:0:
168,36,182736,6,0,B|88:44|116:144|40:152,1,180.000006866455,0|0,0:0|0:0,0:0:0:0:
36,240,183659,1,0,0:0:0:0:
36,239,183889,2,0,P|65:233|93:223,1,60.0000022888184
147,166,184351,2,0,P|175:156|204:149,1,60.0000022888184
264,208,184813,2,0,P|273:236|280:265,1,60.0000022888184
344,168,185274,5,2,0:0:0:0:
264,208,185505,1,4,0:1:0:0:
204,149,185736,1,2,0:0:0:0:
292,92,185966,1,4,0:1:0:0:
336,80,186082,1,4,0:1:0:0:
380,88,186197,1,4,0:3:0:0:
416,116,186313,1,4,0:3:0:0:
427,160,186428,6,0,P|436:236|501:279,1,160,6|4,0:0|0:1,0:0:0:0:
462,376,187120,1,0,0:0:0:0:
372,324,187351,1,2,0:0:0:0:
316,236,187582,2,0,P|244:248|216:268,1,80,2|4,0:0|0:1,0:0:0:0:
144,296,188043,2,0,P|172:336|204:352,1,80,2|0,0:0|0:0,0:0:0:0:
238,250,188505,5,2,0:0:0:0:
144,296,188736,1,4,0:1:0:0:
40,275,188967,2,0,P|83:210|160:196,1,160,2|2,0:0|0:0,0:0:0:0:
238,250,189659,1,4,0:1:0:0:
260,148,189889,1,0,0:0:0:0:
260,148,190120,6,0,P|232:104|192:92,1,80,6|0,0:0|0:0,0:0:0:0:
80,96,190582,2,0,P|64:132|64:172,1,80,4|0,0:1|0:0,0:0:0:0:
68,296,191043,2,0,P|107:294|144:278,1,80,2|2,0:0|0:0,0:0:0:0:
220,206,191505,1,4,0:1:0:0:
321,225,191736,2,0,P|303:260|275:288,1,80,2|0,0:0|0:0,0:0:0:0:
144,278,192197,5,2,0:0:0:0:
88,192,192428,1,4,0:1:0:0:
104,92,192659,2,0,P|144:68|184:64,1,80,0|2,0:0|0:0,0:0:0:0:
272,100,193120,2,0,P|311:93|344:71,1,80,2|4,0:0|0:1,0:0:0:0:
444,36,193582,1,0,0:0:0:0:
460,140,193813,6,0,L|408:204,1,80,6|0,0:0|0:0,0:0:0:0:
428,304,194274,2,0,L|480:240,1,80,4|0,0:1|0:0,0:0:0:0:
356,144,194736,2,0,L|304:208,1,80,2|2,0:0|0:0,0:0:0:0:
284,308,195197,2,0,L|240:336,1,40,4|0,0:1|0:0,0:0:0:0:
204,352,195428,2,0,B|152:324|100:372|44:344,1,160,2|2,0:0|0:0,0:0:0:0:
32,244,196120,5,4,0:1:0:0:
136,228,196351,2,0,P|180:224|224:236,1,80,2|8,0:0|0:3,0:0:0:0:
228,236,196697,1,8,0:3:0:0:
244,236,196813,1,4,0:3:0:0:
260,232,196928,1,4,0:3:0:0:
276,224,197043,2,0,L|324:216,3,40,8|8|4|4,0:3|0:3|0:3|0:3,0:0:0:0:
336,196,197505,5,6,0:0:0:0:
432,276,197736,2,0,P|388:312|352:324,1,80,0|4,0:0|0:1,0:0:0:0:
264,340,198197,2,0,P|200:312|112:312,1,160,0|2,0:0|0:0,0:0:0:0:
24,252,198889,2,0,P|56:220|96:208,1,80,4|2,0:1|0:0,0:0:0:0:
157,131,199351,6,0,P|183:161|192:200,1,80,0|2,0:0|0:0,0:0:0:0:
88,208,199813,1,4,0:1:0:0:
152,44,200043,2,0,P|225:72|267:138,1,160,2|2,0:0|0:0,0:0:0:0:
191,199,200735,1,4,0:1:0:0:
376,192,200966,1,0,0:0:0:0:
376,192,201197,6,0,P|432:184|456:168,1,80,2|2,0:0|0:0,0:0:0:0:
451,67,201659,1,4,0:1:0:0:
358,51,201889,2,0,P|322:33|282:30,1,80,0|2,0:0|0:0,0:0:0:0:
300,120,202351,2,0,P|272:168|272:208,1,80,2|4,0:0|0:1,0:0:0:0:
320,284,202813,2,0,P|372:300|412:292,1,80,2|0,0:0|0:0,0:0:0:0:
376,192,203274,5,2,0:0:0:0:
244,264,203505,2,0,P|244:304|272:348,2,80,4|0|2,0:1|0:0|0:0,0:0:0:0:
160,184,204197,1,2,0:0:0:0:
48,216,204428,1,4,0:1:0:0:
136,292,204659,1,0,0:0:0:0:
136,292,204774,1,0,0:0:0:0:
136,292,204889,6,0,P|152:332|184:360,1,80,6|0,0:0|0:0,0:0:0:0:
333,356,205351,2,0,P|361:329|376:292,1,80,4|0,0:1|0:0,0:0:0:0:
356,192,205813,1,2,0:0:0:0:
356,192,206043,2,0,P|324:164|316:128,1,80,2|4,0:0|0:1,0:0:0:0:
408,76,206505,2,0,P|438:101|448:139,1,80,2|0,0:0|0:0,0:0:0:0:
447,244,206966,6,0,P|386:291|309:279,1,160,2|2,0:0|0:0,0:0:0:0:
256,188,207658,1,2,0:0:0:0:
256,188,207889,1,2,0:0:0:0:
164,140,208120,2,0,P|120:132|80:140,1,80,4|2,0:1|0:0,0:0:0:0:
64,244,208582,6,0,P|125:291|202:279,1,160,6|4,0:0|0:1,0:0:0:0:
256,188,209274,1,0,0:0:0:0:
323,109,209505,1,2,0:0:0:0:
417,152,209736,2,0,P|452:134|491:132,1,80,2|4,0:0|0:1,0:0:0:0:
480,236,210197,2,0,L|468:324,1,80,2|0,0:0|0:0,0:0:0:0:
372,352,210659,6,0,L|384:264,1,80,2|4,0:0|0:1,0:0:0:0:
316,172,211120,1,0,0:0:0:0:
200,136,211351,1,4,0:1:0:0:
232,252,211582,1,0,0:0:0:0:
316,132,211813,2,0,L|316:172,3,40,8|4|4|4,0:3|0:3|0:3|0:3,0:0:0:0:
280,60,212274,6,0,P|244:40|196:32,1,80,6|0,0:0|0:0,0:0:0:0:
104,56,212736,1,4,0:1:0:0:
104,56,212966,2,0,P|72:84|56:124,1,80,0|2,0:0|0:0,0:0:0:0:
108,208,213428,2,0,P|140:180|156:140,1,80,2|4,0:0|0:1,0:0:0:0:
57,117,213889,1,2,0:0:0:0:
8,212,214120,5,0,0:0:0:0:
68,300,214351,1,2,0:0:0:0:
172,280,214582,2,0,P|200:244|200:200,1,80,4|0,0:1|0:0,0:0:0:0:
156,112,215043,2,0,P|200:76|244:80,1,80,2|2,0:0|0:0,0:0:0:0:
324,100,215505,2,0,P|368:96|404:84,1,80,4|2,0:1|0:0,0:0:0:0:
448,88,215851,1,0,0:0:0:0:
448,88,215966,6,0,B|468:128|448:136|460:168,1,80,6|0,0:0|0:0,0:0:0:0:
472,272,216428,2,0,P|416:308|324:308,1,160,4|2,0:1|0:0,0:0:0:0:
228,272,217120,2,0,P|248:236|288:216,1,80,2|4,0:0|0:1,0:0:0:0:
324,308,217582,1,2,0:0:0:0:
236,360,217813,6,0,P|176:348|160:328,1,80,0|2,0:0|0:0,0:0:0:0:
140,236,218274,1,4,0:1:0:0:
148,132,218505,1,0,0:0:0:0:
148,132,218736,2,0,P|64:160|32:224,1,160,2|4,0:0|0:1,0:0:0:0:
140,236,219428,1,2,0:0:0:0:
140,236,219543,1,0,0:0:0:0:
140,236,219659,6,0,P|192:232|228:196,1,80,6|0,0:0|0:0,0:0:0:0:
252,120,220120,2,0,P|288:96|328:92,1,80,4|0,0:1|0:0,0:0:0:0:
324,196,220582,1,2,0:0:0:0:
324,196,220813,2,0,L|356:280,1,80,2|4,0:0|0:1,0:0:0:0:
248,276,221274,2,0,L|280:360,1,80,2|0,0:0|0:0,0:0:0:0:
172,352,221736,5,2,0:0:0:0:
116,264,221966,2,0,P|144:216|176:204,1,80,4|2,0:1|0:0,0:0:0:0:
248,164,222428,2,0,P|260:124|264:84,1,80,6|0,0:0|0:0,0:0:0:0:
236,60,222774,1,0,0:0:0:0:
236,60,222889,2,0,L|198:45,3,40,8|4|4|0,0:3|0:3|0:3|0:0,0:0:0:0:
339,109,223351,5,6,0:0:0:0:
256,192,223466,12,2,227043,0:0:0:0:
256,367,230736,5,6,0:0:0:0:
256,192,231197,1,10,0:0:0:0:
256,192,231428,1,0,0:0:0:0:
256,192,231659,2,0,L|216:120,1,80,2|0,0:0|0:0,0:0:0:0:
132,60,232120,2,0,P|72:64|48:76,1,80,10|0,0:0|0:0,0:0:0:0:
108,164,232582,6,0,B|172:180|136:256|216:284,1,160,2|10,0:0|0:0,0:0:0:0:
312,280,233274,1,0,0:0:0:0:
312,280,233505,2,0,P|356:264|392:232,1,80,2|0,0:0|0:0,0:0:0:0:
326,155,233966,2,0,P|282:171|246:203,1,80,10|0,0:0|0:0,0:0:0:0:
385,246,234428,1,2,0:0:0:0:
256,36,234889,5,10,0:0:0:0:
256,36,235351,2,0,P|192:56|96:40,1,160,2|10,0:0|0:0,0:0:0:0:
32,120,236043,2,0,L|16:204,1,80,0|2,0:0|0:0,0:0:0:0:
115,277,236505,2,0,L|100:198,1,80,0|10,0:0|0:0,0:0:0:0:
28,276,236966,1,0,0:0:0:0:
176,332,237198,1,2,0:0:0:0:
101,199,237429,1,0,0:0:0:0:
28,276,237659,1,10,0:0:0:0:
204,232,237890,2,0,P|241:251|270:295,1,80,0|2,0:0|0:0,0:0:0:0:
256,192,238236,12,0,239966,0:0:0:0:
