osu file format v14

[General]
AudioFilename: quantum jump .mp3
AudioLeadIn: 0
PreviewTime: 171197
Countdown: 0
SampleSet: Soft
StackLeniency: 0.7
Mode: 0
LetterboxInBreaks: 0
EpilepsyWarning: 1
WidescreenStoryboard: 0

[Editor]
DistanceSpacing: 1
BeatDivisor: 4
GridSize: 32
TimelineZoom: 1.499999

[Metadata]
Title:quantum jump
TitleUnicode:quantum jump
Artist:Marika
ArtistUnicode:真里歌
Creator:Shurelia
Version:Insane
Source:フレラバ ~Friend to Lover~
Tags:Eroge Opening Visual Novel smee fureraba kanari xXCrystalMoonAnimeXx El Solarbeam Nardoxyribonucleic
BeatmapID:1618565
BeatmapSetID:183467

[Difficulty]
HPDrainRate:6.5
CircleSize:4
OverallDifficulty:7
ApproachRate:8.3
SliderMultiplier:2
SliderTickRate:2

[Events]
//Background and Video events
0,0,"newfurerababg.jpg",0,0
//Break Periods
2,74705,85986
2,171859,181986
Sprite,Background,Centre,"newfurerababg.jpg",320,240
//Storyboard Layer 0 (Background)
//Storyboard Layer 1 (Fail)
//Storyboard Layer 2 (Pass)
//Storyboard Layer 3 (Foreground)
//Storyboard Sound Samples

[TimingPoints]
1813,461.538461538462,4,2,1,47,1,0
16582,-111.111111111111,4,2,1,32,0,0
23851,-111.111111111111,4,2,1,5,0,0
23966,-111.111111111111,4,2,1,32,0,0
30889,-100,4,2,2,42,0,0
31236,-100,4,2,2,5,0,0
31351,-100,4,2,1,52,0,0
46120,-83.3333333333333,4,2,1,57,0,1
60774,-83.3333333333333,4,2,1,57,0,0
60889,-83.3333333333333,4,2,1,57,0,1
72082,-100,4,2,1,12,0,0
74736,-100,4,2,1,45,0,0
86736,-111.111111111111,4,2,1,32,0,0
94005,-111.111111111111,4,2,1,5,0,0
94120,-111.111111111111,4,2,1,32,0,0
101043,-125,4,2,1,42,0,0
101389,-100,4,2,1,5,0,0
101505,-100,4,2,1,52,0,0
116274,-83.3333333333333,4,2,1,57,0,1
130928,-83.3333333333333,4,2,1,57,0,0
131043,-83.3333333333333,4,2,1,57,0,1
142005,-83.3333333333333,4,2,1,57,0,0
142120,-83.3333333333333,4,2,1,57,0,1
147543,-83.3333333333333,4,2,1,57,0,0
147659,-83.3333333333333,4,2,1,57,0,1
147774,-83.3333333333333,4,2,1,5,0,0
148120,-83.3333333333333,4,2,1,57,0,1
148236,-83.3333333333333,4,2,1,57,0,0
148466,-83.3333333333333,4,2,1,5,0,0
148582,-83.3333333333333,4,2,1,57,0,1
148697,-83.3333333333333,4,2,1,57,0,0
148928,-83.3333333333333,4,2,1,5,0,0
149043,-83.3333333333333,4,2,1,57,0,1
149159,-83.3333333333333,4,2,1,57,0,0
149505,-83.3333333333333,4,2,1,57,0,1
156889,-90.9090909090909,4,2,1,57,0,0
169813,-100,4,2,1,25,0,0
171428,-200,4,2,1,25,0,0
185274,-83.3333333333333,4,2,1,69,0,0
186428,-83.3333333333333,4,2,1,57,0,1
197389,-83.3333333333333,4,2,1,57,0,0
197505,-83.3333333333333,4,2,1,57,0,1
212159,-100,4,2,1,57,0,0
212274,-83.3333333333333,4,2,1,57,0,1
223351,-100,4,2,1,47,0,0
238236,-100,4,2,1,10,0,0

[Colours]
Combo1 : 236,211,182
Combo2 : 226,146,133
Combo3 : 202,50,82
Combo4 : 98,108,181

[HitObjects]
483,276,1813,6,0,P|437:293|388:288,1,100,6|0,0:0|0:0,0:0:0:0:
249,109,2274,2,0,P|244:158|262:205,1,100,10|0,0:0|0:0,0:0:0:0:
387,287,2736,1,2,0:0:0:0:
398,138,2966,1,0,0:0:0:0:
302,281,3197,1,10,0:0:0:0:
152,102,3428,6,0,P|201:95|249:109,1,100,0|2,0:0|0:0,0:0:0:0:
302,281,3889,2,0,P|252:287|204:273,1,100,0|10,0:0|0:0,0:0:0:0:
61,208,4351,1,0,0:0:0:0:
176,66,4582,1,2,0:0:0:0:
198,185,4813,1,0,0:0:0:0:
81,105,5043,1,10,0:0:0:0:
113,281,5274,1,0,0:0:0:0:
249,109,5505,6,0,P|298:102|346:116,1,100,2|0,0:0|0:0,0:0:0:0:
441,321,5966,2,0,P|455:273|449:224,1,100,10|0,0:0|0:0,0:0:0:0:
434,57,6428,1,2,0:0:0:0:
370,201,6659,1,0,0:0:0:0:
497,163,6889,1,10,0:0:0:0:
441,321,7120,6,0,P|391:327|343:313,1,100,0|2,0:0|0:0,0:0:0:0:
248,108,7582,2,0,P|297:101|345:115,1,100,0|10,0:0|0:0,0:0:0:0:
497,163,8043,1,0,0:0:0:0:
377,292,8274,1,2,0:0:0:0:
412,164,8505,1,0,0:0:0:0:
491,282,8736,1,10,0:0:0:0:
324,194,8966,1,0,0:0:0:0:
393,18,9197,6,0,L|493:13,1,100,6|0,0:0|0:0,0:0:0:0:
249,109,9659,2,0,L|149:104,1,100,10|0,0:0|0:0,0:0:0:0:
7,49,10120,1,2,0:0:0:0:
23,197,10351,1,0,0:0:0:0:
102,13,10582,1,10,0:0:0:0:
204,186,10813,6,0,L|304:181,1,100,0|2,0:0|0:0,0:0:0:0:
122,318,11274,2,0,L|22:323,1,100,0|10,0:0|0:0,0:0:0:0:
23,197,11736,1,0,0:0:0:0:
209,286,11966,1,2,0:0:0:0:
109,150,12197,1,0,0:0:0:0:
194,366,12428,1,10,0:0:0:0:
210,148,12659,1,0,0:0:0:0:
345,311,12889,6,0,P|349:262|335:214,1,100,2|0,0:0|0:0,0:0:0:0:
200,51,13351,2,0,P|195:100|209:147,1,100,10|0,0:0|0:0,0:0:0:0:
393,257,13813,1,2,0:0:0:0:
312,121,14043,1,0,0:0:0:0:
317,330,14274,1,10,0:0:0:0:
209,147,14505,6,0,P|195:100|200:51,1,100,0|2,0:0|0:0,0:0:0:0:
309,233,14966,2,0,P|323:280|318:329,1,100,0|10,0:0|0:0,0:0:0:0:
172,361,15428,1,0,0:0:0:0:
212,189,15659,1,2,0:0:0:0:
247,348,15889,1,0,0:0:0:0:
139,270,16120,1,10,0:0:0:0:
366,275,16351,1,0,0:0:0:0:
512,66,16582,6,0,L|423:82,1,89.9999972534181,6|0,0:0|0:0,0:0:0:0:
325,165,17043,2,0,L|413:181,1,89.9999972534181,2|0,0:0|0:0,0:0:0:0:
315,54,17505,2,0,L|141:103,1,179.999994506836,8|2,0:1|0:0,0:0:0:0:
42,144,18197,1,0,0:0:0:0:
188,191,18428,6,0,P|196:235|184:278,1,89.9999972534181,2|0,0:0|0:0,0:0:0:0:
42,144,18889,2,0,P|30:187|37:232,1,89.9999972534181,2|0,0:0|0:0,0:0:0:0:
144,71,19351,2,0,P|232:66|301:121,1,179.999994506836,8|0,0:1|0:0,0:0:0:0:
363,210,20043,1,0,0:0:0:0:
213,363,20274,6,0,P|168:362|127:344,1,89.9999972534181,2|0,0:0|0:0,0:0:0:0:
340,300,20736,2,0,P|299:282|254:281,1,89.9999972534181,2|0,0:0|0:0,0:0:0:0:
424,383,21197,2,0,P|416:295|452:213,1,179.999994506836,8|2,0:1|0:0,0:0:0:0:
397,120,21889,1,0,0:0:0:0:
256,130,22120,6,0,P|258:86|275:44,1,89.9999972534181,2|0,0:0|0:0,0:0:0:0:
204,198,22582,2,0,P|179:160|169:116,1,89.9999972534181,2|0,0:0|0:0,0:0:0:0:
205,287,23043,2,0,P|163:270|130:239,1,89.9999972534181,8|0,0:1|0:0,0:0:0:0:
271,357,23505,2,0,P|206:375|142:357,1,134.999995880127,2|0,0:0|0:0,0:0:0:0:
54,274,23966,6,0,P|49:229|63:187,1,89.9999972534181,6|0,0:0|0:0,0:0:0:0:
214,111,24428,2,0,P|218:155|204:197,1,89.9999972534181,2|0,0:0|0:0,0:0:0:0:
169,39,24889,2,0,P|256:42|301:115,1,179.999994506836,8|2,0:1|0:0,0:0:0:0:
299,223,25582,1,0,0:0:0:0:
126,156,25813,6,0,P|87:136|64:98,1,89.9999972534181,2|0,0:0|0:0,0:0:0:0:
155,237,26274,2,0,P|110:242|70:224,1,89.9999972534181,2|0,0:0|0:0,0:0:0:0:
224,283,26736,2,0,P|150:333|61:335,1,179.999994506836,8|2,0:1|0:0,0:0:0:0:
70,224,27428,1,0,0:0:0:0:
224,283,27659,6,0,P|268:279|310:294,1,89.9999972534181,2|0,0:0|0:0,0:0:0:0:
424,384,28120,2,0,P|379:387|337:372,1,89.9999972534181,2|0,0:0|0:0,0:0:0:0:
336,213,28582,2,0,P|423:217|477:285,1,179.999994506836,8|2,0:1|0:0,0:0:0:0:
337,372,29274,1,0,0:0:0:0:
336,213,29505,6,0,L|346:123,1,89.9999972534181,2|0,0:0|0:0,0:0:0:0:
204,0,29966,2,0,L|215:90,1,89.9999972534181,2|0,0:0|0:0,0:0:0:0:
94,215,30428,2,0,L|84:126,1,89.9999972534181,8|0,0:1|0:0,0:0:0:0:
270,40,30889,6,0,B|300:46|323:36|323:36|365:56|365:56|392:44|412:41,1,150,12|0,0:0|0:0,0:0:0:0:
270,40,31351,6,0,P|223:28|173:35,1,100,4|0,0:0|0:0,0:0:0:0:
51,126,31813,1,4,0:1:0:0:
216,200,32043,2,0,P|229:152|215:104,1,100
51,126,32505,1,2,0:0:0:0:
31,274,32736,1,4,0:1:0:0:
216,200,32966,6,0,B|278:178|345:258|408:213,1,200,2|2,0:0|0:0,0:0:0:0:
479,115,33659,1,4,0:1:0:0:
392,307,33889,2,0,P|342:307|295:291,1,100,0|2,0:0|0:0,0:0:0:0:
216,200,34351,1,2,0:0:0:0:
148,372,34582,2,0,P|197:374|243:356,1,100,4|0,0:1|0:0,0:0:0:0:
37,324,35043,6,0,P|33:274|51:228,1,100,2|0,0:0|0:0,0:0:0:0:
86,113,35505,1,4,0:1:0:0:
189,282,35736,2,0,P|193:232|175:186,1,100
131,348,36197,2,0,P|174:370|223:365,1,100,2|4,0:0|0:1,0:0:0:0:
398,205,36659,2,0,P|354:182|305:187,1,100
218,270,37120,1,2,0:0:0:0:
414,229,37351,1,4,0:1:0:0:
278,351,37582,6,0,B|204:382|148:338|113:361|113:361|134:337,1,200,2|2,0:0|0:0,0:0:0:0:
218,270,38274,1,4,0:1:0:0:
66,63,38505,2,0,P|43:56|18:50,1,50
111,131,38736,6,0,P|159:144|208:145,1,100,6|0,0:0|0:0,0:0:0:0:
317,46,39197,1,4,0:1:0:0:
402,222,39428,2,0,P|413:174|414:124,1,100
302,168,39889,1,2,0:0:0:0:
198,62,40120,1,4,0:1:0:0:
87,284,40351,6,0,B|142:333|230:264|277:310,1,200,2|2,0:0|0:0,0:0:0:0:
387,358,41043,1,4,0:1:0:0:
279,223,41274,2,0,P|269:174|280:126,1,100,0|2,0:0|0:0,0:0:0:0:
335,18,41736,1,2,0:0:0:0:
204,91,41966,1,4,0:1:0:0:
279,223,42197,1,0,0:0:0:0:
432,30,42428,6,0,P|384:15|334:18,1,100,6|0,0:0|0:0,0:0:0:0:
204,91,42889,1,4,0:1:0:0:
310,249,43120,2,0,P|325:201|322:151,1,100,0|2,0:0|0:0,0:0:0:0:
250,20,43582,1,2,0:0:0:0:
116,87,43813,1,4,0:1:0:0:
310,249,44043,6,0,P|397:265|409:177,1,200,6|0,0:0|0:0,0:0:0:0:
506,192,44736,2,0,L|406:175,1,100,4|0,0:1|0:0,0:0:0:0:
241,201,45197,1,6,0:0:0:0:
403,285,45428,1,2,0:0:0:0:
450,109,45659,1,4,0:1:0:0:
400,98,45774,1,4,0:1:0:0:
351,104,45889,1,4,0:3:0:0:
305,124,46005,1,4,0:3:0:0:
241,201,46120,6,0,P|182:207|127:186,1,119.999996337891,4|0,0:0|0:0,0:0:0:0:
28,69,46582,1,4,0:1:0:0:
210,0,46813,2,0,P|216:59|195:114,1,119.999996337891,0|2,0:0|0:0,0:0:0:0:
90,215,47274,1,2,0:0:0:0:
28,69,47505,1,4,0:1:0:0:
201,211,47736,6,0,P|258:228|318:230,1,119.999996337891,2|0,0:0|0:0,0:0:0:0:
152,302,48197,2,0,P|94:318|34:320,1,119.999996337891,2|4,0:0|0:1,0:0:0:0:
201,182,48659,2,0,P|258:198|318:200,1,119.999996337891,0|2,0:0|0:0,0:0:0:0:
459,171,49120,1,2,0:0:0:0:
368,58,49351,1,4,0:1:0:0:
403,268,49582,1,0,0:0:0:0:
201,182,49813,6,0,P|143:165|83:163,1,119.999996337891,2|2,0:0|0:0,0:0:0:0:
0,281,50274,1,4,0:1:0:0:
257,252,50505,2,0,P|286:197|276:139,1,119.999996337891,0|2,0:0|0:0,0:0:0:0:
160,50,50966,1,2,0:0:0:0:
76,167,51197,1,4,0:1:0:0:
263,37,51428,6,0,P|320:51|367:89,1,119.999996337891,2|0,0:0|0:0,0:0:0:0:
444,211,51889,1,2,0:0:0:0:
507,81,52120,1,4,0:1:0:0:
310,206,52351,2,0,P|298:264|309:322,1,119.999996337891,0|2,0:0|0:0,0:0:0:0:
449,360,52813,1,2,0:0:0:0:
444,211,53043,1,4,0:1:0:0:
309,322,53274,2,0,P|298:293|298:263,1,59.9999981689454
243,370,53505,6,0,P|184:377|127:361,1,119.999996337891,6|0,0:0|0:0,0:0:0:0:
34,249,53966,1,4,0:1:0:0:
200,179,54197,2,0,P|207:238|191:295,1,119.999996337891,0|2,0:0|0:0,0:0:0:0:
101,181,54659,1,2,0:0:0:0:
267,100,54889,1,4,0:1:0:0:
484,340,55120,6,0,P|494:281|476:224,1,119.999996337891,2|0,0:0|0:0,0:0:0:0:
411,99,55582,1,2,0:0:0:0:
337,225,55813,1,4,0:1:0:0:
135,156,56043,2,0,P|124:97|142:40,1,119.999996337891,0|2,0:0|0:0,0:0:0:0:
267,100,56505,1,2,0:0:0:0:
150,233,56736,1,4,0:1:0:0:
238,0,56966,1,0,0:0:0:0:
409,209,57197,6,0,P|428:265|416:323,1,119.999996337891,6|0,0:0|0:0,0:0:0:0:
158,347,57659,2,0,P|138:290|150:232,1,119.999996337891,4|0,0:1|0:0,0:0:0:0:
280,173,58120,1,2,0:0:0:0:
416,324,58351,1,2,0:0:0:0:
221,284,58582,1,4,0:1:0:0:
408,77,58813,6,0,P|354:52|295:50,1,119.999996337891,2|0,0:0|0:0,0:0:0:0:
226,177,59274,1,2,0:0:0:0:
416,324,59505,2,0,P|447:241|429:154,1,179.999994506836,4|0,0:1|0:0,0:0:0:0:
352,129,59966,2,0,P|293:138|235:126,1,119.999996337891,4|0,0:1|0:0,0:0:0:0:
45,102,60428,5,8,0:3:0:0:
20,156,60543,1,8,0:3:0:0:
20,216,60659,1,4,0:3:0:0:
45,270,60774,1,4,0:3:0:0:
105,328,60889,6,0,P|162:342|221:331,1,119.999996337891,6|0,0:0|0:0,0:0:0:0:
335,241,61351,1,4,0:1:0:0:
221,153,61582,2,0,P|163:138|104:149,1,119.999996337891,0|2,0:0|0:0,0:0:0:0:
0,241,62043,1,2,0:0:0:0:
105,328,62274,1,4,0:1:0:0:
221,153,62505,6,0,P|242:98|236:39,1,119.999996337891,2|0,0:0|0:0,0:0:0:0:
95,10,62966,1,2,0:0:0:0:
84,164,63197,1,4,0:1:0:0:
235,38,63428,2,0,P|294:38|351:55,1,119.999996337891,0|2,0:0|0:0,0:0:0:0:
465,145,63889,1,2,0:0:0:0:
271,177,64120,1,4,0:1:0:0:
463,36,64351,1,0,0:0:0:0:
393,278,64582,6,0,L|274:294,1,119.999996337891,2|0,0:0|0:0,0:0:0:0:
134,331,65043,1,4,0:1:0:0:
64,204,65274,2,0,L|183:220,1,119.999996337891,0|2,0:0|0:0,0:0:0:0:
302,302,65736,1,2,0:0:0:0:
315,159,65966,1,4,0:1:0:0:
125,271,66197,6,0,P|111:214|134:160,1,119.999996337891,2|0,0:0|0:0,0:0:0:0:
378,109,66659,2,0,P|392:166|369:220,1,119.999996337891,2|4,0:0|0:1,0:0:0:0:
324,34,67120,2,0,P|381:19|435:42,1,119.999996337891,0|2,0:0|0:0,0:0:0:0:
495,174,67582,1,2,0:0:0:0:
369,244,67813,1,4,0:1:0:0:
324,34,68043,2,0,P|352:24|382:20,1,59.9999981689454
243,83,68274,6,0,P|186:69|128:82,1,119.999996337891,4|0,0:0|0:0,0:0:0:0:
19,177,68736,1,4,0:1:0:0:
106,290,68966,2,0,P|163:304|221:291,1,119.999996337891,0|2,0:0|0:0,0:0:0:0:
353,232,69428,1,2,0:0:0:0:
215,188,69659,1,4,0:1:0:0:
474,298,69889,6,0,P|488:240|474:182,1,119.999996337891,2|0,0:0|0:0,0:0:0:0:
359,94,70351,1,2,0:0:0:0:
239,313,70582,1,4,0:1:0:0:
353,232,70813,1,0,0:0:0:0:
129,85,71043,6,0,P|81:158|87:246,1,179.999994506836,12|2,0:0|0:0,0:0:0:0:
30,313,71505,5,4,0:1:0:0:
85,329,71620,1,8,0:3:0:0:
144,319,71735,1,12,0:3:0:0:
196,288,71851,1,12,0:3:0:0:
256,192,71966,5,4,0:0:0:0:
256,192,72082,12,0,74505,0:0:0:0:
146,93,86736,6,0,P|190:101|226:126,1,89.9999972534181,6|0,0:0|0:0,0:0:0:0:
324,240,87197,2,0,P|327:195|311:153,1,89.9999972534181,2|0,0:0|0:0,0:0:0:0:
156,181,87659,2,0,B|143:247|231:291|223:343,1,179.999994506836,8|2,0:1|0:0,0:0:0:0:
329,337,88351,1,0,0:0:0:0:
128,364,88582,6,0,P|83:369|40:361,1,89.9999972534181,2|0,0:0|0:0,0:0:0:0:
68,178,89043,2,0,P|112:172|156:181,1,89.9999972534181,2|0,0:0|0:0,0:0:0:0:
328,337,89505,2,0,P|365:257|339:173,1,179.999994506836,8|2,0:1|0:0,0:0:0:0:
266,92,90197,1,0,0:0:0:0:
68,178,90428,6,0,P|70:222|88:263,1,89.9999972534181,2|0,0:0|0:0,0:0:0:0:
212,322,90889,2,0,P|209:277|191:236,1,89.9999972534181,2|0,0:0|0:0,0:0:0:0:
7,107,91351,2,0,P|83:152|171:142,1,179.999994506836,8|2,0:1|0:0,0:0:0:0:
266,92,92043,1,0,0:0:0:0:
141,0,92274,6,0,P|113:36|103:79,1,89.9999972534181,2|0,0:0|0:0,0:0:0:0:
134,221,92736,2,0,P|160:185|171:141,1,89.9999972534181,2|0,0:0|0:0,0:0:0:0:
55,275,93197,2,0,P|92:301|136:311,1,89.9999972534181,8|0,0:1|0:0,0:0:0:0:
224,241,93659,2,0,B|272:227|319:262|357:243,1,134.999995880127,2|0,0:0|0:0,0:0:0:0:
459,315,94120,6,0,L|450:225,1,89.9999972534181,6|0,0:0|0:0,0:0:0:0:
380,83,94582,2,0,L|389:173,1,89.9999972534181,2|0,0:0|0:0,0:0:0:0:
511,5,95043,2,0,B|462:-14|393:30|333:0,1,179.999994506836,8|2,0:1|0:0,0:0:0:0:
226,1,95735,1,0,0:0:0:0:
151,155,95966,6,0,P|136:113|141:68,1,89.9999972534181,2|0,0:0|0:0,0:0:0:0:
300,92,96428,2,0,P|315:133|311:177,1,89.9999972534181,2|0,0:0|0:0,0:0:0:0:
184,325,96889,2,0,P|146:245|151:157,1,179.999994506836,8|2,0:1|0:0,0:0:0:0:
244,100,97581,1,0,0:0:0:0:
58,184,97813,6,0,P|50:140|62:97,1,89.9999972534181,2|0,0:0|0:0,0:0:0:0:
244,100,98274,2,0,P|250:144|240:188,1,89.9999972534181,2|0,0:0|0:0,0:0:0:0:
155,25,98736,2,0,P|242:3|327:29,1,179.999994506836,8|2,0:1|0:0,0:0:0:0:
420,73,99428,1,0,0:0:0:0:
496,197,99659,6,0,L|508:287,1,89.9999972534181,2|0,0:0|0:0,0:0:0:0:
341,298,100120,2,0,L|353:208,1,89.9999972534181,2|0,0:0|0:0,0:0:0:0:
400,22,100582,1,4,0:1:0:0:
355,12,100697,1,4,0:3:0:0:
309,12,100813,1,4,0:3:0:0:
264,22,100928,1,8,0:3:0:0:
189,59,101043,6,0,P|132:73|73:61,1,120,4|0,0:0|0:0,0:0:0:0:
40,153,101505,6,0,L|33:253,1,100,4|0,0:0|0:0,0:0:0:0:
139,359,101966,1,4,0:1:0:0:
269,284,102197,2,0,P|318:284|365:300,1,100
466,366,102659,1,2,0:0:0:0:
348,384,102889,1,4,0:1:0:0:
467,250,103120,6,0,B|483:195|431:121|463:52,1,200,2|2,0:0|0:0,0:0:0:0:
388,182,103813,1,4,0:1:0:0:
252,92,104043,2,0,P|255:43|268:-4,1,100,0|2,0:0|0:0,0:0:0:0:
346,61,104505,1,2,0:0:0:0:
158,71,104736,1,4,0:1:0:0:
220,228,104966,1,0,0:0:0:0:
93,10,105197,6,0,P|79:57|77:107,1,100,2|0,0:0|0:0,0:0:0:0:
86,258,105659,1,4,0:1:0:0:
199,355,105889,2,0,P|213:308|215:258,1,100,0|2,0:0|0:0,0:0:0:0:
212,136,106351,1,2,0:0:0:0:
86,258,106582,1,4,0:1:0:0:
319,182,106813,6,0,P|368:179|417:189,1,100,2|0,0:0|0:0,0:0:0:0:
500,275,107273,1,2,0:0:0:0:
364,268,107505,1,4,0:1:0:0:
492,150,107736,2,0,P|502:101|499:51,1,100
385,12,108197,1,2,0:0:0:0:
417,189,108428,1,4,0:1:0:0:
335,17,108659,2,0,P|359:12|384:11,1,50
271,99,108889,6,0,P|222:104|172:97,1,100,4|0,0:0|0:0,0:0:0:0:
61,47,109351,1,4,0:1:0:0:
163,176,109582,2,0,P|168:225|161:275,1,100
81,364,110043,1,2,0:0:0:0:
92,209,110274,1,4,0:1:0:0:
255,345,110505,6,0,P|338:347|302:271,1,200,2|2,0:0|0:0,0:0:0:0:
164,252,111197,1,4,0:1:0:0:
51,377,111428,2,0,P|44:328|54:280,1,100,0|2,0:0|0:0,0:0:0:0:
162,176,111889,1,2,0:0:0:0:
155,384,112120,1,4,0:1:0:0:
54,279,112351,1,0,0:0:0:0:
110,97,112582,6,0,P|158:85|207:91,1,100,6|0,0:0|0:0,0:0:0:0:
349,141,113043,1,4,0:1:0:0:
496,190,113274,2,0,P|503:141|491:93,1,100,0|2,0:0|0:0,0:0:0:0:
390,249,113735,1,2,0:0:0:0:
407,73,113966,1,4,0:1:0:0:
253,248,114197,6,0,P|203:247|158:225,1,100,6|0,0:0|0:0,0:0:0:0:
282,100,114659,1,2,0:0:0:0:
303,331,114889,1,4,0:1:0:0:
303,331,115120,1,2,0:0:0:0:
223,169,115351,1,4,0:0:0:0:
181,332,115582,2,0,L|197:284,1,50
288,70,115813,5,4,0:0:0:0:
337,59,115928,1,4,0:1:0:0:
387,62,116043,1,4,0:3:0:0:
434,78,116159,1,4,0:3:0:0:
499,156,116274,6,0,P|444:177|386:166,1,119.999996337891,6|0,0:0|0:0,0:0:0:0:
254,85,116736,1,4,0:1:0:0:
126,252,116966,2,0,P|111:195|119:136,1,119.999996337891,0|2,0:0|0:0,0:0:0:0:
179,4,117428,1,2,0:0:0:0:
215,177,117659,1,4,0:1:0:0:
80,344,117889,6,0,L|198:324,1,119.999996337891,2|0,0:0|0:0,0:0:0:0:
337,283,118351,1,2,0:0:0:0:
215,177,118582,1,4,0:1:0:0:
425,214,118813,2,0,P|449:268|448:327,1,119.999996337891,2|2,0:0|0:0,0:0:0:0:
311,371,119274,1,2,0:0:0:0:
325,177,119505,1,4,0:1:0:0:
198,323,119736,1,0,0:0:0:0:
104,195,119966,6,0,P|107:135|140:85,1,119.999996337891,2|0,0:0|0:0,0:0:0:0:
264,20,120428,1,4,0:1:0:0:
325,177,120659,2,0,P|266:188|210:170,1,119.999996337891,0|2,0:0|0:0,0:0:0:0:
168,9,121119,1,2,0:0:0:0:
343,78,121351,1,4,0:1:0:0:
102,200,121582,6,0,L|85:318,1,119.999996337891,2|0,0:0|0:0,0:0:0:0:
224,281,122043,1,2,0:0:0:0:
102,200,122274,1,4,0:1:0:0:
267,45,122505,2,0,L|127:64,1,119.999996337891,0|2,0:0|0:0,0:0:0:0:
38,154,122966,1,2,0:0:0:0:
180,192,123197,1,4,0:1:0:0:
331,9,123428,2,0,P|301:1|272:0,1,59.9999981689454
399,47,123659,6,0,P|413:104|402:163,1,119.999996337891,6|0,0:0|0:0,0:0:0:0:
324,284,124120,1,4,0:1:0:0:
203,110,124351,2,0,P|260:96|319:105,1,119.999996337891,0|2,0:0|0:0,0:0:0:0:
439,187,124813,1,2,0:0:0:0:
321,316,125043,1,4,0:1:0:0:
121,168,125274,6,0,P|103:111|119:54,1,119.999996337891,2|0,0:0|0:0,0:0:0:0:
277,39,125736,1,2,0:0:0:0:
210,202,125966,1,4,0:1:0:0:
347,267,126197,2,0,P|363:210|345:153,1,119.999996337891,0|2,0:0|0:0,0:0:0:0:
211,98,126659,1,2,0:0:0:0:
241,305,126889,1,4,0:1:0:0:
401,211,127120,1,0,0:0:0:0:
277,39,127351,6,0,P|222:18|163:25,1,119.999996337891,6|0,0:0|0:0,0:0:0:0:
126,290,127813,2,0,P|181:311|240:304,1,119.999996337891,4|0,0:1|0:0,0:0:0:0:
321,184,128274,1,2,0:0:0:0:
409,297,128505,1,2,0:0:0:0:
229,211,128736,1,4,0:1:0:0:
420,197,128966,6,0,P|433:138|421:80,1,119.999996337891
229,211,129428,1,2,0:0:0:0:
398,65,129659,2,0,P|311:48|226:75,1,179.999994506836,4|0,0:1|0:0,0:0:0:0:
150,39,130120,2,0,P|187:83|177:141,1,119.999996337891,4|0,0:1|0:0,0:0:0:0:
8,296,130582,5,8,0:3:0:0:
64,275,130697,1,8,0:3:0:0:
123,275,130812,1,4,0:3:0:0:
175,296,130928,1,4,0:3:0:0:
231,364,131043,6,0,P|287:381|345:368,1,119.999996337891,6|0,0:0|0:0,0:0:0:0:
458,277,131505,1,4,0:1:0:0:
398,145,131736,2,0,P|342:128|284:141,1,119.999996337891,0|2,0:0|0:0,0:0:0:0:
207,263,132197,1,2,0:0:0:0:
393,225,132428,1,4,0:1:0:0:
187,49,132659,6,0,P|176:107|190:165,1,119.999996337891,2|0,0:0|0:0,0:0:0:0:
307,250,133120,1,2,0:0:0:0:
207,263,133351,1,4,0:1:0:0:
385,313,133582,2,0,P|395:255|381:197,1,119.999996337891,2|0,0:0|0:0,0:0:0:0:
305,75,134043,1,2,0:0:0:0:
207,263,134274,1,4,0:1:0:0:
380,196,134505,1,0,0:0:0:0:
187,49,134736,6,0,P|131:31|71:35,1,119.999996337891,2|0,0:0|0:0,0:0:0:0:
6,163,135197,1,4,0:1:0:0:
57,297,135428,2,0,P|113:315|173:311,1,119.999996337891,0|2,0:0|0:0,0:0:0:0:
307,257,135889,1,2,0:0:0:0:
138,155,136120,1,4,0:1:0:0:
383,168,136351,6,0,P|419:214|431:273,1,119.999996337891,2|0,0:0|0:0,0:0:0:0:
290,384,136813,1,2,0:0:0:0:
245,155,137043,1,4,0:1:0:0:
439,83,137275,2,0,P|459:139|455:198,1,119.999996337891,0|2,0:0|0:0,0:0:0:0:
307,285,137736,1,2,0:0:0:0:
130,181,137966,1,4,0:1:0:0:
380,93,138197,2,0,P|408:84|438:82,1,59.9999981689454
327,18,138428,6,0,P|268:29|209:18,1,119.999996337891,6|0,0:0|0:0,0:0:0:0:
74,70,138889,1,4,0:1:0:0:
134,200,139120,2,0,P|139:259|122:316,1,119.999996337891,0|2,0:0|0:0,0:0:0:0:
30,204,139582,1,2,0:0:0:0:
176,80,139813,1,4,0:1:0:0:
255,234,140043,6,0,P|310:256|369:256,1,119.999996337891,2|0,0:0|0:0,0:0:0:0:
495,185,140505,1,2,0:0:0:0:
338,365,140736,1,4,0:1:0:0:
333,132,140966,1,0,0:0:0:0:
478,373,141197,1,14,0:0:0:0:
370,255,141428,1,2,0:0:0:0:
209,339,141659,5,4,0:1:0:0:
176,289,141774,1,4,0:1:0:0:
170,230,141889,1,4,0:3:0:0:
193,175,142005,1,4,0:3:0:0:
271,109,142120,6,0,L|152:90,1,119.999996337891,6|0,0:0|0:0,0:0:0:0:
272,255,142582,2,0,L|390:236,1,119.999996337891,4|0,0:1|0:0,0:0:0:0:
412,94,143043,1,2,0:0:0:0:
431,310,143274,1,2,0:0:0:0:
276,340,143505,2,0,P|222:317|186:270,1,119.999996337891,4|0,0:1|0:0,0:0:0:0:
193,175,143851,1,0,0:0:0:0:
193,175,143966,6,0,L|209:56,1,119.999996337891,2|0,0:0|0:0,0:0:0:0:
412,94,144428,2,0,L|395:212,1,119.999996337891,4|0,0:1|0:0,0:0:0:0:
273,289,144889,1,2,0:0:0:0:
200,164,145120,1,2,0:0:0:0:
119,299,145351,6,0,P|62:315|3:310,1,119.999996337891,4|0,0:1|0:0,0:0:0:0:
200,164,145813,2,0,P|257:147|316:153,1,119.999996337891,2|0,0:0|0:0,0:0:0:0:
497,301,146274,2,0,P|439:317|380:311,1,119.999996337891,4|0,0:1|0:0,0:0:0:0:
267,220,146736,1,2,0:0:0:0:
296,379,146966,1,2,0:0:0:0:
398,169,147197,1,4,0:1:0:0:
209,317,147428,2,0,P|192:293|185:264,1,59.9999981689454
112,94,147659,6,0,B|166:62|245:124|287:101,1,179.999994506836,6|0,0:0|0:0,0:0:0:0:
419,6,148120,6,0,P|377:83|398:169,1,179.999994506836,2|0,0:0|0:0,0:0:0:0:
482,297,148582,6,0,B|497:317|497:317|420:339|348:298,1,179.999994506836,2|0,0:0|0:0,0:0:0:0:
261,205,149043,6,0,P|211:171|152:163,1,119.999996337891,2|4,0:0|0:1,0:0:0:0:
65,147,149389,1,4,0:1:0:0:
55,234,149505,6,0,P|33:288|40:347,1,119.999996337891,6|0,0:0|0:0,0:0:0:0:
261,205,149966,2,0,P|283:150|276:91,1,119.999996337891,4|0,0:1|0:0,0:0:0:0:
158,6,150428,1,2,0:0:0:0:
47,94,150659,1,2,0:0:0:0:
275,90,150889,1,4,0:1:0:0:
61,9,151120,1,0,0:0:0:0:
144,197,151351,6,0,P|201:213|260:205,1,119.999996337891,2|0,0:0|0:0,0:0:0:0:
396,157,151813,1,4,0:1:0:0:
335,325,152043,1,0,0:0:0:0:
136,313,152274,2,0,P|127:254|144:196,1,119.999996337891,2|2,0:0|0:0,0:0:0:0:
370,114,152736,1,4,0:1:0:0:
228,90,152966,1,0,0:0:0:0:
335,325,153197,6,0,P|247:309|160:328,1,179.999994506836,2|0,0:0|0:0,0:0:0:0:
62,374,153659,2,0,B|61:379|33:313|76:261,1,119.999996337891,4|0,0:1|0:0,0:0:0:0:
193,178,154120,1,2,0:0:0:0:
248,366,154351,1,2,0:0:0:0:
331,231,154582,1,4,0:1:0:0:
101,175,154813,1,0,0:0:0:0:
335,325,155043,6,0,P|390:347|449:340,1,119.999996337891,2|0,0:0|0:0,0:0:0:0:
416,132,155505,1,4,0:1:0:0:
246,273,155736,1,2,0:0:0:0:
479,228,155966,1,12,0:0:0:0:
248,372,156197,1,2,0:0:0:0:
305,130,156428,5,4,0:1:0:0:
263,89,156543,1,4,0:1:0:0:
205,81,156658,1,4,0:3:0:0:
153,109,156774,1,4,0:3:0:0:
93,190,156889,6,0,P|144:208|198:201,1,110.000003356934,6|0,0:0|0:0,0:0:0:0:
305,130,157351,1,4,0:1:0:0:
163,44,157582,2,0,B|121:98|188:189|137:256,1,220.000006713867,0|2,0:0|0:0,0:0:0:0:
66,354,158274,1,4,0:1:0:0:
65,197,158505,1,0,0:0:0:0:
194,355,158736,6,0,B|277:317|366:342|366:342|346:304,1,220.000006713867,2|4,0:0|0:1,0:0:0:0:
266,213,159428,1,0,0:0:0:0:
451,183,159659,1,2,0:0:0:0:
267,113,159889,1,2,0:0:0:0:
452,83,160120,1,4,0:1:0:0:
266,13,160351,1,0,0:0:0:0:
155,160,160582,6,0,P|137:212|138:267,1,110.000003356934,2|0,0:0|0:0,0:0:0:0:
193,375,161043,1,4,0:1:0:0:
295,310,161274,2,0,P|312:258|311:203,1,110.000003356934,0|2,0:0|0:0,0:0:0:0:
263,91,161736,1,2,0:0:0:0:
137,266,161966,2,0,P|128:211|140:158,1,110.000003356934,4|0,0:1|0:0,0:0:0:0:
311,203,162427,5,2,0:0:0:0:
465,44,162659,2,0,L|355:53,1,110.000003356934,0|4,0:0|0:1,0:0:0:0:
234,63,163120,1,0,0:0:0:0:
385,149,163351,1,2,0:0:0:0:
234,163,163582,1,2,0:0:0:0:
389,257,163813,1,4,0:1:0:0:
228,271,164043,1,0,0:0:0:0:
454,334,164274,6,0,B|486:272|470:199|470:199|517:133,1,220.000006713867,6|4,0:0|0:1,0:0:0:0:
427,38,164966,1,0,0:0:0:0:
394,30,165082,1,0,0:0:0:0:
364,44,165197,5,2,0:0:0:0:
377,85,165313,1,0,0:0:0:0:
379,129,165427,1,2,0:0:0:0:
370,172,165543,1,0,0:0:0:0:
353,213,165659,5,4,0:1:0:0:
304,187,165774,1,0,0:0:0:0:
250,183,165889,1,0,0:0:0:0:
199,202,166005,1,0,0:0:0:0:
143,277,166120,6,0,P|127:330|140:383,1,110.000003356934,2|0,0:0|0:0,0:0:0:0:
33,216,166582,1,4,0:1:0:0:
147,133,166813,2,0,P|160:79|153:25,1,110.000003356934,0|2,0:0|0:0,0:0:0:0:
40,95,167274,1,2,0:0:0:0:
143,277,167505,1,4,0:1:0:0:
250,183,167736,2,0,L|258:237,1,55.0000016784668
356,372,167966,6,0,P|371:319|366:265,2,110.000003356934,2|0|4,0:0|0:0|0:1,0:0:0:0:
250,183,168659,1,8,0:3:0:0:
250,183,168774,1,8,0:3:0:0:
250,183,168889,1,4,0:1:0:0:
366,265,169120,1,2,0:0:0:0:
94,233,169351,1,4,0:1:0:0:
288,312,169582,1,2,0:0:0:0:
256,27,169813,5,4,0:0:0:0:
256,192,169928,12,0,171659,0:0:0:0:
256,192,182736,12,0,185043,0:0:0:0:
97,283,185274,5,2,0:0:0:0:
326,339,185505,1,4,0:1:0:0:
232,233,185736,1,2,0:0:0:0:
454,379,185966,5,4,0:1:0:0:
443,321,186081,1,4,0:1:0:0:
449,261,186196,1,4,0:3:0:0:
472,206,186312,1,4,0:3:0:0:
512,115,186428,6,0,P|453:121|394:109,1,119.999996337891,6|0,0:0|0:0,0:0:0:0:
272,26,186889,1,4,0:1:0:0:
142,217,187120,2,0,P|136:157|148:99,1,119.999996337891,0|2,0:0|0:0,0:0:0:0:
272,26,187582,1,2,0:0:0:0:
356,243,187813,1,4,0:1:0:0:
148,98,188043,6,0,P|91:77|32:75,1,119.999996337891,2|0,0:0|0:0,0:0:0:0:
142,217,188505,2,0,P|198:196|257:194,1,119.999996337891,2|4,0:0|0:1,0:0:0:0:
124,336,188966,2,0,P|67:315|8:313,1,119.999996337891,0|2,0:0|0:0,0:0:0:0:
220,288,189428,1,2,0:0:0:0:
66,162,189659,1,4,0:1:0:0:
220,39,189889,1,0,0:0:0:0:
324,271,190120,5,2,0:0:0:0:
362,122,190352,2,0,P|414:95|473:87,1,119.999996337891,0|4,0:0|0:1,0:0:0:0:
220,39,190813,2,0,P|192:91|184:150,1,119.999996337891,0|2,0:0|0:0,0:0:0:0:
194,294,191274,1,2,0:0:0:0:
399,230,191505,1,4,0:1:0:0:
139,374,191736,6,0,P|106:326|103:267,1,119.999996337891,2|0,0:0|0:0,0:0:0:0:
362,122,192197,2,0,P|395:170|398:229,1,119.999996337891,2|4,0:0|0:1,0:0:0:0:
120,40,192659,2,0,P|179:34|236:49,1,119.999996337891,0|2,0:0|0:0,0:0:0:0:
362,122,193120,1,2,0:0:0:0:
206,202,193351,1,4,0:1:0:0:
313,3,193582,2,0,P|310:32|310:62,1,59.9999981689454
330,302,193813,6,0,P|387:319|446:314,1,119.999996337891,6|0,0:0|0:0,0:0:0:0:
317,197,194274,1,4,0:1:0:0:
213,347,194505,2,0,P|155:364|96:358,1,119.999996337891,0|2,0:0|0:0,0:0:0:0:
224,246,194966,1,2,0:0:0:0:
386,364,195197,1,4,0:1:0:0:
493,161,195428,6,0,P|506:103|494:45,1,119.999996337891,6|0,0:0|0:0,0:0:0:0:
355,4,195889,1,2,0:0:0:0:
402,168,196120,1,4,0:1:0:0:
493,44,196351,1,2,0:0:0:0:
270,130,196582,5,8,0:3:0:0:
226,171,196697,1,8,0:3:0:0:
215,229,196812,1,4,0:3:0:0:
241,282,196928,1,4,0:3:0:0:
294,309,197043,1,8,0:3:0:0:
352,300,197158,1,8,0:3:0:0:
393,257,197274,1,4,0:3:0:0:
401,199,197389,1,4,0:3:0:0:
344,106,197505,6,0,P|307:148|294:210,1,119.999996337891,6|0,0:0|0:0,0:0:0:0:
331,351,197966,1,4,0:1:0:0:
512,263,198197,2,0,P|452:269|394:254,1,119.999996337891,0|2,0:0|0:0,0:0:0:0:
300,94,198659,1,2,0:0:0:0:
454,31,198889,1,4,0:1:0:0:
276,220,199120,6,0,L|253:337,1,119.999996337891,2|0,0:0|0:0,0:0:0:0:
170,165,199582,2,0,L|147:47,1,119.999996337891,2|4,0:0|0:1,0:0:0:0:
63,216,200043,2,0,L|40:333,1,119.999996337891,0|2,0:0|0:0,0:0:0:0:
168,265,200505,1,2,0:0:0:0:
70,120,200736,1,4,0:1:0:0:
260,40,200966,1,0,0:0:0:0:
415,208,201197,6,0,P|413:267|384:319,1,119.999996337891,2|0,0:0|0:0,0:0:0:0:
248,367,201659,1,4,0:1:0:0:
203,205,201889,2,0,L|318:240,1,119.999996337891,0|2,0:0|0:0,0:0:0:0:
413,349,202351,1,2,0:0:0:0:
403,174,202582,1,4,0:1:0:0:
123,269,202813,6,0,P|106:213|119:155,1,119.999996337891,2|0,0:0|0:0,0:0:0:0:
225,57,203274,1,2,0:0:0:0:
26,98,203505,1,4,0:1:0:0:
242,167,203736,2,0,P|300:158|359:169,1,119.999996337891,0|2,0:0|0:0,0:0:0:0:
491,227,204197,1,2,0:0:0:0:
253,278,204428,1,4,0:1:0:0:
456,132,204659,2,0,P|466:103|468:73,1,59.9999981689454
326,80,204889,6,0,P|271:58|211:56,1,119.999996337891,6|0,0:0|0:0,0:0:0:0:
70,88,205351,1,4,0:1:0:0:
216,253,205582,2,0,P|246:202|249:143,1,119.999996337891,0|2,0:0|0:0,0:0:0:0:
137,53,206043,1,2,0:0:0:0:
79,228,206274,1,4,0:1:0:0:
290,212,206505,6,0,L|409:199,1,119.999996337891,2|0,0:0|0:0,0:0:0:0:
234,324,206966,2,0,L|353:311,1,119.999996337891,2|4,0:0|0:1,0:0:0:0:
85,163,207428,2,0,L|204:150,1,119.999996337891,0|2,0:0|0:0,0:0:0:0:
340,103,207889,1,2,0:0:0:0:
437,282,208120,1,4,0:1:0:0:
472,153,208351,1,2,0:0:0:0:
263,36,208582,6,0,P|238:90|241:149,1,119.999996337891,6|0,0:0|0:0,0:0:0:0:
437,282,209043,2,0,P|461:227|458:168,1,119.999996337891,4|0,0:1|0:0,0:0:0:0:
401,35,209505,1,2,0:0:0:0:
333,214,209736,1,2,0:0:0:0:
506,76,209966,1,4,0:1:0:0:
476,352,210197,6,0,P|421:327|362:329,1,119.999996337891,2|0,0:0|0:0,0:0:0:0:
222,368,210659,1,2,0:0:0:0:
56,227,210889,2,0,P|106:155|110:66,1,179.999994506836,4|0,0:1|0:0,0:0:0:0:
72,0,211351,2,0,L|187:33,1,119.999996337891,4|0,0:1|0:0,0:0:0:0:
277,125,211813,5,8,0:3:0:0:
334,108,211928,1,8,0:3:0:0:
393,115,212043,1,4,0:3:0:0:
445,143,212159,1,4,0:3:0:0:
512,216,212274,6,0,P|456:238|398:231,1,119.999996337891,6|0,0:0|0:0,0:0:0:0:
262,181,212736,1,4,0:1:0:0:
129,235,212966,2,0,P|121:176|144:121,1,119.999996337891,0|2,0:0|0:0,0:0:0:0:
262,181,213428,1,2,0:0:0:0:
180,32,213659,1,4,0:1:0:0:
403,28,213889,6,0,P|426:82|417:140,1,119.999996337891,2|0,0:0|0:0,0:0:0:0:
344,265,214351,1,2,0:0:0:0:
249,110,214582,1,4,0:1:0:0:
84,258,214813,2,0,P|60:312|69:370,1,119.999996337891,0|2,0:0|0:0,0:0:0:0:
260,356,215274,1,2,0:0:0:0:
174,201,215505,1,4,0:1:0:0:
370,163,215736,1,2,0:0:0:0:
470,372,215966,6,0,P|501:322|504:263,1,119.999996337891,2|0,0:0|0:0,0:0:0:0:
509,115,216428,1,4,0:1:0:0:
309,244,216659,2,0,L|418:293,1,119.999996337891,0|2,0:0|0:0,0:0:0:0:
419,92,217120,1,2,0:0:0:0:
287,262,217351,1,4,0:1:0:0:
490,34,217582,6,0,P|435:12|376:13,1,119.999996337891,2|0,0:0|0:0,0:0:0:0:
114,126,218043,2,0,P|169:103|228:104,1,119.999996337891,2|4,0:0|0:1,0:0:0:0:
459,280,218505,2,0,P|403:257|344:258,1,119.999996337891,0|2,0:0|0:0,0:0:0:0:
213,319,218966,1,2,0:0:0:0:
388,353,219197,1,4,0:1:0:0:
256,237,219428,2,0,P|246:208|232:182,1,59.9999981689454
420,185,219659,6,0,P|446:131|446:72,1,119.999996337891,6|0,0:0|0:0,0:0:0:0:
318,4,220120,1,4,0:1:0:0:
205,94,220351,2,0,P|260:115|318:111,1,119.999996337891,0|2,0:0|0:0,0:0:0:0:
187,216,220813,1,2,0:0:0:0:
283,374,221043,1,4,0:1:0:0:
41,351,221274,6,0,P|25:294|48:239,1,119.999996337891,2|0,0:0|0:0,0:0:0:0:
133,122,221736,1,2,0:0:0:0:
261,281,221966,1,4,0:1:0:0:
130,294,222197,1,2,0:0:0:0:
84,35,222428,2,0,P|154:88|243:90,1,179.999994506836,6|0,0:0|0:0,0:0:0:0:
320,1,222889,5,8,0:3:0:0:
354,49,223004,1,8,0:3:0:0:
357,108,223119,1,4,0:3:0:0:
328,160,223235,1,4,0:3:0:0:
252,227,223351,6,0,P|294:252|343:257,1,100,6|0,0:0|0:0,0:0:0:0:
354,49,223813,2,0,P|311:23|262:18,1,100,10|0,0:0|0:0,0:0:0:0:
119,64,224274,1,2,0:0:0:0:
277,122,224505,1,0,0:0:0:0:
180,0,224736,1,8,0:0:0:0:
159,212,224966,6,0,L|150:311,1,100,0|2,0:0|0:0,0:0:0:0:
353,172,225428,2,0,L|361:72,1,100,0|8,0:0|0:0,0:0:0:0:
218,24,225889,1,0,0:0:0:0:
281,218,226120,1,2,0:0:0:0:
360,72,226351,1,0,0:0:0:0:
221,122,226582,1,10,0:0:0:0:
397,244,226813,1,0,0:0:0:0:
158,365,227043,6,0,P|149:317|160:268,1,100,2|0,0:0|0:0,0:0:0:0:
399,146,227505,2,0,P|408:194|397:243,1,100,10|0,0:0|0:0,0:0:0:0:
309,365,227966,1,2,0:0:0:0:
273,193,228197,1,0,0:0:0:0:
410,340,228428,1,10,0:0:0:0:
485,118,228659,6,0,B|385:105,1,100,0|2,0:0|0:0,0:0:0:0:
173,180,229120,2,0,B|272:192,1,100,0|10,0:0|0:0,0:0:0:0:
452,218,229582,1,0,0:0:0:0:
336,311,229813,1,2,0:0:0:0:
368,179,230043,1,0,0:0:0:0:
240,362,230274,1,10,0:0:0:0:
272,192,230505,2,0,L|244:233,1,50,2|0,0:0|0:0,0:0:0:0:
105,368,230736,6,0,P|74:330|66:281,1,100,6|0,0:0|0:0,0:0:0:0:
134,50,231197,2,0,P|165:88|173:137,1,100,10|0,0:0|0:0,0:0:0:0:
213,291,231659,1,2,0:0:0:0:
76,153,231889,1,0,0:0:0:0:
242,203,232120,1,10,0:0:0:0:
46,375,232351,6,0,P|44:325|66:281,1,100,0|2,0:0|0:0,0:0:0:0:
309,151,232813,2,0,P|357:161|394:194,1,100,0|10,0:0|0:0,0:0:0:0:
441,337,233274,1,0,0:0:0:0:
242,203,233505,1,2,0:0:0:0:
282,358,233736,1,0,0:0:0:0:
422,263,233966,1,10,0:0:0:0:
182,304,234197,1,0,0:0:0:0:
341,105,234428,6,0,P|300:78|251:68,1,100,2|0,0:0|0:0,0:0:0:0:
91,266,234889,2,0,P|132:293|181:303,1,100,10|0,0:0|0:0,0:0:0:0:
320,245,235351,1,2,0:0:0:0:
202,384,235582,1,0,0:0:0:0:
218,199,235813,1,10,0:0:0:0:
388,324,236043,6,0,P|415:283|420:234,1,100,0|2,0:0|0:0,0:0:0:0:
332,58,236505,2,0,P|304:99|299:148,1,100,0|10,0:0|0:0,0:0:0:0:
304,298,236966,1,0,0:0:0:0:
413,132,237197,1,2,0:0:0:0:
234,226,237428,1,0,0:0:0:0:
490,290,237659,1,14,0:0:0:0:
299,147,237889,1,0,0:0:0:0:
190,358,238120,5,2,0:0:0:0:
256,192,238236,12,0,239966,0:0:0:0:
