osu file format v14

[General]
AudioFilename: audio.mp3
AudioLeadIn: 0
PreviewTime: 45850
Countdown: 0
SampleSet: Soft
StackLeniency: 0.7
Mode: 3
LetterboxInBreaks: 0
SpecialStyle: 0
WidescreenStoryboard: 0

[Editor]
DistanceSpacing: 1.1
BeatDivisor: 4
GridSize: 8
TimelineZoom: 1.9

[Metadata]
Title:quantum jump
TitleUnicode:quantum jump
Artist:Marika
ArtistUnicode:真里歌
Creator:Nabi-
Version:deta's Normal
Source:フレラバ ~Friend to Lover~
Tags:ML-ysg deta5859 Fureraba FL SMEE eroge romance visual novel short version japanese galgame 美少女ゲーム video game vn angel note op opening pop jpop j-pop
BeatmapID:3385047
BeatmapSetID:1657952

[Difficulty]
HPDrainRate:7.5
CircleSize:4
OverallDifficulty:7.5
ApproachRate:5
SliderMultiplier:1.4
SliderTickRate:1

[Events]
//Background and Video events
0,0,"1.jpg",0,0
//Break Periods
//Storyboard Layer 0 (Background)
//Storyboard Layer 1 (Fail)
//Storyboard Layer 2 (Pass)
//Storyboard Layer 3 (Foreground)
//Storyboard Layer 4 (Overlay)
//Storyboard Sound Samples
Sample,17061,0,"Hat Close.wav",25
Sample,17523,0,"LR_Clap kick.wav",40
Sample,17984,0,"Hat Close.wav",25
Sample,18446,0,"Hat Close.wav",25
Sample,18907,0,"Hat Close.wav",25
Sample,19369,0,"LR_Clap kick.wav",40
Sample,19831,0,"Hat Close.wav",25
Sample,20754,0,"Hat Close.wav",25
Sample,21215,0,"LR_Clap kick.wav",40
Sample,21677,0,"Hat Close.wav",25
Sample,22138,0,"Hat Close.wav",25
Sample,22600,0,"Hat Close.wav",25
Sample,23061,0,"LR_Clap kick.wav",40
Sample,23523,0,"Hat Open.wav",50
Sample,24446,0,"Hat Close.wav",25
Sample,24907,0,"LR_Clap kick.wav",40
Sample,25369,0,"Hat Close.wav",25
Sample,25831,0,"Hat Close.wav",25
Sample,26292,0,"Hat Close.wav",25
Sample,26754,0,"LR_Clap kick.wav",40
Sample,27215,0,"Hat Close.wav",25
Sample,28138,0,"Hat Close.wav",25
Sample,28600,0,"LR_Clap kick.wav",40
Sample,29061,0,"Hat Close.wav",25
Sample,29523,0,"Hat Close.wav",25
Sample,29984,0,"Hat Close.wav",25
Sample,30446,0,"LR_Clap kick.wav",40
Sample,34138,0,"Hat Close.wav",40
Sample,35061,0,"Hat Close.wav",40
Sample,41523,0,"Hat Close.wav",40
Sample,43369,0,"Hat Open.wav",50
Sample,47061,0,"Hat Open.wav",50
Sample,48907,0,"Hat Open.wav",50
Sample,49831,0,"Hat Open.wav",50
Sample,50754,0,"Hat Open.wav",50
Sample,52600,0,"Hat Open.wav",50
Sample,54446,0,"Hat Open.wav",50
Sample,56292,0,"Hat Open.wav",50
Sample,58138,0,"Hat Open.wav",50
Sample,60561,0,"Tom1.wav",50
Sample,61831,0,"Hat Open.wav",50
Sample,63677,0,"Hat Open.wav",50
Sample,64600,0,"Hat Open.wav",50
Sample,65523,0,"Hat Open.wav",50
Sample,67369,0,"Hat Open.wav",50
Sample,69215,0,"Hat Open.wav",50

[TimingPoints]
1831,461.538461538462,4,2,1,50,1,0
46138,-100,4,2,1,50,0,1
60446,-100,4,2,1,50,0,0
60907,-100,4,2,1,50,0,1
71984,-100,4,2,1,50,0,0

[HitObjects]
64,192,1831,5,2,0:0:0:0:
192,192,1831,1,4,0:0:0:0:
64,192,2292,128,2,2523:0:0:0:0:
448,192,2292,1,0,0:0:0:40:Hat Close.wav
64,192,2754,1,2,0:0:0:0:
448,192,2754,128,0,2984:0:0:0:40:Hat Close.wav
192,192,2984,128,0,3215:0:0:0:0:
64,192,3215,128,2,3446:0:0:0:0:
320,192,3215,1,0,0:0:0:40:Hat Close.wav
448,192,3446,128,0,3677:0:0:0:0:
64,192,3677,1,2,0:0:0:0:
192,192,3677,1,0,0:0:0:40:Hat Close.wav
64,192,4138,1,2,0:0:0:0:
448,192,4138,1,0,0:0:0:40:Hat Close.wav
320,192,4600,128,2,4831:0:0:0:0:
448,192,4600,1,0,0:0:0:40:Hat Close.wav
64,192,4831,128,0,5061:0:0:0:0:
192,192,5061,128,2,5292:0:0:0:0:
320,192,5061,1,0,0:0:0:40:Hat Close.wav
448,192,5292,128,0,5523:0:0:0:0:
64,192,5523,1,2,0:0:0:0:
192,192,5523,1,0,0:0:0:40:Hat Close.wav
64,192,5984,1,2,0:0:0:0:
448,192,5984,128,0,6215:0:0:0:40:Hat Close.wav
64,192,6446,128,2,6677:0:0:0:0:
448,192,6446,1,0,0:0:0:40:Hat Close.wav
320,192,6677,128,0,6907:0:0:0:0:
192,192,6907,1,2,0:0:0:0:
448,192,6907,128,0,7138:0:0:0:40:Hat Close.wav
64,192,7138,128,0,7369:0:0:0:0:
192,192,7369,1,2,0:0:0:0:
320,192,7369,1,0,0:0:0:40:Hat Close.wav
64,192,7831,1,2,0:0:0:0:
448,192,7831,1,0,0:0:0:40:Hat Close.wav
192,192,8292,1,2,0:0:0:0:
320,192,8292,128,0,8523:0:0:0:40:Hat Close.wav
64,192,8523,128,0,8754:0:0:0:0:
192,192,8754,128,2,8984:0:0:0:0:
448,192,8754,1,0,0:0:0:40:Hat Close.wav
320,192,8984,128,0,9215:0:0:0:0:
64,192,9215,1,2,0:0:0:0:
192,192,9215,1,4,0:0:0:0:
64,192,9677,1,2,0:0:0:0:
448,192,9677,128,0,9907:0:0:0:40:Hat Close.wav
64,192,10138,128,2,10369:0:0:0:0:
448,192,10138,1,0,0:0:0:40:Hat Close.wav
320,192,10369,128,0,10600:0:0:0:0:
192,192,10600,1,2,0:0:0:0:
448,192,10600,128,0,10831:0:0:0:40:Hat Close.wav
64,192,10831,128,0,11061:0:0:0:0:
192,192,11061,1,2,0:0:0:0:
320,192,11061,1,0,0:0:0:40:Hat Close.wav
64,192,11523,1,2,0:0:0:0:
448,192,11523,1,0,0:0:0:40:Hat Close.wav
192,192,11984,1,2,0:0:0:0:
320,192,11984,128,0,12215:0:0:0:40:Hat Close.wav
64,192,12215,128,0,12446:0:0:0:0:
192,192,12446,128,2,12677:0:0:0:0:
320,192,12446,1,0,0:0:0:40:Hat Close.wav
448,192,12677,128,0,12907:0:0:0:0:
192,192,12907,1,2,0:0:0:0:
320,192,12907,1,0,0:0:0:40:Hat Close.wav
64,192,13369,1,2,0:0:0:0:
448,192,13369,128,0,13600:0:0:0:40:Hat Close.wav
64,192,13831,128,2,14061:0:0:0:0:
448,192,13831,1,0,0:0:0:40:Hat Close.wav
320,192,14061,128,0,14292:0:0:0:0:
192,192,14292,1,2,0:0:0:0:
448,192,14292,128,0,14523:0:0:0:40:Hat Close.wav
64,192,14523,128,0,14754:0:0:0:0:
192,192,14754,1,2,0:0:0:0:
320,192,14754,1,0,0:0:0:40:Hat Close.wav
64,192,15215,1,2,0:0:0:0:
448,192,15215,1,0,0:0:0:40:Hat Close.wav
192,192,15677,1,2,0:0:0:0:
320,192,15677,1,0,0:0:0:40:Hat Close.wav
64,192,16138,1,2,0:0:0:0:
448,192,16138,128,0,16600:0:0:0:50:Hat Open.wav
64,192,16600,1,4,0:0:0:0:
192,192,16600,1,2,0:0:0:0:
320,192,17061,1,2,0:0:0:0:
64,192,17523,1,2,0:0:0:0:
448,192,17523,1,0,0:0:0:25:Hat Close.wav
320,192,17984,1,2,0:0:0:0:
448,192,18215,1,0,0:0:0:0:
192,192,18446,1,2,0:0:0:0:
192,192,18907,1,2,0:0:0:0:
64,192,19369,1,2,0:0:0:0:
448,192,19369,1,0,0:0:0:25:Hat Close.wav
192,192,19831,1,2,0:0:0:0:
64,192,20292,1,2,0:0:0:0:
448,192,20292,1,0,0:0:0:25:Hat Close.wav
320,192,20754,1,2,0:0:0:0:
64,192,21215,1,2,0:0:0:0:
192,192,21215,1,0,0:0:0:25:Hat Close.wav
320,192,21677,1,2,0:0:0:0:
448,192,21907,1,0,0:0:0:0:
192,192,22138,1,2,0:0:0:0:
192,192,22600,1,2,0:0:0:0:
320,192,23061,1,2,0:0:0:0:
448,192,23061,1,0,0:0:0:25:Hat Close.wav
192,192,23292,1,0,0:0:0:0:
64,192,23523,128,2,23984:0:0:0:0:
192,192,23984,1,4,0:0:0:0:
448,192,23984,1,2,0:0:0:0:
320,192,24446,1,2,0:0:0:0:
64,192,24907,1,2,0:0:0:0:
448,192,24907,1,0,0:0:0:25:Hat Close.wav
320,192,25369,1,2,0:0:0:0:
448,192,25600,1,0,0:0:0:0:
192,192,25831,1,2,0:0:0:0:
192,192,26292,1,2,0:0:0:0:
64,192,26754,1,2,0:0:0:0:
448,192,26754,1,0,0:0:0:25:Hat Close.wav
320,192,27215,1,2,0:0:0:0:
64,192,27677,1,2,0:0:0:0:
448,192,27677,1,0,0:0:0:25:Hat Close.wav
192,192,28138,1,2,0:0:0:0:
64,192,28600,1,2,0:0:0:0:
448,192,28600,1,0,0:0:0:25:Hat Close.wav
320,192,29061,1,2,0:0:0:0:
448,192,29292,1,0,0:0:0:0:
64,192,29523,1,2,0:0:0:0:
64,192,29984,1,2,0:0:0:0:
320,192,30446,1,2,0:0:0:0:
448,192,30446,1,0,0:0:0:25:Hat Close.wav
64,192,30907,1,8,0:0:0:30:soft-hitclap.wav
448,192,30907,1,4,0:0:0:30:soft-hitfinish.wav
192,192,31369,1,4,0:0:0:0:
320,192,31369,1,2,0:0:0:0:
64,192,31831,1,8,0:0:0:0:
448,192,31831,1,0,0:0:0:40:Hat Close.wav
192,192,32292,1,0,0:0:0:40:Hat Close.wav
320,192,32523,1,2,0:0:0:0:
64,192,32754,1,8,0:0:0:0:
448,192,32754,1,0,0:0:0:40:Hat Close.wav
192,192,32984,1,2,0:0:0:0:
320,192,33215,1,0,0:0:0:40:Hat Close.wav
192,192,33446,1,2,0:0:0:0:
64,192,33677,1,8,0:0:0:0:
448,192,33677,1,0,0:0:0:40:Hat Close.wav
320,192,34138,1,2,0:0:0:0:
320,192,34369,1,2,0:0:0:0:
64,192,34600,1,8,0:0:0:0:
448,192,34600,1,0,0:0:0:40:Hat Close.wav
192,192,35061,1,2,0:0:0:0:
64,192,35523,1,8,0:0:0:0:
448,192,35523,1,0,0:0:0:40:Hat Close.wav
320,192,35984,1,0,0:0:0:40:Hat Close.wav
192,192,36215,1,2,0:0:0:0:
64,192,36446,1,8,0:0:0:0:
448,192,36446,1,0,0:0:0:40:Hat Close.wav
320,192,36677,1,2,0:0:0:0:
192,192,36907,1,0,0:0:0:40:Hat Close.wav
320,192,37138,1,2,0:0:0:0:
64,192,37369,1,8,0:0:0:0:
448,192,37369,1,0,0:0:0:40:Hat Close.wav
192,192,37600,1,2,0:0:0:0:
320,192,37831,1,0,0:0:0:40:Hat Close.wav
192,192,38061,1,2,0:0:0:0:
64,192,38292,1,8,0:0:0:0:
448,192,38292,128,0,38754:0:0:0:50:Hat Open.wav
192,192,38754,1,2,0:0:0:0:
320,192,38754,1,4,0:0:0:0:
64,192,39215,1,8,0:0:0:0:
448,192,39215,1,0,0:0:0:40:Hat Close.wav
192,192,39677,1,0,0:0:0:40:Hat Close.wav
320,192,39907,1,2,0:0:0:0:
64,192,40138,1,8,0:0:0:0:
448,192,40138,1,0,0:0:0:40:Hat Close.wav
192,192,40369,1,2,0:0:0:0:
320,192,40600,1,0,0:0:0:40:Hat Close.wav
192,192,40831,1,2,0:0:0:0:
64,192,41061,1,8,0:0:0:0:
448,192,41061,1,0,0:0:0:40:Hat Close.wav
192,192,41523,1,2,0:0:0:0:
192,192,41754,1,2,0:0:0:0:
64,192,41984,1,8,0:0:0:0:
448,192,41984,1,0,0:0:0:40:Hat Close.wav
192,192,42446,1,2,0:0:0:0:
320,192,42446,1,4,0:0:0:0:
64,192,42907,1,8,0:0:0:0:
448,192,42907,1,0,0:0:0:50:Hat Open.wav
192,192,43369,1,2,0:0:0:0:
192,192,43600,1,2,0:0:0:0:
320,192,43831,1,8,0:0:0:0:
448,192,43831,1,0,0:0:0:50:Hat Open.wav
64,192,44061,128,2,44523:0:0:0:0:
192,192,44061,1,4,0:0:0:0:
448,192,44523,1,2,0:0:0:0:
192,192,44754,1,8,0:0:0:0:
320,192,44754,1,0,0:0:0:50:Hat Open.wav
64,192,44984,1,2,0:0:0:0:
320,192,45215,1,2,0:0:0:0:
448,192,45215,1,0,0:0:0:50:Tom2.wav
192,192,45446,1,0,0:0:0:0:
448,192,45677,1,8,0:0:0:0:
320,192,45792,1,8,0:0:0:0:
192,192,45907,1,0,0:0:0:50:Tom3.wav
64,192,46138,1,4,0:0:0:0:
448,192,46138,1,2,0:0:0:0:
192,192,46369,1,0,0:0:0:0:
320,192,46600,1,8,0:0:0:0:
448,192,46600,1,0,0:0:0:50:Hat Open.wav
64,192,46831,1,0,0:0:0:0:
320,192,47061,1,2,0:0:0:0:
320,192,47292,1,2,0:0:0:0:
64,192,47523,1,8,0:0:0:0:
448,192,47523,1,0,0:0:0:50:Hat Open.wav
192,192,47754,1,2,0:0:0:0:
320,192,47984,1,0,0:0:0:50:Hat Open.wav
192,192,48215,1,2,0:0:0:0:
64,192,48446,1,8,0:0:0:0:
448,192,48446,1,0,0:0:0:50:Hat Open.wav
320,192,48677,1,0,0:0:0:0:
192,192,48907,1,2,0:0:0:0:
192,192,49138,1,2,0:0:0:0:
320,192,49369,1,8,0:0:0:0:
448,192,49369,1,0,0:0:0:50:Hat Open.wav
64,192,49600,1,0,0:0:0:0:
320,192,49831,1,2,0:0:0:0:
192,192,50061,1,0,0:0:0:0:
64,192,50292,1,8,0:0:0:0:
448,192,50292,1,0,0:0:0:50:Hat Open.wav
320,192,50523,1,0,0:0:0:0:
192,192,50754,1,2,0:0:0:0:
192,192,50984,1,2,0:0:0:0:
64,192,51215,1,8,0:0:0:0:
448,192,51215,1,0,0:0:0:50:Hat Open.wav
320,192,51446,1,2,0:0:0:0:
192,192,51677,1,0,0:0:0:50:Hat Open.wav
320,192,51907,1,2,0:0:0:0:
448,192,52138,1,8,0:0:0:0:
64,192,52138,1,0,0:0:0:50:Hat Open.wav
320,192,52369,1,0,0:0:0:0:
192,192,52600,1,2,0:0:0:0:
192,192,52831,1,2,0:0:0:0:
64,192,53061,1,8,0:0:0:0:
448,192,53061,1,0,0:0:0:50:Hat Open.wav
320,192,53292,1,0,0:0:0:0:
192,192,53523,1,2,0:0:0:0:
64,192,53523,1,4,0:0:0:0:
320,192,53754,1,0,0:0:0:0:
64,192,53984,1,8,0:0:0:0:
448,192,53984,1,0,0:0:0:50:Hat Open.wav
192,192,54215,1,0,0:0:0:0:
320,192,54446,1,2,0:0:0:0:
320,192,54677,1,2,0:0:0:0:
64,192,54907,1,8,0:0:0:0:
448,192,54907,1,0,0:0:0:50:Hat Open.wav
192,192,55138,1,2,0:0:0:0:
320,192,55369,1,0,0:0:0:50:Hat Open.wav
192,192,55600,1,2,0:0:0:0:
320,192,55831,1,8,0:0:0:0:
448,192,55831,1,0,0:0:0:50:Hat Open.wav
64,192,56061,1,0,0:0:0:0:
320,192,56292,1,2,0:0:0:0:
320,192,56523,1,2,0:0:0:0:
64,192,56754,1,8,0:0:0:0:
448,192,56754,1,0,0:0:0:50:Hat Open.wav
192,192,56984,1,0,0:0:0:0:
448,192,57215,1,2,0:0:0:0:
320,192,57215,1,0,0:0:0:50:Hat Open.wav
192,192,57446,1,0,0:0:0:0:
64,192,57677,1,8,0:0:0:0:
448,192,57677,1,0,0:0:0:50:Hat Open.wav
320,192,57907,1,0,0:0:0:0:
192,192,58138,1,2,0:0:0:0:
192,192,58369,1,2,0:0:0:0:
64,192,58600,1,8,0:0:0:0:
448,192,58600,1,0,0:0:0:50:Hat Open.wav
320,192,58831,1,2,0:0:0:0:
192,192,59061,1,0,0:0:0:50:Hat Open.wav
320,192,59292,1,2,0:0:0:0:
64,192,59523,1,8,0:0:0:0:
448,192,59523,1,0,0:0:0:50:Hat Open.wav
192,192,59754,1,2,0:0:0:0:
64,192,59984,1,8,0:0:0:0:
320,192,59984,1,0,0:0:0:50:Hat Open.wav
448,192,60215,1,2,0:0:0:0:
64,192,60446,1,8,0:0:0:0:
192,192,60561,1,8,0:0:0:0:
320,192,60677,1,0,0:0:0:50:Tom3.wav
64,192,60907,1,4,0:0:0:0:
448,192,60907,1,2,0:0:0:0:
320,192,61138,1,0,0:0:0:0:
448,192,61369,1,8,0:0:0:0:
192,192,61369,1,0,0:0:0:50:Hat Open.wav
64,192,61600,1,0,0:0:0:0:
320,192,61831,1,2,0:0:0:0:
320,192,62061,1,2,0:0:0:0:
64,192,62292,1,8,0:0:0:0:
448,192,62292,1,0,0:0:0:50:Hat Open.wav
192,192,62523,1,2,0:0:0:0:
320,192,62754,1,0,0:0:0:50:Hat Open.wav
192,192,62984,1,2,0:0:0:0:
64,192,63215,1,8,0:0:0:0:
448,192,63215,1,0,0:0:0:50:Hat Open.wav
320,192,63446,1,0,0:0:0:0:
192,192,63677,1,2,0:0:0:0:
192,192,63907,1,2,0:0:0:0:
64,192,64138,1,8,0:0:0:0:
448,192,64138,1,0,0:0:0:50:Hat Open.wav
320,192,64369,1,0,0:0:0:0:
64,192,64600,1,2,0:0:0:0:
192,192,64831,1,0,0:0:0:0:
64,192,65061,1,8,0:0:0:0:
320,192,65061,1,0,0:0:0:50:Hat Open.wav
448,192,65292,1,0,0:0:0:0:
192,192,65523,1,2,0:0:0:0:
192,192,65754,1,2,0:0:0:0:
64,192,65984,1,8,0:0:0:0:
448,192,65984,1,0,0:0:0:50:Hat Open.wav
320,192,66215,1,2,0:0:0:0:
192,192,66446,1,0,0:0:0:50:Hat Open.wav
320,192,66677,1,2,0:0:0:0:
64,192,66907,1,8,0:0:0:0:
448,192,66907,1,0,0:0:0:50:Hat Open.wav
192,192,67138,1,0,0:0:0:0:
320,192,67369,1,2,0:0:0:0:
320,192,67600,1,2,0:0:0:0:
64,192,67831,1,8,0:0:0:0:
448,192,67831,1,0,0:0:0:50:Hat Open.wav
192,192,68061,1,0,0:0:0:0:
448,192,68292,1,2,0:0:0:0:
64,192,68292,1,4,0:0:0:0:
320,192,68523,1,0,0:0:0:0:
64,192,68754,1,8,0:0:0:0:
448,192,68754,1,0,0:0:0:50:Hat Open.wav
192,192,68984,1,0,0:0:0:0:
320,192,69215,1,2,0:0:0:0:
320,192,69446,1,2,0:0:0:0:
64,192,69677,1,8,0:0:0:0:
448,192,69677,1,0,0:0:0:50:Hat Open.wav
192,192,69907,1,2,0:0:0:0:
320,192,70138,1,0,0:0:0:50:Hat Open.wav
192,192,70369,1,2,0:0:0:0:
64,192,70600,1,8,0:0:0:0:
448,192,70600,1,0,0:0:0:50:Hat Open.wav
320,192,70831,1,0,0:0:0:0:
192,192,71061,1,8,0:0:0:0:
448,192,71061,1,4,0:0:0:0:
64,192,71292,128,2,71523:0:0:0:0:
448,192,71523,1,8,0:0:0:0:
320,192,71638,1,8,0:0:0:0:
192,192,71754,1,0,0:0:0:50:Tom2.wav
64,192,71869,1,0,0:0:0:50:Tom3.wav
320,192,71984,1,4,0:0:0:0:
448,192,71984,1,2,0:0:0:0:
64,192,72446,1,2,0:0:0:0:
448,192,72446,128,0,72677:0:0:0:40:Hat Close.wav
64,192,72907,128,2,73138:0:0:0:0:
448,192,72907,1,0,0:0:0:40:Hat Close.wav
320,192,73138,128,0,73369:0:0:0:0:
192,192,73369,1,2,0:0:0:0:
448,192,73369,128,0,73600:0:0:0:40:Hat Close.wav
64,192,73600,128,0,73831:0:0:0:0:
192,192,73831,1,2,0:0:0:0:
320,192,73831,1,0,0:0:0:40:Hat Close.wav
64,192,74292,1,2,0:0:0:0:
448,192,74292,1,0,0:0:0:40:Hat Close.wav
320,192,74754,128,2,74984:0:0:0:0:
448,192,74754,1,0,0:0:0:40:Hat Close.wav
64,192,74984,128,0,75215:0:0:0:0:
192,192,75215,128,2,75446:0:0:0:0:
320,192,75215,1,0,0:0:0:40:Hat Close.wav
448,192,75446,128,0,75677:0:0:0:0:
64,192,75677,1,2,0:0:0:0:
192,192,75677,1,0,0:0:0:40:Hat Close.wav
64,192,76138,1,2,0:0:0:0:
448,192,76138,1,0,0:0:0:40:Hat Close.wav
64,192,76600,128,2,76831:0:0:0:0:
448,192,76600,1,0,0:0:0:40:Hat Close.wav
320,192,76831,128,0,77061:0:0:0:0:
192,192,77061,1,2,0:0:0:0:
448,192,77061,128,0,77292:0:0:0:40:Hat Close.wav
64,192,77292,128,0,77523:0:0:0:0:
192,192,77523,1,2,0:0:0:0:
320,192,77523,1,0,0:0:0:40:Hat Close.wav
64,192,77984,1,2,0:0:0:0:
448,192,77984,1,0,0:0:0:40:Hat Close.wav
192,192,78446,1,2,0:0:0:0:
448,192,78446,128,0,78677:0:0:0:40:Hat Close.wav
64,192,78677,128,0,78907:0:0:0:0:
192,192,78907,128,2,79138:0:0:0:0:
320,192,78907,1,0,0:0:0:40:Hat Close.wav
448,192,79138,128,0,79369:0:0:0:0:
64,192,79369,1,4,0:0:0:0:
192,192,79369,1,2,0:0:0:0:
64,192,79831,1,2,0:0:0:0:
448,192,79831,128,0,80061:0:0:0:40:Hat Close.wav
64,192,80292,128,2,80523:0:0:0:0:
448,192,80292,1,0,0:0:0:40:Hat Close.wav
320,192,80523,128,0,80754:0:0:0:0:
192,192,80754,1,2,0:0:0:0:
448,192,80754,128,0,80984:0:0:0:40:Hat Close.wav
64,192,80984,128,0,81215:0:0:0:0:
192,192,81215,1,2,0:0:0:0:
320,192,81215,1,0,0:0:0:40:Hat Close.wav
64,192,81677,1,2,0:0:0:0:
448,192,81677,1,0,0:0:0:40:Hat Close.wav
192,192,82138,1,2,0:0:0:0:
448,192,82138,128,0,82369:0:0:0:40:Hat Close.wav
64,192,82369,128,0,82600:0:0:0:0:
192,192,82600,128,2,82831:0:0:0:0:
320,192,82600,1,0,0:0:0:40:Hat Close.wav
448,192,82831,128,0,83061:0:0:0:0:
64,192,83061,1,2,0:0:0:0:
192,192,83061,1,0,0:0:0:40:Hat Close.wav
64,192,83523,1,2,0:0:0:0:
448,192,83523,128,0,83754:0:0:0:40:Hat Close.wav
64,192,83984,128,2,84215:0:0:0:0:
448,192,83984,1,0,0:0:0:40:Hat Close.wav
320,192,84215,128,0,84446:0:0:0:0:
192,192,84446,1,2,0:0:0:0:
448,192,84446,128,0,84677:0:0:0:40:Hat Close.wav
64,192,84677,128,0,84907:0:0:0:0:
192,192,84907,1,2,0:0:0:0:
320,192,84907,1,0,0:0:0:40:Hat Close.wav
64,192,85369,1,2,0:0:0:0:
448,192,85369,1,0,0:0:0:40:Hat Close.wav
192,192,85831,1,2,0:0:0:0:
448,192,85831,128,0,86061:0:0:0:40:Hat Close.wav
64,192,86061,128,0,86292:0:0:0:0:
192,192,86292,128,2,86523:0:0:0:0:
320,192,86292,1,0,0:0:0:50:Hat Open.wav
448,192,86523,128,0,86754:0:0:0:0:
64,192,86754,128,0,88600:0:0:0:0:
