osu file format v14

[General]
AudioFilename: audio.mp3
AudioLeadIn: 0
PreviewTime: 45850
Countdown: 0
SampleSet: Soft
StackLeniency: 0.7
Mode: 3
LetterboxInBreaks: 0
SpecialStyle: 0
WidescreenStoryboard: 1

[Editor]
DistanceSpacing: 1.1
BeatDivisor: 8
GridSize: 8
TimelineZoom: 1

[Metadata]
Title:quantum jump
TitleUnicode:quantum jump
Artist:Marika
ArtistUnicode:真里歌
Creator:Nabi-
Version:Easy
Source:フレラバ ~Friend to Lover~
Tags:ML-ysg deta5859 Fureraba FL SMEE eroge romance visual novel short version japanese galgame 美少女ゲーム video game vn angel note op opening pop jpop j-pop
BeatmapID:3385048
BeatmapSetID:1657952

[Difficulty]
HPDrainRate:7
CircleSize:4
OverallDifficulty:7
ApproachRate:5
SliderMultiplier:1.4
SliderTickRate:1

[Events]
//Background and Video events
0,0,"2.jpeg",0,0
//Break Periods
//Storyboard Layer 0 (Background)
//Storyboard Layer 1 (Fail)
//Storyboard Layer 2 (Pass)
//Storyboard Layer 3 (Foreground)
//Storyboard Layer 4 (Overlay)
//Storyboard Sound Samples
Sample,2292,0,"Hat Close.wav",40
Sample,2754,0,"Hat Close.wav",40
Sample,3215,0,"Hat Close.wav",40
Sample,3677,0,"Hat Close.wav",40
Sample,4138,0,"Hat Close.wav",40
Sample,4600,0,"Hat Close.wav",40
Sample,5061,0,"Hat Close.wav",40
Sample,5523,0,"Hat Close.wav",40
Sample,5984,0,"Hat Close.wav",40
Sample,6446,0,"Hat Close.wav",40
Sample,6907,0,"Hat Close.wav",40
Sample,7369,0,"Hat Close.wav",40
Sample,7831,0,"Hat Close.wav",40
Sample,8292,0,"Hat Close.wav",40
Sample,8754,0,"Hat Close.wav",40
Sample,9677,0,"Hat Close.wav",40
Sample,10138,0,"Hat Close.wav",40
Sample,10600,0,"Hat Close.wav",40
Sample,11061,0,"Hat Close.wav",40
Sample,11523,0,"Hat Close.wav",40
Sample,11984,0,"Hat Close.wav",40
Sample,12446,0,"Hat Close.wav",40
Sample,12907,0,"Hat Close.wav",40
Sample,13369,0,"Hat Close.wav",40
Sample,13831,0,"Hat Close.wav",40
Sample,14292,0,"Hat Close.wav",40
Sample,14754,0,"Hat Close.wav",40
Sample,15215,0,"Hat Close.wav",40
Sample,15677,0,"Hat Close.wav",40
Sample,16138,0,"Hat Open.wav",50
Sample,17061,0,"Hat Close.wav",25
Sample,17523,0,"Hat Close.wav",25
Sample,17523,0,"LR_Clap kick.wav",40
Sample,17984,0,"Hat Close.wav",25
Sample,18446,0,"Hat Close.wav",25
Sample,18907,0,"Hat Close.wav",25
Sample,19369,0,"LR_Clap kick.wav",40
Sample,19369,0,"Hat Close.wav",25
Sample,19831,0,"Hat Close.wav",25
Sample,20292,0,"Hat Close.wav",25
Sample,20754,0,"Hat Close.wav",25
Sample,21215,0,"Hat Close.wav",25
Sample,21215,0,"LR_Clap kick.wav",40
Sample,21677,0,"Hat Close.wav",25
Sample,22138,0,"Hat Close.wav",25
Sample,22600,0,"Hat Close.wav",25
Sample,23061,0,"LR_Clap kick.wav",40
Sample,23061,0,"Hat Close.wav",25
Sample,23523,0,"Hat Open.wav",50
Sample,24446,0,"Hat Close.wav",25
Sample,24907,0,"LR_Clap kick.wav",40
Sample,24907,0,"Hat Close.wav",25
Sample,25369,0,"Hat Close.wav",25
Sample,25831,0,"Hat Close.wav",25
Sample,26292,0,"Hat Close.wav",25
Sample,26754,0,"Hat Close.wav",25
Sample,26754,0,"LR_Clap kick.wav",40
Sample,27215,0,"Hat Close.wav",25
Sample,27677,0,"Hat Close.wav",25
Sample,28138,0,"Hat Close.wav",25
Sample,28600,0,"LR_Clap kick.wav",40
Sample,28600,0,"Hat Close.wav",25
Sample,29061,0,"Hat Close.wav",25
Sample,29523,0,"Hat Close.wav",25
Sample,29984,0,"Hat Close.wav",25
Sample,30446,0,"Hat Close.wav",25
Sample,30446,0,"LR_Clap kick.wav",40
Sample,31831,0,"Hat Close.wav",40
Sample,32754,0,"Hat Close.wav",40
Sample,33677,0,"Hat Close.wav",40
Sample,34138,0,"Hat Close.wav",40
Sample,34600,0,"Hat Close.wav",40
Sample,35061,0,"Hat Close.wav",40
Sample,35523,0,"Hat Close.wav",40
Sample,36446,0,"Hat Close.wav",40
Sample,37369,0,"Hat Close.wav",40
Sample,38292,0,"Hat Open.wav",50
Sample,39215,0,"Hat Close.wav",40
Sample,40138,0,"Hat Close.wav",40
Sample,41061,0,"Hat Close.wav",40
Sample,41523,0,"Hat Close.wav",40
Sample,41984,0,"Hat Close.wav",40
Sample,42907,0,"Hat Open.wav",50
Sample,43369,0,"Hat Open.wav",50
Sample,43831,0,"Hat Open.wav",50
Sample,44754,0,"Hat Open.wav",50
Sample,45215,0,"Tom2.wav",50
Sample,46600,0,"Hat Open.wav",50
Sample,47523,0,"Hat Open.wav",50
Sample,49369,0,"Hat Open.wav",50
Sample,49831,0,"Hat Open.wav",50
Sample,50292,0,"Hat Open.wav",50
Sample,51215,0,"Hat Open.wav",50
Sample,52138,0,"Hat Open.wav",50
Sample,53061,0,"Hat Open.wav",50
Sample,53984,0,"Hat Open.wav",50
Sample,54907,0,"Hat Open.wav",50
Sample,55831,0,"Hat Open.wav",50
Sample,56754,0,"Hat Open.wav",50
Sample,57215,0,"Hat Open.wav",50
Sample,57677,0,"Hat Open.wav",50
Sample,58138,0,"Hat Open.wav",50
Sample,58600,0,"Hat Open.wav",50
Sample,61369,0,"Hat Open.wav",50
Sample,62292,0,"Hat Open.wav",50
Sample,63215,0,"Hat Open.wav",50
Sample,64138,0,"Hat Open.wav",50
Sample,64600,0,"Hat Open.wav",50
Sample,65061,0,"Hat Open.wav",50
Sample,65984,0,"Hat Open.wav",50
Sample,67831,0,"Hat Open.wav",50
Sample,68754,0,"Hat Open.wav",50
Sample,69677,0,"Hat Open.wav",50
Sample,70600,0,"Hat Open.wav",50
Sample,72446,0,"Hat Close.wav",40
Sample,72907,0,"Hat Close.wav",40
Sample,73369,0,"Hat Close.wav",40
Sample,73831,0,"Hat Close.wav",40
Sample,74292,0,"Hat Close.wav",40
Sample,74754,0,"Hat Close.wav",40
Sample,75215,0,"Hat Close.wav",40
Sample,75677,0,"Hat Close.wav",40
Sample,76138,0,"Hat Close.wav",40
Sample,76600,0,"Hat Close.wav",40
Sample,77061,0,"Hat Close.wav",40
Sample,77523,0,"Hat Close.wav",40
Sample,77984,0,"Hat Close.wav",40
Sample,78446,0,"Hat Close.wav",40
Sample,78907,0,"Hat Close.wav",40
Sample,79831,0,"Hat Close.wav",40
Sample,80292,0,"Hat Close.wav",40
Sample,80754,0,"Hat Close.wav",40
Sample,81215,0,"Hat Close.wav",40
Sample,81677,0,"Hat Close.wav",40
Sample,82138,0,"Hat Close.wav",40
Sample,82600,0,"Hat Close.wav",40
Sample,83061,0,"Hat Close.wav",40
Sample,83523,0,"Hat Close.wav",40
Sample,83984,0,"Hat Close.wav",40
Sample,84446,0,"Hat Close.wav",40
Sample,84907,0,"Hat Close.wav",40
Sample,85369,0,"Hat Close.wav",40
Sample,85831,0,"Hat Close.wav",40
Sample,86292,0,"Hat Open.wav",50

[TimingPoints]
1831,461.538461538462,4,2,1,50,1,0
46138,-100,4,2,1,50,0,1
60446,-100,4,2,1,50,0,0
60907,-100,4,2,1,50,0,1
71984,-100,4,2,1,50,0,0

[HitObjects]
64,192,1831,5,2,0:0:0:0:
448,192,1831,1,4,0:0:0:0:
192,192,2292,1,2,0:0:0:0:
192,192,2754,1,2,0:0:0:0:
320,192,2984,1,0,0:0:0:0:
448,192,3215,1,2,0:0:0:0:
64,192,3446,1,0,0:0:0:0:
192,192,3677,1,2,0:0:0:0:
192,192,4138,1,2,0:0:0:0:
448,192,4600,1,2,0:0:0:0:
448,192,5061,1,2,0:0:0:0:
64,192,5523,1,2,0:0:0:0:
320,192,5984,1,2,0:0:0:0:
320,192,6446,1,2,0:0:0:0:
192,192,6677,1,0,0:0:0:0:
64,192,6907,1,2,0:0:0:0:
448,192,7138,1,0,0:0:0:0:
320,192,7369,1,2,0:0:0:0:
320,192,7831,1,2,0:0:0:0:
64,192,8292,1,2,0:0:0:0:
64,192,8754,1,2,0:0:0:0:
448,192,9215,1,6,0:0:0:0:
320,192,9215,1,0,0:0:0:0:
192,192,9677,1,2,0:0:0:0:
192,192,10138,1,2,0:0:0:0:
320,192,10369,1,0,0:0:0:0:
448,192,10600,1,2,0:0:0:0:
64,192,10831,1,0,0:0:0:0:
192,192,11061,1,2,0:0:0:0:
192,192,11523,1,2,0:0:0:0:
448,192,11984,1,2,0:0:0:0:
448,192,12446,1,2,0:0:0:0:
64,192,12907,1,2,0:0:0:0:
320,192,13369,1,2,0:0:0:0:
320,192,13831,1,2,0:0:0:0:
192,192,14061,1,0,0:0:0:0:
64,192,14292,1,2,0:0:0:0:
448,192,14523,1,0,0:0:0:0:
320,192,14754,1,2,0:0:0:0:
320,192,15215,1,2,0:0:0:0:
192,192,15677,1,2,0:0:0:0:
192,192,16138,128,2,16600:0:0:0:0:
320,192,16600,1,6,0:0:0:0:
448,192,16600,1,0,0:0:0:0:
320,192,17061,1,2,0:0:0:0:
64,192,17523,1,2,0:0:0:0:
448,192,17984,1,2,0:0:0:0:
192,192,18446,1,2,0:0:0:0:
192,192,18907,1,2,0:0:0:0:
448,192,19369,1,2,0:0:0:0:
64,192,19831,1,2,0:0:0:0:
320,192,20292,1,2,0:0:0:0:
320,192,20754,1,2,0:0:0:0:
64,192,21215,1,2,0:0:0:0:
448,192,21677,1,2,0:0:0:0:
192,192,22138,1,2,0:0:0:0:
192,192,22600,1,2,0:0:0:0:
448,192,23061,1,2,0:0:0:0:
64,192,23523,128,2,23984:0:0:0:0:
448,192,23984,1,6,0:0:0:0:
320,192,23984,1,0,0:0:0:0:
448,192,24446,1,2,0:0:0:0:
192,192,24907,1,2,0:0:0:0:
320,192,25369,1,2,0:0:0:0:
64,192,25831,1,2,0:0:0:0:
64,192,26292,1,2,0:0:0:0:
320,192,26754,1,2,0:0:0:0:
192,192,27215,1,2,0:0:0:0:
448,192,27677,1,2,0:0:0:0:
448,192,28138,1,2,0:0:0:0:
192,192,28600,1,2,0:0:0:0:
320,192,29061,1,2,0:0:0:0:
64,192,29523,1,2,0:0:0:0:
64,192,29984,1,2,0:0:0:0:
448,192,30446,1,2,0:0:0:0:
192,192,30907,1,8,0:0:0:30:soft-hitclap.wav
320,192,30907,1,4,0:0:0:30:soft-hitfinish.wav
64,192,31369,1,4,0:0:0:0:
448,192,31369,1,2,0:0:0:0:
192,192,31831,1,8,0:0:0:0:
320,192,32292,1,0,0:0:0:40:Hat Close.wav
64,192,32523,1,2,0:0:0:0:
448,192,32754,1,8,0:0:0:0:
192,192,32984,128,2,33446:0:0:0:0:
320,192,33446,1,2,0:0:0:0:
448,192,33677,1,8,0:0:0:0:
64,192,34138,1,2,0:0:0:0:
64,192,34369,1,2,0:0:0:0:
320,192,34600,1,8,0:0:0:0:
192,192,35061,1,2,0:0:0:0:
448,192,35523,1,8,0:0:0:0:
64,192,35984,1,0,0:0:0:40:Hat Close.wav
320,192,36215,1,2,0:0:0:0:
192,192,36446,1,8,0:0:0:0:
448,192,36677,128,2,37138:0:0:0:0:
64,192,37138,1,2,0:0:0:0:
320,192,37369,1,8,0:0:0:0:
192,192,37600,128,2,38061:0:0:0:0:
448,192,38061,1,2,0:0:0:0:
64,192,38292,1,8,0:0:0:0:
320,192,38754,1,6,0:0:0:0:
192,192,38754,1,0,0:0:0:0:
64,192,39215,1,8,0:0:0:0:
448,192,39677,1,0,0:0:0:40:Hat Close.wav
320,192,39907,1,2,0:0:0:0:
64,192,40138,1,8,0:0:0:0:
192,192,40369,128,2,40831:0:0:0:0:
448,192,40831,1,2,0:0:0:0:
320,192,41061,1,8,0:0:0:0:
64,192,41523,1,2,0:0:0:0:
64,192,41754,1,2,0:0:0:0:
320,192,41984,1,8,0:0:0:0:
192,192,42446,1,6,0:0:0:0:
64,192,42446,1,0,0:0:0:0:
448,192,42907,1,8,0:0:0:0:
192,192,43369,1,2,0:0:0:0:
192,192,43600,1,2,0:0:0:0:
448,192,43831,1,8,0:0:0:0:
320,192,44061,1,6,0:0:0:0:
64,192,44061,1,0,0:0:0:0:
64,192,44523,1,2,0:0:0:0:
192,192,44754,1,8,0:0:0:0:
448,192,45215,128,2,45677:0:0:0:0:
64,192,45677,128,8,46138:0:0:0:0:
448,192,46138,1,6,0:0:0:0:
320,192,46138,1,0,0:0:0:0:
192,192,46369,1,0,0:0:0:0:
448,192,46600,1,8,0:0:0:0:
320,192,46831,128,0,47292:0:0:0:0:
64,192,47292,1,2,0:0:0:0:
192,192,47523,1,8,0:0:0:0:
448,192,47754,128,2,48215:0:0:0:0:
64,192,48215,128,2,48677:0:0:0:0:
320,192,48677,128,0,49138:0:0:0:0:
192,192,49138,1,2,0:0:0:0:
448,192,49369,1,8,0:0:0:0:
64,192,49831,1,2,0:0:0:0:
320,192,50061,1,0,0:0:0:0:
64,192,50292,1,8,0:0:0:0:
192,192,50523,128,0,50984:0:0:0:0:
448,192,50984,1,2,0:0:0:0:
320,192,51215,1,8,0:0:0:0:
64,192,51446,128,2,51907:0:0:0:0:
448,192,51907,1,2,0:0:0:0:
192,192,52138,1,8,0:0:0:0:
320,192,52369,128,0,52831:0:0:0:0:
64,192,52831,1,2,0:0:0:0:
448,192,53061,1,8,0:0:0:0:
192,192,53523,1,2,0:0:0:0:
320,192,53523,1,4,0:0:0:0:
64,192,53754,1,0,0:0:0:0:
320,192,53984,1,8,0:0:0:0:
192,192,54215,128,0,54677:0:0:0:0:
448,192,54677,1,2,0:0:0:0:
64,192,54907,1,8,0:0:0:0:
320,192,55138,128,2,55600:0:0:0:0:
192,192,55600,1,2,0:0:0:0:
448,192,55831,1,8,0:0:0:0:
64,192,56061,128,0,56523:0:0:0:0:
320,192,56523,1,2,0:0:0:0:
192,192,56754,1,8,0:0:0:0:
448,192,56984,1,0,0:0:0:0:
192,192,57215,128,2,57677:0:0:0:0:
320,192,57677,1,8,0:0:0:0:
64,192,58138,1,2,0:0:0:0:
448,192,58369,1,2,0:0:0:0:
192,192,58600,1,8,0:0:0:0:
320,192,58831,128,2,59292:0:0:0:0:
64,192,59292,1,2,0:0:0:0:
192,192,59523,1,8,0:0:0:0:
448,192,59523,1,0,0:0:0:50:Hat Open.wav
448,192,59984,1,8,0:0:0:0:
192,192,59984,1,0,0:0:0:50:Hat Open.wav
64,192,60446,1,8,0:0:0:0:
320,192,60446,1,0,0:0:0:0:
320,192,60907,1,6,0:0:0:0:
448,192,60907,1,0,0:0:0:0:
64,192,61138,1,0,0:0:0:0:
320,192,61369,1,8,0:0:0:0:
192,192,61600,128,0,62061:0:0:0:0:
448,192,62061,1,2,0:0:0:0:
64,192,62292,1,8,0:0:0:0:
320,192,62523,128,2,62984:0:0:0:0:
192,192,62984,1,2,0:0:0:0:
448,192,63215,1,8,0:0:0:0:
64,192,63446,128,0,63907:0:0:0:0:
320,192,63907,1,2,0:0:0:0:
192,192,64138,1,8,0:0:0:0:
448,192,64600,1,2,0:0:0:0:
64,192,64831,1,0,0:0:0:0:
448,192,65061,1,8,0:0:0:0:
192,192,65292,128,0,65754:0:0:0:0:
320,192,65754,1,2,0:0:0:0:
64,192,65984,1,8,0:0:0:0:
448,192,66215,128,2,66677:0:0:0:0:
192,192,66677,128,2,67138:0:0:0:0:
320,192,67138,128,0,67600:0:0:0:0:
64,192,67600,1,2,0:0:0:0:
448,192,67831,1,8,0:0:0:0:
192,192,68292,1,2,0:0:0:0:
320,192,68292,1,4,0:0:0:0:
64,192,68523,1,0,0:0:0:0:
320,192,68754,1,8,0:0:0:0:
192,192,68984,128,0,69446:0:0:0:0:
448,192,69446,1,2,0:0:0:0:
64,192,69677,1,8,0:0:0:0:
320,192,69907,128,2,70369:0:0:0:0:
192,192,70369,1,2,0:0:0:0:
448,192,70600,1,8,0:0:0:0:
64,192,70831,128,0,71292:0:0:0:0:
320,192,71292,1,2,0:0:0:0:
192,192,71523,1,8,0:0:0:0:
320,192,71754,1,0,0:0:0:50:Tom2.wav
64,192,71984,1,4,0:0:0:0:
448,192,71984,1,2,0:0:0:0:
192,192,72446,1,2,0:0:0:0:
192,192,72907,1,2,0:0:0:0:
320,192,73138,1,0,0:0:0:0:
448,192,73369,1,2,0:0:0:0:
64,192,73600,1,0,0:0:0:0:
192,192,73831,1,2,0:0:0:0:
192,192,74292,1,2,0:0:0:0:
448,192,74754,1,2,0:0:0:0:
448,192,75215,1,2,0:0:0:0:
64,192,75677,1,2,0:0:0:0:
320,192,76138,1,2,0:0:0:0:
320,192,76600,1,2,0:0:0:0:
192,192,76831,1,0,0:0:0:0:
64,192,77061,1,2,0:0:0:0:
448,192,77292,1,0,0:0:0:0:
320,192,77523,1,2,0:0:0:0:
320,192,77984,1,2,0:0:0:0:
64,192,78446,1,2,0:0:0:0:
64,192,78907,1,2,0:0:0:0:
448,192,79369,1,6,0:0:0:0:
320,192,79369,1,0,0:0:0:0:
192,192,79831,1,2,0:0:0:0:
192,192,80292,1,2,0:0:0:0:
320,192,80523,1,0,0:0:0:0:
448,192,80754,1,2,0:0:0:0:
64,192,80984,1,0,0:0:0:0:
192,192,81215,1,2,0:0:0:0:
192,192,81677,1,2,0:0:0:0:
448,192,82138,1,2,0:0:0:0:
448,192,82600,1,2,0:0:0:0:
64,192,83061,1,2,0:0:0:0:
320,192,83523,1,2,0:0:0:0:
320,192,83984,1,2,0:0:0:0:
192,192,84215,1,0,0:0:0:0:
64,192,84446,1,2,0:0:0:0:
448,192,84677,1,0,0:0:0:0:
320,192,84907,1,2,0:0:0:0:
320,192,85369,1,2,0:0:0:0:
192,192,85831,1,2,0:0:0:0:
192,192,86292,128,2,86754:0:0:0:0:
448,192,86754,1,0,0:0:0:0:
