osu file format v14

[General]
AudioFilename: audio.mp3
AudioLeadIn: 0
PreviewTime: 45908
Countdown: 0
SampleSet: Soft
StackLeniency: 0.7
Mode: 0
LetterboxInBreaks: 0
WidescreenStoryboard: 1

[Editor]
DistanceSpacing: 1.1
BeatDivisor: 4
GridSize: 8
TimelineZoom: 1.7

[Metadata]
Title:quantum jump
TitleUnicode:quantum jump
Artist:Marika
ArtistUnicode:真里歌
Creator:Illyasviel
Version:Normal
Source:フレラバ ~Friend to Lover~
Tags:Fureraba ~Friend to Lover~ FL Friend Lover 朋友恋人 SMEE eroge romance visual novel nekonyan beach bikini sea lafayla darksonic japanese galgame 美少女ゲーム [xv] irya pop video game
BeatmapID:2926606
BeatmapSetID:1415335

[Difficulty]
HPDrainRate:4
CircleSize:3
OverallDifficulty:4.5
ApproachRate:5.2
SliderMultiplier:1.01
SliderTickRate:1

[Events]
//Background and Video events
0,0,"qj(BG).jpg",0,0
//Break Periods
//Storyboard Layer 0 (Background)
//Storyboard Layer 1 (Fail)
//Storyboard Layer 2 (Pass)
//Storyboard Layer 3 (Foreground)
//Storyboard Layer 4 (Overlay)
//Storyboard Sound Samples

[TimingPoints]
-15,461.538461538462,4,2,1,65,1,0
1831,-100,4,2,1,65,0,0
11177,-100,4,2,1,5,0,0
11292,-100,4,2,1,65,0,0
16600,-100,4,2,1,55,0,0
18446,-100,4,2,1,5,0,0
18908,-100,4,2,1,55,0,0
20177,-100,4,2,1,5,0,0
20292,-100,4,2,1,55,0,0
22138,-100,4,2,1,5,0,0
22600,-100,4,2,1,55,0,0
23869,-100,4,2,1,5,0,0
23985,-100,4,2,1,55,0,0
25831,-100,4,2,1,5,0,0
26292,-100,4,2,1,55,0,0
27561,-100,4,2,1,5,0,0
27677,-100,4,2,1,55,0,0
29523,-100,4,2,1,5,0,0
29985,-100,4,2,1,55,0,0
30908,-100,4,2,2,55,0,0
31369,-100,4,2,2,65,0,0
35408,-100,4,2,2,5,0,0
35523,-100,4,2,2,65,0,0
38292,-100,4,2,2,65,0,0
42792,-100,4,2,2,5,0,0
42908,-100,4,2,2,65,0,0
46138,-100,4,2,3,70,0,1
48100,-100,4,2,3,5,0,1
48215,-100,4,2,3,70,0,1
49369,-100,4,2,3,70,0,1
51792,-100,4,2,3,5,0,1
51908,-100,4,2,3,70,0,1
52600,-100,4,2,3,5,0,1
53061,-100,4,2,3,70,0,1
55485,-100,4,2,3,5,0,1
55600,-100,4,2,3,70,0,1
59177,-100,4,2,3,5,0,1
59292,-100,4,2,3,70,0,1
60677,-100,4,2,3,70,0,1
60908,-100,4,2,3,70,0,1
62869,-100,4,2,3,5,0,1
62985,-100,4,2,3,70,0,1
63677,-100,4,2,3,5,0,1
64138,-100,4,2,3,70,0,1
66561,-100,4,2,3,5,0,1
66677,-100,4,2,3,70,0,1
67023,-100,4,2,3,5,0,1
67138,-100,4,2,3,70,0,1
67369,-100,4,2,3,5,0,1
67831,-100,4,2,3,70,0,1
71985,-100,4,2,1,65,0,0
86754,-100,4,2,1,65,0,0
87215,-100,4,2,1,5,0,0
88600,-100,4,2,1,15,0,0

[Colours]
Combo1 : 242,191,179
Combo2 : 128,130,166
Combo3 : 63,95,191
Combo4 : 96,120,191
Combo5 : 242,222,162

[HitObjects]
50,135,1831,6,0,P|38:86|48:37,1,101,6|2,3:2|3:2,0:0:0:0:
152,88,2754,1,2,3:2:0:0:
152,88,2985,2,0,L|203:85,1,50.5,2|2,0:0|3:2,0:0:0:0:
253,107,3446,6,0,P|263:154|249:209,1,101,2|2,0:0|0:0,0:0:0:0:
211,308,4369,2,0,L|262:311,1,50.5,2|2,0:0|3:2,0:0:0:0:
312,334,4831,2,0,L|363:331,1,50.5,2|2,0:0|3:2,0:0:0:0:
417,329,5292,1,2,0:0:0:0:
417,329,5523,6,0,L|422:228,1,101,2|2,3:2|3:2,0:0:0:0:
432,121,6446,1,2,3:2:0:0:
432,121,6677,2,0,L|435:70,1,50.5,2|2,0:0|3:2,0:0:0:0:
387,42,7138,6,0,P|338:30|289:40,1,101,2|2,0:0|0:0,0:0:0:0:
200,104,8061,1,2,0:0:0:0:
200,104,8292,2,0,L|149:107,2,50.5,2|2|2,3:2|0:0|3:2,0:0:0:0:
237,152,8985,1,2,0:0:0:0:
237,152,9215,6,0,L|242:253,1,101,6|2,3:2|3:2,0:0:0:0:
252,367,10138,1,2,3:2:0:0:
252,367,10369,2,0,L|201:370,1,50.5,2|2,0:0|3:2,0:0:0:0:
154,339,10831,2,0,P|105:350|56:341,1,101,2|2,0:0|0:0,0:0:0:0:
100,238,11754,2,0,L|97:187,1,50.5,2|2,0:0|3:2,0:0:0:0:
69,139,12215,2,0,L|66:88,1,50.5,2|2,0:0|3:2,0:0:0:0:
68,36,12677,1,2,0:0:0:0:
68,36,12908,6,0,L|169:31,1,101,2|2,3:2|3:2,0:0:0:0:
273,82,13831,1,2,3:2:0:0:
273,82,14062,2,0,L|324:79,1,50.5,2|2,0:0|3:2,0:0:0:0:
370,107,14523,2,0,P|379:156|368:205,1,101,2|2,0:0|0:0,0:0:0:0:
296,291,15446,1,2,0:0:0:0:
296,291,15677,2,0,L|299:342,2,50.5,2|2|4,3:2|0:0|3:2,0:0:0:0:
258,257,16369,1,2,0:0:0:0:
258,257,16600,6,0,L|255:206,2,50.5,6|2|2,3:2|0:0|3:2,0:0:0:0:
169,324,17523,1,8,0:0:0:0:
76,275,17985,1,2,3:2:0:0:
76,275,18215,2,0,L|68:123,1,151.5,2|0,0:0|3:0,0:0:0:0:
140,39,19369,1,10,0:0:0:0:
220,115,19831,1,2,3:2:0:0:
318,64,20292,6,0,P|328:112|320:162,1,101,0|2,3:0|3:2,0:0:0:0:
261,257,21215,1,8,0:0:0:0:
192,345,21677,1,2,3:2:0:0:
192,345,21908,2,0,L|344:337,1,151.5,2|0,0:0|3:0,0:0:0:0:
454,329,23061,1,8,0:0:0:0:
392,236,23523,1,0,3:0:0:0:
386,124,23985,6,0,L|383:73,2,50.5,6|2|2,3:2|0:0|3:2,0:0:0:0:
339,155,24677,2,0,P|290:166|240:157,1,101,2|2,0:0|0:0,0:0:0:0:
189,135,25369,1,2,3:2:0:0:
189,135,25600,2,0,P|115:120|42:140,1,151.5,2|0,0:0|3:0,0:0:0:0:
3,243,26754,1,10,0:0:0:0:
48,344,27215,1,2,3:2:0:0:
159,342,27677,6,0,L|266:336,1,101,0|2,3:0|3:2,0:0:0:0:
354,277,28600,1,8,0:0:0:0:
456,331,29061,1,2,3:2:0:0:
456,331,29292,2,0,L|448:179,1,151.5,2|0,2:2|3:0,0:0:0:0:
437,68,30446,1,10,0:0:0:0:
333,107,30908,1,8,0:0:0:0:
222,104,31369,6,0,L|171:101,2,50.5,6|2|10,3:2|0:0|0:0,0:0:0:0:
250,154,32061,2,0,P|258:203|247:252,1,101,2|2,0:0|3:2,0:0:0:0:
236,312,32754,1,10,0:0:0:0:
236,312,32985,2,0,L|135:317,1,101,2|0,3:2|3:0,0:0:0:0:
83,327,33677,1,10,0:0:0:0:
83,327,33908,1,2,0:0:0:0:
50,221,34369,2,0,L|-1:224,2,50.5,2|10|2,3:2|0:0|0:0,0:0:0:0:
105,217,35061,6,0,P|113:168|102:119,1,101,0|10,3:0|0:0,0:0:0:0:
74,69,35754,1,2,0:0:0:0:
171,16,36215,1,2,3:2:0:0:
275,53,36677,2,0,P|324:61|373:50,1,101,2|2,3:2|3:2,0:0:0:0:
430,37,37369,1,10,0:0:0:0:
430,37,37600,1,2,3:2:0:0:
468,146,38061,1,0,3:0:0:0:
468,146,38292,1,8,0:0:0:0:
422,247,38754,6,0,L|425:298,2,50.5,6|2|10,3:2|0:0|0:0,0:0:0:0:
378,212,39446,2,0,P|328:204|279:215,1,101,2|2,0:0|3:2,0:0:0:0:
244,258,40138,1,10,0:0:0:0:
244,258,40369,2,0,P|195:269|145:261,1,101,2|0,3:2|3:0,0:0:0:0:
93,268,41061,1,10,0:0:0:0:
93,268,41292,1,2,0:0:0:0:
49,170,41754,2,0,L|-2:173,2,50.5,2|10|2,3:2|0:0|0:0,0:0:0:0:
86,128,42446,6,0,L|187:123,1,101,6|10,3:2|0:0,0:0:0:0:
234,151,43138,1,2,0:0:0:0:
292,248,43600,2,0,L|343:245,1,50.5,2|10,3:2|0:0,0:0:0:0:
388,275,44061,2,0,P|437:283|486:272,1,101,6|2,3:2|3:2,0:0:0:0:
500,218,44754,1,10,0:0:0:0:
432,129,45215,1,14,0:0:0:0:
454,20,45677,2,0,L|403:23,1,50.5,8|2,0:0|3:2,0:0:0:0:
359,56,46138,5,6,3:2:0:0:
359,56,46369,2,0,L|308:59,1,50.5,2|10,0:0|0:0,0:0:0:0:
260,87,46831,2,0,P|211:98|161:90,1,101,2|2,0:0|3:2,0:0:0:0:
112,78,47523,1,10,0:0:0:0:
112,78,47754,1,2,3:2:0:0:
25,147,48215,1,2,3:2:0:0:
79,243,48677,1,2,0:0:0:0:
145,338,49138,1,0,3:0:0:0:
145,338,49369,1,8,0:0:0:0:
260,342,49831,5,2,3:2:0:0:
260,342,50062,2,0,L|311:339,1,50.5,2|10,0:0|0:0,0:0:0:0:
356,308,50523,2,0,P|405:297|455:305,1,101,2|2,0:0|3:2,0:0:0:0:
505,339,51215,1,10,0:0:0:0:
505,339,51446,1,2,3:2:0:0:
499,227,51908,2,0,L|496:176,1,50.5,2|10,3:2|0:0,0:0:0:0:
456,137,52369,2,0,B|409:106|409:106|307:112,1,151.5,2|8,0:0|0:0,0:0:0:0:
205,138,53523,6,0,L|154:141,2,50.5,6|2|10,3:2|0:0|0:0,0:0:0:0:
253,169,54215,2,0,P|264:218|256:268,1,101,2|2,0:0|3:2,0:0:0:0:
229,318,54908,1,10,0:0:0:0:
229,318,55138,2,0,L|128:323,1,101,2|2,3:2|3:2,0:0:0:0:
76,319,55831,1,10,0:0:0:0:
76,319,56061,1,2,0:0:0:0:
10,235,56523,1,0,3:0:0:0:
10,235,56754,2,0,L|13:184,1,50.5,10|2,0:0|0:0,0:0:0:0:
43,138,57215,6,0,P|35:88|46:39,1,101,2|8,3:2|0:0,0:0:0:0:
147,97,58138,1,0,3:0:0:0:
147,97,58369,2,0,L|198:94,1,50.5,2|10,3:2|0:0,0:0:0:0:
242,60,58831,2,0,L|343:55,1,101,2|2,3:2|3:2,0:0:0:0:
398,52,59523,1,8,0:0:0:0:
496,0,59985,1,8,0:0:0:0:
493,110,60446,1,8,0:0:0:0:
450,213,60908,5,6,3:2:0:0:
450,213,61138,2,0,L|447:264,1,50.5,2|10,0:0|0:0,0:0:0:0:
441,312,61600,2,0,P|392:323|342:315,1,101,2|2,0:0|3:2,0:0:0:0:
290,294,62292,1,10,0:0:0:0:
290,294,62523,2,0,P|240:286|191:297,1,101,2|2,3:2|3:2,0:0:0:0:
142,322,63215,1,10,0:0:0:0:
142,322,63446,2,0,B|106:278|106:278|101:176,1,151.5,2|8,0:0|0:0,0:0:0:0:
74,80,64600,5,2,3:2:0:0:
74,80,64831,2,0,L|125:77,1,50.5,2|10,0:0|0:0,0:0:0:0:
177,94,65292,2,0,P|226:101|275:90,1,101,2|2,0:0|3:2,0:0:0:0:
332,75,65985,1,10,0:0:0:0:
332,75,66215,1,2,3:2:0:0:
443,72,66677,1,2,3:2:0:0:
447,182,67138,2,0,B|403:218|403:218|301:223,1,151.5,2|8,0:0|0:0,0:0:0:0:
235,306,68292,6,0,L|238:357,2,50.5,6|2|10,3:2|0:0|0:0,0:0:0:0:
213,255,68985,2,0,P|164:248|115:259,1,101,2|2,0:0|3:2,0:0:0:0:
65,246,69677,1,10,0:0:0:0:
65,246,69908,2,0,L|60:145,1,101,2|0,3:2|3:0,0:0:0:0:
69,90,70600,1,10,0:0:0:0:
179,85,71061,2,0,L|230:82,1,50.5,12|2,0:0|3:2,0:0:0:0:
277,53,71523,2,0,L|328:50,1,50.5,10|2,0:0|3:2,0:0:0:0:
383,50,71985,6,0,P|394:98|387:148,1,101,6|2,3:2|3:2,0:0:0:0:
293,206,72908,1,2,3:2:0:0:
293,206,73139,2,0,L|242:209,1,50.5,2|2,0:0|3:2,0:0:0:0:
197,241,73600,2,0,L|96:246,1,101,2|2,0:0|0:0,0:0:0:0:
129,352,74523,2,0,L|180:349,1,50.5,2|2,0:0|3:2,0:0:0:0:
233,362,74985,2,0,L|284:359,1,50.5,2|2,0:0|3:2,0:0:0:0:
340,344,75446,1,2,0:0:0:0:
340,344,75677,6,0,P|389:351|438:339,1,101,2|2,3:2|3:2,0:0:0:0:
489,240,76600,1,2,3:2:0:0:
489,240,76831,2,0,L|486:189,1,50.5,2|2,0:0|3:2,0:0:0:0:
448,148,77292,2,0,P|398:141|349:153,1,101,2|2,0:0|0:0,0:0:0:0:
261,219,78215,1,2,0:0:0:0:
261,219,78446,2,0,L|264:270,2,50.5,2|2|2,3:2|0:0|3:2,0:0:0:0:
236,175,79139,1,2,0:0:0:0:
236,175,79369,6,0,L|231:74,1,101,6|0,3:2|3:2,0:0:0:0:
137,25,80292,1,2,3:2:0:0:
137,25,80523,2,0,L|140:76,1,50.5,2|2,0:0|3:2,0:0:0:0:
107,120,80985,2,0,L|102:220,1,101,2|2,0:0|0:0,0:0:0:0:
45,316,81908,2,0,L|96:313,1,50.5,2|2,0:0|3:2,0:0:0:0:
146,334,82369,2,0,L|197:331,1,50.5,2|2,0:0|3:2,0:0:0:0:
256,332,82831,1,2,0:0:0:0:
256,332,83061,6,0,P|306:339|355:327,1,101,2|2,3:2|3:2,0:0:0:0:
305,233,83984,1,2,3:2:0:0:
305,233,84215,2,0,L|302:182,1,50.5,2|2,0:0|3:2,0:0:0:0:
331,135,84677,6,0,P|338:85|326:36,1,101,2|2,0:0|0:0,0:0:0:0:
229,91,85600,2,0,L|178:94,1,50.5,2|2,0:0|3:2,0:0:0:0:
126,113,86061,2,0,L|75:116,1,50.5,2|6,0:0|3:2,0:0:0:0:
24,125,86523,1,2,0:0:0:0:
24,125,86754,1,6,0:0:0:0:
256,192,86985,12,0,88600,0:0:0:0:
