osu file format v14

[General]
AudioFilename: audio.mp3
AudioLeadIn: 0
PreviewTime: 14444
Countdown: 1
SampleSet: Soft
StackLeniency: 0.7
Mode: 0
LetterboxInBreaks: 0
WidescreenStoryboard: 0

[Editor]
DistanceSpacing: 1.2
BeatDivisor: 6
GridSize: 4
TimelineZoom: 2.1

[Metadata]
Title:knowing
TitleUnicode:knowing
Artist:Marika
ArtistUnicode:真里歌
Creator:Naotoshi
Version:Summer Holiday
Source:俺の彼女のウラオモテ
Tags:ore no kanojo uraomote eroge visual novel Nonoura aries meis clauson lasse mir
BeatmapID:1437762
BeatmapSetID:677700

[Difficulty]
HPDrainRate:5
CircleSize:4
OverallDifficulty:8
ApproachRate:8
SliderMultiplier:1.4
SliderTickRate:1

[Events]
//Background and Video events
0,0,"241468.jpg",0,0
//Break Periods
//Storyboard Layer 0 (Background)
//Storyboard Layer 1 (Fail)
//Storyboard Layer 2 (Pass)
//Storyboard Layer 3 (Foreground)
//Storyboard Sound Samples

[TimingPoints]
944,428.571428571429,4,2,1,35,1,0
14658,-100,4,2,1,40,0,0
27944,-100,4,2,5,60,0,0
28372,-83.3333333333333,4,2,5,60,0,0
41658,-133.333333333333,4,2,5,60,0,0
41979,-133.333333333333,4,2,5,10,0,0
42086,-100,4,2,5,50,0,0
48944,-83.3333333333333,4,2,5,60,0,0
51515,-83.3333333333333,4,2,1,60,0,0
52586,-83.3333333333333,4,2,5,60,0,0
54944,-83.3333333333333,4,2,5,65,0,0
55801,-71.4285714285714,4,2,5,75,0,1
83229,-100,4,2,5,60,0,0
83444,-100,4,2,1,40,0,0
90086,-100,4,2,1,5,0,0

[Colours]
Combo1 : 239,112,80
Combo2 : 237,133,18
Combo3 : 88,163,231

[HitObjects]
114,164,944,6,0,P|108:131|104:75,2,70,2|0|0,0:0|0:0|0:0,0:0:0:0:
211,190,1586,2,0,P|292:173|380:177,1,140,2|0,0:0|0:0,0:0:0:0:
442,129,2229,2,0,P|498:152|521:173,1,70,2|0,0:0|0:0,0:0:0:0:
452,261,2658,6,0,P|448:317|447:354,2,70,2|0|0,0:0|0:0|0:0,0:0:0:0:
366,204,3301,2,0,P|308:199|220:220,1,140,2|0,0:0|0:0,0:0:0:0:
153,296,3944,1,2,0:0:0:0:
87,213,4158,6,2,L|82:179,3,23.3333333333333
20,284,4586,2,0,P|24:333|46:370,1,70
141,337,5015,2,0,P|180:313|282:316,1,140,2|0,0:0|0:0,0:0:0:0:
369,362,5658,2,0,P|380:319|372:274,1,70,2|0,0:0|0:0,0:0:0:0:
324,183,6086,6,0,P|334:130|352:106,1,70,2|0,0:0|0:0,0:0:0:0:
427,70,6515,1,0,0:0:0:0:
410,177,6729,2,0,B|346:168|343:214|251:202,1,140,2|0,0:0|0:0,0:0:0:0:
197,138,7372,1,2,0:0:0:0:
117,199,7586,1,0,0:0:0:0:
117,199,7693,1,0,0:0:0:0:
117,199,7801,6,0,P|113:252|104:278,2,70,2|0|0,0:0|0:0|0:0,0:0:0:0:
5,171,8444,2,0,P|-4:126|37:36,1,140,2|0,0:0|0:0,0:0:0:0:
132,52,9086,1,2,0:0:0:0:
235,10,9301,1,0,0:0:0:0:
235,10,9408,1,0,0:0:0:0:
235,10,9515,6,0,P|273:21|321:24,2,70,2|0|0,0:0|0:0|3:0,0:0:0:0:
203,101,10158,1,0,0:0:0:0:
344,120,10372,6,0,P|358:177|376:219,2,93.3333333333333,2|0|0,2:2|0:0|0:0,0:0:0:0:
271,241,11229,6,0,P|227:250|181:244,2,70,2|0|0,0:0|0:0|0:0,0:0:0:0:
119,189,11872,2,0,P|103:237|148:333,1,140,2|0,0:0|0:0,0:0:0:0:
238,352,12515,1,2,0:0:0:0:
325,277,12729,1,0,0:0:0:0:
325,277,12836,1,0,0:0:0:0:
325,277,12944,6,0,P|348:336|346:370,1,70,2|0,0:0|0:0,0:0:0:0:
430,279,13372,1,0,0:0:0:0:
363,198,13586,2,0,B|291:173|281:222|222:196,1,140,2|0,0:0|0:0,0:0:0:0:
233,46,14229,2,0,P|253:75|258:110,1,70,2|0,0:0|0:0,0:0:0:0:
91,195,14658,6,0,P|155:180|234:202,1,140,2|0,0:0|0:0,0:0:0:0:
330,272,15301,2,0,P|403:265|451:217,1,140,2|0,0:0|0:0,0:0:0:0:
358,172,15944,1,2,0:0:0:0:
217,176,16158,1,0,0:0:0:0:
217,176,16372,6,0,P|189:220|199:312,1,140,2|0,0:0|0:0,0:0:0:0:
302,348,17015,2,0,P|354:324|448:333,1,140,2|0,0:0|0:0,0:0:0:0:
502,240,17658,1,2,0:0:0:0:
376,199,17872,1,0,0:0:0:0:
255,261,18086,6,0,P|193:275|103:259,1,140,2|0,0:0|0:0,0:0:0:0:
46,171,18729,2,0,P|43:103|121:100,1,140,2|0,0:0|0:0,0:0:0:0:
205,159,19372,2,0,P|270:167|295:158,1,70,2|0,0:0|0:0,0:0:0:0:
378,110,19801,6,0,P|386:76|406:34,2,70,2|0|0,0:0|0:0|0:0,0:0:0:0:
461,180,20444,2,0,P|476:235|446:318,1,140,2|0,0:0|0:0,0:0:0:0:
337,318,21086,2,0,P|298:306|255:306,1,70,2|0,0:0|0:0,0:0:0:0:
237,314,21408,1,0,0:0:0:0:
208,330,21515,6,0,P|152:349|63:329,1,140,2|0,0:0|0:0,0:0:0:0:
104,170,22158,1,2,0:0:0:0:
104,170,22372,2,0,P|128:219|136:254,1,70,2|0,2:2|0:0,0:0:0:0:
38,245,22801,1,2,0:0:0:0:
214,198,23015,1,0,0:0:0:0:
214,198,23229,6,0,P|267:218|352:205,1,140,2|0,2:2|2:2,2:2:0:0:
360,58,23872,2,0,P|298:55|287:131,1,140,2|0,0:0|0:0,0:0:0:0:
385,151,24515,1,2,0:0:0:0:
454,69,24729,1,0,0:0:0:0:
465,201,24944,6,0,P|403:191|329:225,1,140,2|0,0:0|0:0,0:0:0:0:
280,308,25586,1,2,0:0:0:0:
199,252,25801,2,0,P|138:260|109:271,1,70,2|0,2:2|0:0,0:0:0:0:
58,334,26229,1,0,0:0:0:0:
14,208,26444,1,0,0:0:0:0:
14,208,26658,6,0,P|29:153|23:113,1,70,2|0,2:2|0:0,0:0:0:0:
3,46,27086,1,0,3:0:0:0:
111,133,27301,2,0,P|170:148|246:123,1,140,2|0,0:0|0:0,0:0:0:0:
44,202,27944,5,8,0:0:0:0:
323,60,28372,2,0,P|347:116|298:213,1,167.999994873047,6|8,0:0|0:0,0:0:0:0:
97,131,29015,2,0,B|186:95|179:161|270:120,1,167.999994873047
146,210,29658,1,8,0:0:0:0:
222,46,29872,1,0,0:0:0:0:
222,46,30086,6,0,P|191:15|73:70,1,167.999994873047,2|8,0:0|0:0,0:0:0:0:
77,195,30729,1,0,0:0:0:0:
77,195,30836,1,2,0:0:0:0:
77,195,30944,2,0,P|127:187|169:196,1,83.9999974365235,2|0,0:0|0:0,0:0:0:0:
273,283,31372,1,8,0:0:0:0:
296,138,31586,1,0,0:0:0:0:
125,271,31801,6,0,B|213:249|208:331|298:305,1,167.999994873047,2|8,0:0|0:0,0:0:0:0:
336,153,32444,1,0,0:0:0:0:
336,153,32658,2,0,P|292:186|277:233,1,83.9999974365235,2|0,0:0|0:0,0:0:0:0:
453,253,33086,2,0,P|446:198|413:161,1,83.9999974365235,8|0,0:0|0:0,0:0:0:0:
364,238,33515,6,0,L|350:332,1,83.9999974365235,2|0,0:0|0:0,0:0:0:0:
179,356,33944,1,8,0:0:0:0:
179,356,34158,2,0,L|192:261,1,83.9999974365235,0|2,0:0|0:0,0:0:0:0:
277,226,34586,1,0,0:0:0:0:
146,177,34801,2,0,P|146:128|159:79,1,83.9999974365235,8|0,0:0|0:0,0:0:0:0:
178,61,35122,1,2,0:0:0:0:
222,54,35229,6,0,P|270:62|387:20,1,167.999994873047,2|8,0:0|0:0,0:0:0:0:
489,104,35872,1,0,0:0:0:0:
489,104,36086,2,0,P|481:160|497:212,1,83.9999974365235,2|0,0:0|0:0,0:0:0:0:
387,276,36515,1,8,0:0:0:0:
282,214,36729,1,0,0:0:0:0:
282,214,36944,6,0,P|224:236|119:216,1,167.999994873047,2|8,0:0|0:0,0:0:0:0:
164,107,37586,2,0,B|240:79|264:138|340:106,1,167.999994873047,2|0,0:0|0:0,0:0:0:0:
373,235,38229,2,0,P|380:292|389:319,1,83.9999974365235,8|0,0:0|0:0,0:0:0:0:
277,327,38658,6,0,P|222:309|124:366,1,167.999994873047,2|8,0:0|0:0,0:0:0:0:
51,236,39301,1,0,0:0:0:0:
51,236,39408,1,2,0:0:0:0:
51,236,39515,2,0,P|46:174|70:125,1,83.9999974365235,2|0,0:0|0:0,0:0:0:0:
152,80,39944,1,8,0:0:0:0:
260,164,40158,2,0,P|311:168|365:153,2,83.9999974365235,0|2|0,0:0|0:0|0:0,0:0:0:0:
413,87,40801,5,8,0:0:0:0:
369,254,41015,1,0,3:1:0:0:
394,232,41122,1,0,3:0:0:0:
421,218,41229,1,2,3:2:0:0:
512,284,41444,1,2,0:0:0:0:
464,350,41658,6,0,P|406:330|371:334,1,78.7500030040742,8|0,0:0|0:0,0:0:0:0:
353,345,42086,6,0,P|323:313|223:323,1,140,6|8,0:0|0:0,0:0:0:0:
141,338,42729,2,0,P|143:283|212:226,1,140,2|0,0:0|0:0,0:0:0:0:
306,239,43372,1,8,0:0:0:0:
403,157,43801,6,0,B|329:180|334:131|258:166,1,140,2|8,0:0|0:0,0:0:0:0:
279,41,44444,2,0,P|312:20|363:90,1,140,2|0,0:0|0:0,0:0:0:0:
198,81,45086,1,8,0:0:0:0:
124,13,45515,6,0,P|99:67|127:152,1,140,2|8,0:0|0:0,0:0:0:0:
214,190,46158,2,0,P|268:158|345:159,1,140,2|0,0:0|0:0,0:0:0:0:
433,216,46801,1,8,0:0:0:0:
313,287,47229,6,0,P|303:212|271:155,1,140,2|8,0:0|0:0,0:0:0:0:
187,233,47872,2,0,P|105:245|44:199,1,140,2|2,0:0|0:0,0:0:0:0:
133,148,48515,1,8,0:0:0:0:
267,183,48944,6,0,P|279:225|273:284,2,83.9999974365235,6|0|8,0:0|0:0|0:0,0:0:0:0:
361,123,49586,1,0,0:0:0:0:
361,123,49801,2,0,P|416:128|471:108,1,83.9999974365235,2|0,0:0|0:0,0:0:0:0:
401,31,50229,1,8,0:0:0:0:
268,74,50444,1,0,0:0:0:0:
268,74,50551,1,2,0:0:0:0:
268,74,50658,6,0,P|212:59|160:61,1,83.9999974365235,2|0,0:0|0:0,0:0:0:0:
88,126,51086,1,8,0:0:0:0:
206,172,51301,1,0,0:0:0:0:
169,258,51515,2,0,P|166:318|184:351,1,83.9999974365235,2|0,0:0|0:0,0:0:0:0:
272,327,51944,2,0,P|275:267|257:234,1,83.9999974365235,2|0,1:2|0:0,0:0:0:0:
84,352,52372,6,0,P|37:363|-17:358,2,83.9999974365235,2|0|8,0:0|0:0|0:0,0:0:0:0:
53,174,53015,1,0,0:0:0:0:
53,174,53229,2,0,P|36:252|48:284,1,83.9999974365235,2|0,0:0|0:0,0:0:0:0:
142,148,53658,1,8,0:0:0:0:
255,247,53872,1,0,0:0:0:0:
255,247,54086,6,0,P|304:243|345:255,1,83.9999974365235,2|0,0:0|0:0,0:0:0:0:
468,314,54515,2,0,P|480:275|477:230,1,83.9999974365235,8|0,0:0|0:0,0:0:0:0:
404,102,54944,1,8,0:0:0:0:
356,92,55051,1,8,0:0:0:0:
325,132,55158,1,2,0:0:0:0:
353,173,55265,1,2,0:0:0:0:
400,157,55372,1,8,0:0:0:0:
406,24,55801,5,6,0:0:0:0:
225,63,56015,1,0,0:0:0:0:
352,197,56229,1,8,0:0:0:0:
512,136,56444,1,0,0:0:0:0:
512,136,56551,1,2,0:0:0:0:
512,136,56658,2,0,P|433:119|382:121,1,97.9999970092774,2|2,0:0|0:0,0:0:0:0:
220,216,57086,1,8,0:0:0:0:
102,111,57301,1,0,0:0:0:0:
268,43,57515,5,2,0:0:0:0:
139,188,57729,1,0,0:0:0:0:
318,224,57944,1,8,0:0:0:0:
205,354,58158,2,0,P|213:302|231:258,1,97.9999970092774,0|2,0:0|0:0,0:0:0:0:
413,310,58586,1,2,0:0:0:0:
351,132,58801,2,0,P|341:173|328:237,1,97.9999970092774,8|0,0:0|0:0,0:0:0:0:
497,342,59229,5,6,0:0:0:0:
426,199,59444,1,0,0:0:0:0:
316,334,59658,1,8,0:0:0:0:
238,195,59872,1,0,0:0:0:0:
238,195,59979,1,2,0:0:0:0:
238,195,60086,2,0,P|305:213|354:246,1,97.9999970092774,2|2,0:0|0:0,0:0:0:0:
149,306,60515,1,8,0:0:0:0:
128,155,60729,1,0,0:0:0:0:
362,226,60944,5,2,0:0:0:0:
273,90,61158,1,0,0:0:0:0:
212,236,61372,1,8,0:0:0:0:
380,138,61586,2,0,P|332:145|288:165,1,97.9999970092774,2|2,0:0|0:0,0:0:0:0:
75,124,62015,1,0,0:0:0:0:
75,124,62229,2,0,P|128:133|178:158,1,97.9999970092774,8|0,0:0|0:0,0:0:0:0:
78,329,62658,6,0,P|84:255|106:209,1,97.9999970092774,6|0,0:0|0:0,0:0:0:0:
293,324,63086,1,8,0:0:0:0:
180,294,63301,1,0,0:0:0:0:
180,294,63408,1,2,0:0:0:0:
180,294,63515,2,0,P|218:236|254:209,1,97.9999970092774,2|2,0:0|0:0,0:0:0:0:
379,236,63944,1,8,0:0:0:0:
315,152,64158,1,0,0:0:0:0:
315,152,64372,6,0,P|323:103|327:55,1,97.9999970092774,2|0,0:0|0:0,0:0:0:0:
218,36,64801,1,8,0:0:0:0:
430,31,65015,1,0,0:0:0:0:
430,31,65122,1,2,0:0:0:0:
430,31,65229,2,0,P|442:84|459:138,1,97.9999970092774,2|2,0:0|0:0,0:0:0:0:
366,240,65658,1,8,0:0:0:0:
240,154,65872,1,0,0:0:0:0:
240,154,66086,6,0,P|174:151|112:165,1,97.9999970092774,6|0,0:0|0:0,0:0:0:0:
191,317,66515,2,0,P|257:320|319:306,1,97.9999970092774,8|0,0:0|0:0,0:0:0:0:
319,141,66944,1,2,0:0:0:0:
245,232,67158,1,2,0:0:0:0:
390,333,67372,2,0,P|447:314|505:309,1,97.9999970092774,8|0,0:0|0:0,0:0:0:0:
511,170,67801,6,0,P|464:153|416:146,1,97.9999970092774,6|0,0:0|0:0,0:0:0:0:
274,238,68229,2,0,P|189:270|119:271,1,146.999995513916,8|0,0:0|0:0,0:0:0:0:
113,265,68604,1,0,0:0:0:0:
98,255,68658,1,8,0:0:0:0:
88,124,68872,5,2,3:2:0:0:
96,111,68944,1,0,3:0:0:0:
104,98,69015,1,0,3:0:0:0:
116,86,69086,5,8,0:3:0:0:
163,74,69193,1,2,3:2:0:0:
210,83,69301,1,4,3:3:0:0:
250,111,69407,1,2,3:2:0:0:
273,154,69514,5,6,0:0:0:0:
79,154,69729,1,0,0:0:0:0:
305,280,69944,1,8,0:0:0:0:
120,258,70158,1,0,0:0:0:0:
120,258,70265,1,2,0:0:0:0:
120,258,70372,2,0,P|134:313|128:376,1,97.9999970092774,2|2,0:0|0:0,0:0:0:0:
260,227,70801,1,8,0:0:0:0:
385,342,71015,1,0,0:0:0:0:
415,145,71229,5,2,0:0:0:0:
311,291,71444,1,0,0:0:0:0:
502,193,71658,1,8,0:0:0:0:
293,138,71872,2,0,P|247:154|199:153,1,97.9999970092774,2|2,0:0|0:0,0:0:0:0:
382,44,72301,1,0,0:0:0:0:
382,44,72515,2,0,P|391:101|416:155,1,97.9999970092774,8|0,0:0|0:0,0:0:0:0:
172,60,72944,5,6,0:0:0:0:
140,256,73158,1,0,0:0:0:0:
273,105,73372,1,8,0:0:0:0:
72,172,73586,1,0,0:0:0:0:
72,172,73694,1,2,0:0:0:0:
72,172,73801,2,0,P|134:164|188:175,1,97.9999970092774,2|2,0:0|0:0,0:0:0:0:
282,244,74229,1,8,0:0:0:0:
376,28,74444,6,4,P|456:20|504:128,1,195.999994018555,6|2,0:2|0:0,0:0:0:0:
491,291,75086,1,8,0:0:0:0:
358,236,75301,1,0,0:0:0:0:
257,336,75515,1,2,0:0:0:0:
389,368,75729,1,2,0:0:0:0:
256,250,75944,2,0,P|196:249|131:270,1,97.9999970092774,8|0,0:0|0:0,0:0:0:0:
54,119,76372,6,0,P|38:66|53:7,1,97.9999970092774,6|0,0:0|0:0,0:0:0:0:
222,44,76801,1,8,0:0:0:0:
137,188,77015,1,0,0:0:0:0:
137,188,77122,1,2,0:0:0:0:
137,188,77229,2,0,P|188:169|241:169,1,97.9999970092774,2|2,0:0|0:0,0:0:0:0:
354,244,77658,1,8,0:0:0:0:
377,103,77872,1,0,0:0:0:0:
377,103,78086,6,0,P|325:152|293:200,1,97.9999970092774,2|0,0:0|0:0,0:0:0:0:
372,322,78515,1,8,0:0:0:0:
455,215,78729,1,0,0:0:0:0:
266,292,78944,2,0,P|204:296|128:273,1,97.9999970092774,2|2,0:0|0:0,0:0:0:0:
85,178,79372,1,8,0:0:0:0:
203,110,79586,1,0,0:0:0:0:
203,110,79694,1,2,0:0:0:0:
203,110,79801,6,0,P|210:181|203:223,1,97.9999970092774,6|0,0:0|0:0,0:0:0:0:
80,365,80229,2,0,P|73:294|80:252,1,97.9999970092774,8|0,0:0|0:0,0:0:0:0:
228,346,80658,1,2,0:0:0:0:
332,231,80872,1,2,0:0:0:0:
438,349,81086,2,0,P|378:328|313:331,1,97.9999970092774,8|0,0:0|0:0,0:0:0:0:
219,241,81515,6,0,P|152:265|117:290,1,97.9999970092774,6|0,0:0|0:0,0:0:0:0:
341,228,81944,1,8,0:0:0:0:
203,132,82158,1,0,0:0:0:0:
209,125,82229,1,2,0:2:0:0:
219,115,82301,1,2,3:2:0:0:
237,106,82372,1,8,0:0:0:0:
136,30,82586,1,4,3:0:0:0:
68,124,82801,1,8,0:3:0:0:
111,212,83015,1,4,0:3:0:0:
184,248,83229,6,0,P|248:235|281:235,2,70,6|0|0,0:0|0:0|0:0,0:0:0:0:
123,167,83872,2,0,P|214:141|284:141,1,140,2|0,0:0|0:0,0:0:0:0:
344,203,84515,2,0,P|406:214|442:211,1,70,2|0,0:0|0:0,0:0:0:0:
468,82,84944,6,0,P|424:103|398:124,2,70,2|0|0,0:0|0:0|0:0,0:0:0:0:
361,24,85586,2,0,P|292:43|220:28,1,140,2|0,0:0|0:0,0:0:0:0:
119,71,86229,1,2,0:0:0:0:
223,149,86444,1,0,0:0:0:0:
240,134,86551,1,0,0:0:0:0:
260,124,86658,6,0,P|316:120|348:124,1,70,2|0,0:0|0:0,0:0:0:0:
426,160,87086,1,0,0:0:0:0:
336,234,87301,2,0,P|331:288|369:364,1,140,2|0,0:0|0:0,0:0:0:0:
500,321,87944,2,0,P|451:301|413:298,1,70,2|0,0:0|0:0,0:0:0:0:
492,188,88372,6,0,P|497:138|513:99,2,70,2|0|0,0:0|0:0|0:0,0:0:0:0:
394,128,89015,2,0,P|337:113|268:170,1,140,2|0,0:0|0:0,0:0:0:0:
284,264,89658,1,2,0:0:0:0:
373,262,89872,2,8,P|362:227|341:186,1,70,2|0,2:2|0:0,0:0:0:0:
