osu file format v14

[General]
AudioFilename: audio.mp3
AudioLeadIn: 0
PreviewTime: 14444
Countdown: 1
SampleSet: Soft
StackLeniency: 0.7
Mode: 0
LetterboxInBreaks: 0
WidescreenStoryboard: 1

[Editor]
DistanceSpacing: 1.2
BeatDivisor: 6
GridSize: 4
TimelineZoom: 1

[Metadata]
Title:knowing
TitleUnicode:knowing
Artist:Marika
ArtistUnicode:真里歌
Creator:Naotoshi
Version:Hard
Source:俺の彼女のウラオモテ
Tags:ore no kanojo uraomote eroge visual novel Nonoura aries meis clauson lasse mir
BeatmapID:1433215
BeatmapSetID:677700

[Difficulty]
HPDrainRate:4.9
CircleSize:3.5
OverallDifficulty:6.3
ApproachRate:7
SliderMultiplier:1.1
SliderTickRate:1

[Events]
//Background and Video events
0,0,"241468.jpg",0,0
//Break Periods
//Storyboard Layer 0 (Background)
//Storyboard Layer 1 (Fail)
//Storyboard Layer 2 (Pass)
//Storyboard Layer 3 (Foreground)
//Storyboard Sound Samples

[TimingPoints]
944,428.571428571429,4,2,1,35,1,0
14658,-100,4,2,1,40,0,0
27944,-100,4,2,5,60,0,0
28372,-83.3333333333333,4,2,5,60,0,0
41658,-133.333333333333,4,2,5,60,0,0
41979,-133.333333333333,4,2,5,10,0,0
42086,-100,4,2,5,50,0,0
48944,-83.3333333333333,4,2,5,60,0,0
54944,-83.3333333333333,4,2,5,65,0,0
55801,-71.4285714285714,4,2,5,75,0,1
83229,-100,4,2,5,60,0,0
83444,-100,4,2,1,40,0,0
90086,-100,4,2,1,5,0,0
90944,-100,4,2,1,5,0,0

[Colours]
Combo1 : 239,112,80
Combo2 : 237,133,18
Combo3 : 88,163,231

[HitObjects]
230,235,944,6,0,P|219:190|201:168,2,55,2|0|0,0:0|0:0|0:0,0:0:0:0:
173,313,1586,2,0,P|220:329|292:313,1,110,2|0,0:0|0:0,0:0:0:0:
351,259,2229,1,2,0:0:0:0:
403,75,2658,6,0,P|447:50|466:45,2,55,2|0|0,0:0|0:0|0:0,0:0:0:0:
315,110,3301,2,0,P|261:99|195:130,1,110,2|0,0:0|0:0,0:0:0:0:
152,195,3944,2,0,P|162:244|161:269,1,55,2|2,0:0|0:0,0:0:0:0:
149,286,4265,1,0,0:0:0:0:
124,322,4372,6,0,P|79:312|53:313,2,55,2|0|0,0:0|0:0|0:0,0:0:0:0:
218,365,5015,2,0,P|294:348|339:359,1,110,2|0,0:0|0:0,0:0:0:0:
414,320,5658,1,2,0:0:0:0:
371,149,6086,6,0,P|367:176|367:204,2,55,2|0|0,0:0|0:0|0:0,0:0:0:0:
470,118,6729,2,0,P|474:51|421:38,1,110,2|0,0:0|0:0,0:0:0:0:
349,53,7372,1,2,0:0:0:0:
259,188,7801,6,0,P|221:188|191:183,2,55,2|0|0,0:0|0:0|0:0,0:0:0:0:
359,174,8444,2,0,P|350:233|321:275,1,110,2|0,0:0|0:0,0:0:0:0:
220,275,9086,2,0,P|167:268|142:271,1,55,2|0,0:0|0:0,0:0:0:0:
127,288,9408,1,0,0:0:0:0:
93,314,9515,6,0,P|95:355|92:378,2,55,2|0|0,0:0|0:0|3:0,0:0:0:0:
35,230,10158,1,0,0:0:0:0:
105,164,10372,2,0,L|99:83,2,73.3333333333333,2|0|0,2:2|0:0|0:0,0:0:0:0:
227,171,11229,6,0,P|276:166|298:170,2,55,2|0|0,0:0|0:0|0:0,0:0:0:0:
212,270,11872,2,0,P|263:275|324:262,1,110,2|0,0:0|0:0,0:0:0:0:
387,190,12515,2,0,P|431:187|461:191,1,55,2|0,0:0|0:0,0:0:0:0:
472,203,12836,1,0,0:0:0:0:
500,230,12944,6,0,P|504:277|516:306,2,55,2|0|0,0:0|0:0|0:0,0:0:0:0:
467,120,13586,2,0,P|413:83|347:78,1,110,2|0,0:0|0:0,0:0:0:0:
286,141,14229,1,2,0:0:0:0:
93,88,14658,6,0,P|67:152|86:212,1,110,2|0,0:0|0:0,0:0:0:0:
163,250,15301,2,0,P|219:234|285:249,1,110,2|0,0:0|0:0,0:0:0:0:
349,301,15944,2,0,P|390:286|418:271,1,55,2|0,0:0|0:0,0:0:0:0:
487,180,16372,6,0,P|458:128|406:111,1,110,2|0,0:0|0:0,0:0:0:0:
321,182,17015,2,0,P|266:194|204:182,1,110,2|0,0:0|0:0,0:0:0:0:
142,101,17658,1,2,0:0:0:0:
261,93,17872,1,0,0:0:0:0:
405,139,18086,6,0,P|411:202|390:267,1,110,2|0,0:0|0:0,0:0:0:0:
290,273,18729,2,0,P|238:251|171:255,2,110,2|0|0,0:0|0:0|0:0,0:0:0:0:
366,361,19801,6,0,P|419:366|439:364,2,55,2|0|0,0:0|0:0|0:0,0:0:0:0:
391,252,20444,1,2,0:0:0:0:
244,101,20872,1,0,0:0:0:0:
168,160,21086,2,0,P|118:166|89:160,1,55,2|0,0:0|0:0,0:0:0:0:
82,140,21408,1,0,0:0:0:0:
68,89,21515,6,0,P|140:68|185:73,1,110,2|0,0:0|0:0,0:0:0:0:
282,133,22158,1,2,0:0:0:0:
282,133,22372,2,0,P|346:111|392:70,1,110,2|2,2:0|0:0,0:0:0:0:
474,148,23015,1,0,0:0:0:0:
372,233,23229,6,0,P|369:286|369:307,2,55,2|0|0,0:0|0:0|3:0,0:0:0:0:
267,238,23872,2,0,P|218:255|164:285,1,110,2|0,0:0|0:0,0:0:0:0:
82,355,24515,2,0,P|70:300|66:290,1,55,2|0,0:0|0:0,0:0:0:0:
4,151,24944,6,0,P|69:109|117:124,1,110,2|0,0:0|0:0,0:0:0:0:
205,176,25586,1,2,0:0:0:0:
205,176,25801,2,0,P|269:180|329:170,1,110,2|0,2:0|0:0,0:0:0:0:
403,110,26444,1,0,0:0:0:0:
299,35,26658,6,0,P|289:72|289:105,2,55,2|0|0,0:0|0:0|3:0,0:0:0:0:
414,16,27301,2,0,P|423:52|423:126,1,110,2|0,0:0|0:0,0:0:0:0:
330,291,27944,1,8,0:0:0:0:
114,162,28372,6,0,P|172:139|255:174,1,131.99999597168,6|8,0:0|0:0,0:0:0:0:
332,262,29015,2,0,P|393:263|444:218,1,131.99999597168
441,64,29658,1,8,0:0:0:0:
360,167,29872,1,0,0:0:0:0:
252,75,30086,6,0,P|198:58|112:75,1,131.99999597168,2|8,0:0|0:0,0:0:0:0:
63,178,30729,2,0,P|82:215|85:322,1,131.99999597168,0|0,0:0|0:0,0:0:0:0:
202,365,31372,1,8,0:0:0:0:
294,273,31586,1,0,0:0:0:0:
190,186,31801,6,0,P|118:196|57:174,1,131.99999597168,2|8,0:0|0:0,0:0:0:0:
8,35,32444,1,0,0:0:0:0:
8,35,32658,2,0,P|68:18|101:18,1,65.9999979858399,2|0,0:0|0:0,0:0:0:0:
196,73,33086,2,0,P|247:80|289:73,1,65.9999979858399,8|0,0:0|0:0,0:0:0:0:
363,25,33515,6,0,P|387:69|392:101,1,65.9999979858399,2|0,0:0|0:0,0:0:0:0:
463,183,33944,2,0,P|472:151|490:123,2,65.9999979858399,8|0|2,0:0|0:0|0:0,0:0:0:0:
486,313,34586,1,0,0:0:0:0:
373,276,34801,2,0,P|387:216|384:182,1,65.9999979858399,8|0,0:0|0:0,0:0:0:0:
378,180,35122,1,0,0:0:0:0:
363,137,35229,6,0,P|299:156|216:148,1,131.99999597168,2|8,0:0|0:0,0:0:0:0:
139,65,35872,1,0,0:0:0:0:
264,0,36086,2,0,P|282:49|280:90,1,65.9999979858399,2|0,0:0|0:0,0:0:0:0:
185,189,36515,2,0,P|173:234|179:282,1,65.9999979858399,8|0,0:0|0:0,0:0:0:0:
265,345,36944,6,0,P|319:360|405:333,1,131.99999597168,2|8,0:0|0:0,0:0:0:0:
387,235,37586,2,0,P|333:220|247:247,1,131.99999597168,0|0,0:0|0:0,0:0:0:0:
175,346,38229,2,0,P|131:350|105:351,1,65.9999979858399,8|0,0:0|0:0,0:0:0:0:
26,208,38658,6,0,P|53:154|132:159,1,131.99999597168,2|8,0:0|0:0,0:0:0:0:
250,226,39301,2,0,P|309:240|388:216,1,131.99999597168,0|0,0:0|0:0,0:0:0:0:
454,109,39944,1,8,0:0:0:0:
337,41,40158,1,0,0:0:0:0:
337,41,40372,6,0,P|293:75|257:85,1,65.9999979858399,2|0,0:0|0:0,0:0:0:0:
143,22,40801,1,8,0:0:0:0:
208,146,41015,1,0,3:1:0:0:
208,146,41122,1,0,3:0:0:0:
208,146,41229,2,0,P|209:199|199:231,1,65.9999979858399,2|2,3:2|0:0,0:0:0:0:
82,297,41658,6,0,P|88:249|99:229,1,61.875002360344,8|0,0:0|0:0,0:0:0:0:
132,222,42086,6,0,P|186:260|248:264,1,110,6|8,0:0|0:0,0:0:0:0:
329,206,42729,2,0,P|379:189|440:214,1,110,2|0,0:0|0:0,0:0:0:0:
479,291,43372,1,8,0:0:0:0:
284,336,43801,6,0,P|269:290|229:231,1,110,2|8,0:0|0:0,0:0:0:0:
340,199,44444,2,0,P|358:144|395:95,1,110,2|0,0:0|0:0,0:0:0:0:
325,13,45086,1,8,0:0:0:0:
253,231,45515,6,0,L|221:124,1,110,2|8,0:0|0:0,0:0:0:0:
61,198,46158,2,0,P|97:236|163:248,1,110,2|2,0:0|0:0,0:0:0:0:
142,158,46801,1,8,0:0:0:0:
182,338,47229,6,0,P|232:347|302:315,1,110,2|8,0:0|0:0,0:0:0:0:
363,239,47872,2,0,P|395:278|400:346,1,110,2|2,0:0|0:0,0:0:0:0:
473,192,48515,1,8,0:0:0:0:
328,100,48944,6,0,P|279:97|254:101,1,65.9999979858399,6|0,0:0|0:0,0:0:0:0:
170,165,49372,1,8,0:0:0:0:
285,243,49586,1,0,0:0:0:0:
285,243,49801,2,0,P|297:188|294:165,1,65.9999979858399,2|0,0:0|0:0,0:0:0:0:
408,256,50229,1,8,0:0:0:0:
326,362,50444,2,0,P|261:354|249:357,1,65.9999979858399,0|2,0:0|0:0,0:0:0:0:
154,380,50872,1,0,0:0:0:0:
67,292,51086,2,0,P|68:238|76:209,1,65.9999979858399,8|0,0:0|0:0,0:0:0:0:
151,131,51515,6,0,P|190:111|233:108,1,65.9999979858399,2|0,0:0|0:0,0:0:0:0:
269,246,51944,2,0,P|232:222|208:186,1,65.9999979858399,8|0,0:0|0:0,0:0:0:0:
310,87,52372,2,0,P|307:130|288:169,2,65.9999979858399,2|0|8,0:0|0:0|0:0,0:0:0:0:
412,36,53015,2,0,P|418:99|466:162,1,131.99999597168,0|0,0:0|0:0,0:0:0:0:
388,248,53658,1,8,0:0:0:0:
496,311,53872,2,0,P|493:256|482:220,2,65.9999979858399,0|2|0,0:0|0:0|0:0,0:0:0:0:
399,364,54515,1,8,0:0:0:0:
172,229,54944,5,8,0:0:0:0:
172,229,55051,1,8,0:0:0:0:
172,229,55158,2,0,L|195:174,1,32.99999899292,2|2,0:0|0:0,0:0:0:0:
272,175,55372,2,0,P|259:144|258:91,1,65.9999979858399,8|0,0:0|0:0,0:0:0:0:
159,42,55801,5,6,0:0:0:0:
60,153,56015,1,0,0:0:0:0:
162,239,56229,1,8,0:0:0:0:
274,140,56444,2,0,P|324:125|402:206,1,153.999995300293,0|2,0:0|0:0,0:0:0:0:
376,322,57086,1,8,0:0:0:0:
249,261,57301,1,0,0:0:0:0:
118,336,57515,6,0,P|119:263|134:236,1,76.9999976501466,2|0,0:0|0:0,0:0:0:0:
211,168,57944,1,8,0:0:0:0:
308,268,58158,2,0,P|374:284|450:234,1,153.999995300293,0|2,0:0|0:0,0:0:0:0:
363,176,58801,1,8,0:0:0:0:
241,12,59229,5,6,0:0:0:0:
371,51,59444,1,0,0:0:0:0:
247,134,59658,1,8,0:0:0:0:
364,194,59872,2,0,P|354:242|265:300,1,153.999995300293,0|2,0:0|0:0,0:0:0:0:
152,220,60515,1,8,0:0:0:0:
48,305,60729,1,2,0:0:0:0:
48,305,60836,1,2,0:0:0:0:
48,305,60944,6,0,P|45:366|58:393,1,76.9999976501466,2|2,0:0|0:0,0:0:0:0:
163,330,61372,1,8,0:0:0:0:
61,203,61586,2,0,P|39:111|57:26,1,153.999995300293,0|2,0:0|0:0,0:0:0:0:
143,114,62229,1,8,0:0:0:0:
356,27,62658,6,0,P|372:89|364:178,1,153.999995300293,6|8,0:0|0:0,0:0:0:0:
483,152,63301,1,0,0:0:0:0:
483,152,63408,1,2,0:0:0:0:
483,152,63515,2,0,P|469:237|483:311,1,153.999995300293,2|8,0:0|0:0,0:0:0:0:
349,282,64158,1,0,0:0:0:0:
349,282,64372,6,0,P|296:300|257:301,1,76.9999976501466,2|0,0:0|0:0,0:0:0:0:
174,216,64801,1,8,0:0:0:0:
65,306,65015,2,0,P|69:249|33:144,1,153.999995300293,0|2,0:0|0:0,0:0:0:0:
133,64,65658,1,8,0:0:0:0:
247,130,65872,1,0,0:0:0:0:
247,130,65979,1,2,0:0:0:0:
247,130,66086,6,0,P|298:137|351:126,1,76.9999976501466,6|0,0:0|0:0,0:0:0:0:
468,39,66515,2,0,P|429:37|392:44,1,76.9999976501466,8|0,0:0|0:0,0:0:0:0:
440,143,66944,2,0,P|444:181|438:239,1,76.9999976501466,2|2,0:0|0:0,0:0:0:0:
331,319,67372,2,0,P|327:281|333:223,1,76.9999976501466,8|0,0:0|0:0,0:0:0:0:
208,206,67801,5,6,0:0:0:0:
208,206,68015,1,0,0:0:0:0:
129,305,68229,2,0,P|75:308|45:300,1,76.9999976501466,8|0,0:0|0:0,0:0:0:0:
35,283,68551,1,0,0:0:0:0:
22,260,68658,1,8,0:0:0:0:
95,161,68872,5,8,3:2:0:0:
95,161,68979,1,8,0:0:0:0:
95,161,69086,2,0,L|103:107,1,38.4999988250733,8|0,0:3|3:0,0:0:0:0:
185,78,69301,2,0,L|193:131,1,38.4999988250733,4|0,3:3|0:0,0:0:0:0:
274,144,69515,6,0,P|326:126|372:131,1,76.9999976501466,6|0,0:0|0:0,0:0:0:0:
439,166,69944,1,8,0:0:0:0:
319,243,70158,2,0,B|244:273|242:221|147:254,1,153.999995300293,0|2,0:0|0:0,0:0:0:0:
95,339,70801,1,8,0:0:0:0:
202,333,71015,1,0,0:0:0:0:
69,235,71229,6,0,P|65:189|83:147,1,76.9999976501466,2|0,0:0|0:0,0:0:0:0:
194,111,71658,1,8,0:0:0:0:
323,166,71872,2,0,P|338:116|403:37,1,153.999995300293,0|2,0:0|0:0,0:0:0:0:
489,124,72515,1,8,0:0:0:0:
341,330,72944,5,6,0:0:0:0:
217,287,73158,1,0,0:0:0:0:
101,356,73372,1,8,0:0:0:0:
91,207,73586,2,0,P|129:137|206:105,1,153.999995300293,0|2,0:0|0:0,0:0:0:0:
299,190,74229,1,8,0:0:0:0:
420,59,74444,6,0,P|396:115|413:224,1,153.999995300293,6|0,0:0|0:0,0:0:0:0:
487,310,75086,1,8,0:0:0:0:
314,303,75301,2,0,P|252:299|206:299,1,76.9999976501466,0|2,0:0|0:0,0:0:0:0:
119,336,75729,1,2,0:0:0:0:
187,208,75944,1,8,0:0:0:0:
13,203,76372,6,0,P|29:125|72:53,1,153.999995300293,6|8,0:0|0:0,0:0:0:0:
200,110,77015,1,0,0:0:0:0:
200,110,77229,2,0,P|273:116|366:74,1,153.999995300293,2|8,0:0|0:0,0:0:0:0:
469,146,77872,1,0,0:0:0:0:
469,146,77979,1,2,0:0:0:0:
469,146,78086,6,0,P|485:208|484:247,1,76.9999976501466,2|0,0:0|0:0,0:0:0:0:
378,288,78515,1,8,0:0:0:0:
307,170,78729,1,0,0:0:0:0:
307,170,78944,2,0,P|324:97|342:70,1,76.9999976501466,2|2,0:0|0:0,0:0:0:0:
421,58,79372,1,8,0:0:0:0:
244,18,79586,6,0,P|182:10|80:62,1,153.999995300293,0|0,0:0|0:0,0:0:0:0:
72,170,80229,2,0,P|69:227|72:276,1,76.9999976501466,8|0,0:0|0:0,0:0:0:0:
198,319,80658,1,2,0:0:0:0:
173,205,80872,1,2,0:0:0:0:
290,273,81086,2,0,P|353:268|386:251,1,76.9999976501466,8|0,0:0|0:0,0:0:0:0:
468,186,81515,6,0,P|480:252|477:291,1,76.9999976501466,6|0,0:0|0:0,0:0:0:0:
364,166,81944,1,8,0:0:0:0:
270,248,82158,1,0,0:0:0:0:
270,248,82265,1,0,0:0:0:0:
270,248,82372,2,0,P|211:252|167:241,1,76.9999976501466,8|4,0:0|3:0,0:0:0:0:
122,150,82801,1,8,0:0:0:0:
228,157,83015,1,4,0:3:0:0:
295,92,83229,6,0,L|298:32,2,55,6|0|0,0:0|0:0|0:0,0:0:0:0:
376,140,83872,2,0,P|421:123|497:148,1,110,2|0,0:0|0:0,0:0:0:0:
468,255,84515,2,0,P|443:233|429:202,1,55,2|0,0:0|0:0,0:0:0:0:
354,275,84944,6,0,P|313:273|286:280,2,55,2|0|0,0:0|0:0|0:0,0:0:0:0:
386,354,85586,2,0,P|328:368|277:358,1,110,2|0,0:0|0:0,0:0:0:0:
205,302,86229,1,2,0:0:0:0:
123,346,86444,1,0,0:0:0:0:
37,281,86658,6,0,P|39:236|36:213,2,55,2|0|0,0:0|0:0|0:0,0:0:0:0:
136,241,87301,2,0,P|126:191|87:125,1,110,2|0,0:0|0:0,0:0:0:0:
25,79,87944,1,2,0:0:0:0:
201,66,88372,6,0,P|244:62|277:53,2,55,2|0|0,0:0|0:0|0:0,0:0:0:0:
167,154,89015,2,0,P|243:154|293:164,1,110,2|0,0:0|0:0,0:0:0:0:
365,213,89658,2,0,P|421:196|427:136,1,110,2|0,0:0|0:0,0:0:0:0:
