osu file format v14

[General]
AudioFilename: audio.mp3
AudioLeadIn: 0
PreviewTime: 14444
Countdown: 1
SampleSet: Soft
StackLeniency: 0.7
Mode: 0
LetterboxInBreaks: 0
WidescreenStoryboard: 1

[Editor]
DistanceSpacing: 1.1
BeatDivisor: 4
GridSize: 4
TimelineZoom: 1

[Metadata]
Title:knowing
TitleUnicode:knowing
Artist:Marika
ArtistUnicode:真里歌
Creator:Naotoshi
Version:Easy
Source:俺の彼女のウラオモテ
Tags:ore no kanojo uraomote eroge visual novel Nonoura aries meis clauson lasse mir
BeatmapID:1433214
BeatmapSetID:677700

[Difficulty]
HPDrainRate:2.3
CircleSize:2.5
OverallDifficulty:2.4
ApproachRate:3
SliderMultiplier:0.8
SliderTickRate:1

[Events]
//Background and Video events
0,0,"241468.jpg",0,0
//Break Periods
//Storyboard Layer 0 (Background)
//Storyboard Layer 1 (Fail)
//Storyboard Layer 2 (Pass)
//Storyboard Layer 3 (Foreground)
//Storyboard Sound Samples

[TimingPoints]
944,428.571428571429,4,2,1,35,1,0
14658,-100,4,2,1,40,0,0
27944,-100,4,2,5,60,0,0
28372,-90.9090909090909,4,2,5,60,0,0
41979,-90.9090909090909,4,2,5,10,0,0
42086,-100,4,2,5,50,0,0
48944,-90.9090909090909,4,2,5,60,0,0
54944,-90.9090909090909,4,2,5,65,0,0
55801,-80,4,2,5,75,0,1
83229,-100,4,2,5,60,0,0
83444,-100,4,2,1,40,0,0
90086,-100,4,2,1,5,0,0
90944,-100,4,2,1,5,0,0

[Colours]
Combo1 : 239,112,80
Combo2 : 237,133,18
Combo3 : 88,163,231

[HitObjects]
253,178,944,6,0,P|205:160|128:173,2,120,2|2|2,0:0|0:0|0:0,0:0:0:0:
318,236,2658,2,0,P|366:254|443:241,2,120,2|2|2,0:0|0:0|0:0,0:0:0:0:
330,148,4372,6,0,P|332:61|307:20,2,120,2|2|2,0:0|0:0|0:0,0:0:0:0:
263,205,6086,2,0,P|261:292|286:333,2,120,2|2|2,0:0|0:0|0:0,0:0:0:0:
192,152,7801,6,0,P|109:140|63:159,2,120,2|2|2,0:0|0:0|0:0,0:0:0:0:
192,240,9515,2,0,P|134:253|76:239,2,120,2|2|2,0:0|0:0|0:0,0:0:0:0:
264,196,11229,6,0,P|276:256|232:313,2,120,2|2|2,0:0|0:0|0:0,0:0:0:0:
176,181,12944,2,0,P|146:231|158:288,2,120,2|2|2,0:0|0:0|0:0,0:0:0:0:
257,152,14658,5,2,0:0:0:0:
337,188,15086,2,0,B|372:176|372:176|421:190|464:176|493:137,1,160,0|2,0:0|0:0,0:0:0:0:
479,58,16372,1,0,0:0:0:0:
391,52,16801,2,0,L|309:78,1,80,0|2,3:0|0:0,0:0:0:0:
250,136,17658,1,2,0:0:0:0:
162,141,18086,6,0,P|125:89|173:13,1,160,2|0,0:0|0:0,0:0:0:0:
254,37,19372,1,2,0:0:0:0:
326,86,19801,2,0,P|378:101|454:75,2,120,2|2|2,0:0|0:0|0:0,0:0:0:0:
253,136,21515,6,0,P|242:200|302:275,1,160,2|2,0:0|2:2,0:0:0:0:
378,242,22801,1,2,0:0:0:0:
453,286,23229,2,0,P|466:225|429:168,2,120,2|2|2,0:0|0:0|0:0,0:0:0:0:
380,335,24944,6,0,P|306:327|250:346,2,120,2|2|0,0:0|0:0|0:0,0:0:0:0:
463,363,26658,2,0,P|482:310|447:214,1,160,2|0,0:0|0:0,0:0:0:0:
370,176,27944,1,8,0:0:0:0:
287,226,28372,6,0,P|241:250|186:255,1,88.000002685547,6|8,0:0|0:0,0:0:0:0:
165,167,29229,2,0,P|135:134|96:114,1,88.000002685547,2|8,0:0|0:0,0:0:0:0:
6,149,30086,2,0,P|-4:204|1:247,1,88.000002685547,2|8,2:2|2:2,2:2:0:0:
82,284,30944,2,0,P|125:280|168:291,1,88.000002685547,2|8,2:2|2:2,2:0:0:0:
234,363,31801,5,2,0:0:0:0:
283,279,32229,2,0,P|342:249|382:249,2,88.000002685547,8|2|8,0:0|0:0|0:0,0:0:0:0:
188,258,33515,2,0,P|155:207|207:111,1,176.000005371094,2|2,0:0|0:0,0:0:0:0:
294,143,34801,1,8,0:0:0:0:
373,87,35229,6,0,P|419:68|500:81,2,132.00000402832,2|0|8,0:0|0:0|0:0,0:0:0:0:
282,50,36944,2,0,P|219:48|189:58,2,88.000002685547,2|8|2,0:0|0:0|0:0,0:0:0:0:
243,138,38229,1,8,0:0:0:0:
152,172,38658,6,0,P|164:228|186:264,1,88.000002685547,2|8,0:0|0:0,0:0:0:0:
224,235,39301,2,0,P|282:211|361:238,1,132.00000402832,2|8,0:0|0:0,0:0:0:0:
439,255,40372,2,0,P|441:209|418:159,1,88.000002685547,2|8,0:0|0:0,0:0:0:0:
359,105,41229,2,0,P|355:68|355:46,2,44.0000013427735,2|2|8,3:2|0:0|0:0,0:0:0:0:
291,171,42086,6,0,P|262:181|176:159,2,120,6|2|8,0:0|0:0|0:0,0:0:0:0:
351,107,43801,2,0,P|356:76|418:13,2,120,2|2|8,0:0|0:0|0:0,0:0:0:0:
377,191,45515,6,0,P|400:211|424:296,2,120,2|2|8,0:0|0:0|0:0,0:0:0:0:
315,253,47229,2,0,P|252:268|189:253,1,120,2|2,0:0|0:0,0:0:0:0:
155,180,48301,2,0,L|100:180,1,40,2|8,0:0|0:0,0:0:0:0:
25,217,48944,6,0,P|19:167|108:85,1,176.000005371094,6|2,0:0|0:0,0:0:0:0:
198,84,50229,1,8,0:0:0:0:
238,171,50658,2,0,P|296:165|336:144,1,88.000002685547,2|8,0:0|0:0,0:0:0:0:
403,99,51515,1,2,0:0:0:0:
467,174,51944,1,8,0:0:0:0:
403,247,52372,6,0,P|402:293|423:341,1,88.000002685547,2|8,0:0|0:0,0:0:0:0:
492,271,53229,2,0,P|495:219|479:179,1,88.000002685547,2|8,0:0|0:0,0:0:0:0:
394,147,54086,2,0,P|341:148|299:134,1,88.000002685547,2|8,0:0|0:0,0:0:0:0:
226,182,54944,2,0,P|230:235|230:242,2,44.0000013427735,8|2|8,0:0|0:0|0:0,0:0:0:0:
156,114,55801,6,0,P|114:111|53:139,1,100,6|8,0:0|0:0,0:0:0:0:
43,183,56444,2,0,P|44:225|140:290,1,150,2|8,0:0|0:0,0:0:0:0:
221,244,57515,1,2,0:0:0:0:
317,296,57944,1,8,0:0:0:0:
424,247,58372,2,0,P|382:199|338:180,1,100,2|8,0:0|0:0,0:0:0:0:
363,74,59229,6,0,P|413:74|470:51,1,100,6|8,0:0|0:0,0:0:0:0:
504,89,59872,2,0,P|527:146|517:239,1,150,2|8,0:0|0:0,0:0:0:0:
410,247,60944,2,0,P|364:256|301:340,1,150,2|0,0:0|0:0,0:0:0:0:
193,348,62015,2,0,L|126:349,1,50,2|8,0:0|0:0,0:0:0:0:
39,310,62658,6,0,P|21:263|34:205,1,100,6|8,0:0|0:0,0:0:0:0:
67,175,63301,2,0,P|123:195|208:167,1,150,2|8,0:0|0:0,0:0:0:0:
281,87,64372,2,0,P|331:76|391:103,1,100,2|8,0:0|0:0,0:0:0:0:
442,179,65229,1,2,0:0:0:0:
365,258,65658,1,8,0:0:0:0:
262,218,66086,6,0,P|180:223|148:244,1,100,6|8,0:0|0:0,0:0:0:0:
130,335,66944,2,0,P|212:330|244:309,1,100,2|8,0:0|0:0,0:0:0:0:
331,354,67801,1,6,0:0:0:0:
408,275,68229,2,0,P|387:225|424:126,1,150,8|0,0:0|3:0,0:0:0:0:
454,100,69086,1,8,0:3:0:0:
362,38,69515,6,0,P|294:19|227:68,1,150,6|0,0:0|0:0,0:0:0:0:
180,157,70586,2,0,L|168:216,1,50,2|8,0:0|0:0,0:0:0:0:
77,143,71229,2,0,P|103:86|150:61,1,100,2|8,0:0|0:0,0:0:0:0:
187,56,71872,2,0,P|265:80|332:67,1,150,2|8,0:0|0:0,0:0:0:0:
440,78,72944,6,0,P|456:141|407:219,1,150,6|2,0:0|0:0,0:0:0:0:
307,221,74015,1,2,0:0:0:0:
273,178,74229,2,0,B|220:185|220:185|170:165,1,100,8|2,0:0|0:0,0:0:0:0:
82,225,75086,1,8,0:0:0:0:
139,318,75515,1,2,0:0:0:0:
244,285,75944,1,8,0:0:0:0:
351,310,76372,6,0,P|376:255|341:161,1,150,6|0,0:0|0:0,0:0:0:0:
306,141,77229,2,0,P|258:158|193:146,1,100,2|8,0:0|0:0,0:0:0:0:
150,62,78086,2,0,P|105:117|113:205,1,150,2|0,0:0|0:0,0:0:0:0:
138,238,78944,1,2,0:0:0:0:
240,277,79372,1,8,0:0:0:0:
331,215,79801,6,0,P|391:198|435:203,2,100,6|8|2,0:0|0:0|0:0,0:0:0:0:
390,307,81086,1,8,0:0:0:0:
283,334,81515,2,0,B|178:293|186:365|67:318,1,200,6|8,0:0|0:0,0:0:0:0:
36,228,82801,1,8,0:0:0:0:
133,236,83229,5,6,0:0:0:0:
237,155,83872,1,2,0:0:0:0:
356,210,84515,1,2,0:0:0:0:
396,131,84944,2,0,P|402:72|451:26,2,120,2|2|2,0:0|0:0|0:0,0:0:0:0:
456,194,86658,5,2,0:0:0:0:
362,287,87301,1,2,0:0:0:0:
256,207,87944,1,2,0:0:0:0:
189,264,88372,2,0,P|134:249|65:269,2,120,2|2|0,0:0|0:0|0:0,0:0:0:0:
