osu file format v14

[General]
AudioFilename: audio.mp3
AudioLeadIn: 0
PreviewTime: 14444
Countdown: 1
SampleSet: Soft
StackLeniency: 0.5
Mode: 0
LetterboxInBreaks: 0
WidescreenStoryboard: 1

[Editor]
Bookmarks: 944,14658,28372,35229,42086,48944,55801,69515,83229,89872
DistanceSpacing: 1.2
BeatDivisor: 6
GridSize: 32
TimelineZoom: 2.1

[Metadata]
Title:knowing
TitleUnicode:knowing
Artist:Marika
ArtistUnicode:真里歌
Creator:Naotoshi
Version:Collab Insane
Source:俺の彼女のウラオモテ
Tags:ore no kanojo uraomote eroge visual novel Nonoura aries meis clauson lasse mir
BeatmapID:1433173
BeatmapSetID:677700

[Difficulty]
HPDrainRate:5
CircleSize:4
OverallDifficulty:7
ApproachRate:7.7
SliderMultiplier:1.7
SliderTickRate:1

[Events]
//Background and Video events
0,0,"241468.jpg",0,0
//Break Periods
//Storyboard Layer 0 (Background)
//Storyboard Layer 1 (Fail)
//Storyboard Layer 2 (Pass)
//Storyboard Layer 3 (Foreground)
//Storyboard Sound Samples

[TimingPoints]
944,428.571428571429,4,2,1,35,1,0
14658,-100,4,2,1,40,0,0
27944,-100,4,2,5,60,0,0
28372,-83.3333333333333,4,2,5,60,0,0
40372,-100,4,2,5,60,0,0
41658,-200,4,2,5,60,0,0
41979,-133.333333333333,4,2,5,10,0,0
42086,-125,4,2,5,50,0,0
48944,-100,4,2,5,60,0,0
51515,-111.111111111111,4,2,1,60,0,0
52372,-90.9090909090909,4,2,1,60,0,0
52586,-90.9090909090909,4,2,5,60,0,0
54944,-83.3333333333333,4,2,5,65,0,0
55372,-66.6666666666667,4,2,5,65,0,0
55801,-76.9230769230769,4,2,5,75,0,1
83229,-100,4,2,5,60,0,0
83444,-100,4,2,1,40,0,0
90086,-100,4,2,1,5,0,0

[Colours]
Combo1 : 239,112,80
Combo2 : 237,133,18
Combo3 : 88,163,231

[HitObjects]
130,151,944,6,0,L|122:263,2,85,2|0|0,0:0|0:0|0:0,0:0:0:0:
188,78,1586,2,0,P|232:73|286:83,1,85,2|0,0:0|0:0,0:0:0:0:
353,135,2015,2,0,P|397:140|451:130,1,85,2|2,0:0|0:0,0:0:0:0:
476,55,2444,1,0,0:0:0:0:
472,208,2658,6,0,B|465:251|465:251|481:323,2,85,2|0|0,0:0|0:0|0:0,0:0:0:0:
371,291,3301,2,0,L|283:288,1,85,2|0,0:0|0:0,0:0:0:0:
212,226,3729,2,0,L|127:228,1,85,2|2,0:0|0:0,0:0:0:0:
36,307,4158,1,2,0:0:0:0:
31,286,4265,1,0,0:0:0:0:
25,265,4372,5,2,0:0:0:0:
127,228,4586,2,0,P|134:267|122:327,1,85,0|0,0:0|0:0,0:0:0:0:
55,162,5015,2,0,L|52:68,1,85,2|0,0:0|0:0,0:0:0:0:
156,54,5444,2,0,L|153:138,1,85,2|2,0:0|0:0,0:0:0:0:
127,228,5872,1,0,0:0:0:0:
221,207,6086,6,0,P|291:209|322:220,2,85,2|0|0,0:0|0:0|0:0,0:0:0:0:
264,375,6729,2,0,L|265:276,1,85,2|0,0:0|0:0,0:0:0:0:
354,288,7158,2,0,L|353:372,1,85,2|2,0:0|0:0,0:0:0:0:
482,262,7586,2,0,L|421:266,1,42.5,0|0,0:0|0:0,0:0:0:0:
437,275,7801,6,0,P|421:196|429:168,1,85,2|0,0:0|0:0,0:0:0:0:
441,112,8229,1,0,0:0:0:0:
328,200,8444,2,0,L|221:195,1,85,2|0,0:0|0:0,0:0:0:0:
150,118,8872,1,0,0:0:0:0:
52,176,9086,2,0,P|52:232|65:274,1,85,2|0,0:0|0:0,0:0:0:0:
70,277,9408,1,0,0:0:0:0:
81,294,9515,6,0,B|126:300|126:300|186:286,2,85,2|0|0,0:0|0:0|3:0,0:0:0:0:
52,176,10158,1,0,0:0:0:0:
244,239,10372,2,0,P|255:282|220:362,2,113.333333333333,2|0|0,2:2|0:0|0:0,0:0:0:0:
223,121,11229,6,0,L|226:30,2,85,2|0|0,0:0|0:0|0:0,0:0:0:0:
294,175,11872,2,0,P|356:177|409:158,1,85,2|0,0:0|0:0,0:0:0:0:
486,94,12301,2,0,P|424:96|371:77,1,85,2|2,0:0|0:0,0:0:0:0:
313,38,12729,1,0,0:0:0:0:
331,28,12836,1,0,0:0:0:0:
350,19,12944,5,2,0:0:0:0:
240,63,13158,2,0,P|185:63|136:42,1,85,0|0,0:0|0:0,0:0:0:0:
61,45,13586,2,0,L|75:141,1,85,2|0,0:0|0:0,0:0:0:0:
145,235,14015,2,0,L|157:150,2,85,2|2|0,0:0|0:0|0:0,0:0:0:0:
67,348,14658,6,0,P|118:294|227:325,1,170,2|0,0:0|0:0,0:0:0:0:
303,372,15301,2,0,L|311:179,1,170,2|0,0:0|0:0,0:0:0:0:
378,117,15944,1,2,0:0:0:0:
390,253,16158,1,0,0:0:0:0:
457,186,16372,6,0,P|379:159|310:202,1,170,2|0,0:0|0:0,0:0:0:0:
322,319,17015,2,0,P|399:346|469:302,1,170,2|0,0:0|0:0,0:0:0:0:
310,202,17658,1,2,0:0:0:0:
322,319,17872,1,0,0:0:0:0:
175,337,18086,6,0,P|244:292|322:319,1,170,2|0,0:0|0:0,0:0:0:0:
175,337,18729,2,0,L|147:147,1,170,2|0,0:0|0:0,0:0:0:0:
174,51,19372,1,2,0:0:0:0:
174,51,19586,1,0,0:0:0:0:
290,145,19801,6,0,P|236:124|185:123,1,85,2|0,0:0|0:0,0:0:0:0:
209,121,20229,1,0,0:0:0:0:
370,121,20444,2,0,P|316:142|265:143,1,85,2|0,0:0|0:0,0:0:0:0:
391,209,20872,1,0,0:0:0:0:
450,144,21086,2,0,P|396:123|345:122,1,85,2|0,0:0|0:0,0:0:0:0:
440,314,21515,6,0,L|450:144,1,170,2|0,0:0|0:0,0:0:0:0:
449,143,22158,1,2,0:0:0:0:
403,44,22372,2,0,P|361:37|322:20,1,85,2|0,2:2|0:0,0:0:0:0:
202,50,22801,1,2,0:0:0:0:
290,105,23015,1,0,0:0:0:0:
126,117,23229,6,0,P|206:92|290:105,1,170,2|0,2:2|2:2,0:0:0:0:
383,241,23872,2,0,P|321:183|290:104,1,170,2|0,0:0|0:0,0:0:0:0:
389,36,24515,1,2,0:0:0:0:
290,105,24729,1,0,0:0:0:0:
454,94,24944,6,0,P|370:81|289:105,1,170,2|0,0:0|0:0,0:0:0:0:
289,104,25586,1,2,0:0:0:0:
202,180,25801,2,0,L|107:169,1,85,2|0,2:2|0:0,0:0:0:0:
29,128,26229,1,0,0:0:0:0:
36,225,26444,1,0,0:0:0:0:
117,170,26658,6,0,P|127:120|117:83,1,85,2|0,2:2|0:0,0:0:0:0:
29,128,27086,1,0,3:0:0:0:
117,170,27301,2,0,P|182:146|293:165,1,170,2|0,0:0|0:0,0:0:0:0:
351,278,27944,5,8,0:0:0:0:
368,311,28372,6,0,L|377:187,1,101.999996887207,6|0,0:0|0:0,0:0:0:0:
386,100,28801,1,8,0:0:0:0:
463,331,29015,2,0,B|362:365|360:289|244:333,1,203.999993774414,0|0,0:0|0:0,0:0:0:0:
136,250,29658,1,8,0:0:0:0:
167,355,29872,1,0,0:0:0:0:
268,232,30086,6,0,L|265:115,1,101.999996887207,2|0,0:0|0:0,0:0:0:0:
266,30,30515,1,8,0:0:0:0:
165,125,30729,2,0,P|217:137|303:108,1,101.999996887207,0|2,0:0|0:0,0:0:0:0:
347,83,31158,1,0,0:0:0:0:
165,125,31372,1,8,0:0:0:0:
215,230,31586,1,0,0:0:0:0:
96,69,31801,6,0,B|30:161|142:173|71:285,1,203.999993774414,2|8,0:0|0:0,0:0:0:0:
9,332,32444,2,0,B|84:283|150:317|150:317|131:345|66:336,1,203.999993774414,0|0,0:0|0:0,0:0:0:0:
13,217,33086,1,8,0:0:0:0:
75,131,33301,1,0,0:0:0:0:
236,215,33515,6,0,P|164:215|136:196,1,101.999996887207,2|0,0:0|0:0,0:0:0:0:
75,131,33944,1,8,0:0:0:0:
236,215,34158,2,0,L|248:334,2,101.999996887207,0|2|0,0:0|0:0|0:0,0:0:0:0:
225,100,34801,1,8,0:0:0:0:
351,198,35015,1,0,0:0:0:0:
351,198,35122,1,2,0:0:0:0:
351,198,35229,6,0,L|361:96,1,101.999996887207,2|0,0:0|0:0,0:0:0:0:
295,11,35658,1,8,0:0:0:0:
212,119,35872,2,0,P|135:118|59:19,1,203.999993774414,0|0,0:0|0:0,0:0:0:0:
21,169,36515,1,8,0:0:0:0:
115,108,36729,1,0,0:0:0:0:
124,206,36944,6,0,P|132:165|113:105,1,101.999996887207,2|0,0:0|0:0,0:0:0:0:
0,173,37372,1,8,0:0:0:0:
124,206,37586,2,0,P|171:189|221:197,2,101.999996887207,2|0|0,0:0|0:0|0:0,0:0:0:0:
180,286,38229,2,0,P|211:246|221:196,1,101.999996887207,8|0,0:0|0:0,0:0:0:0:
310,105,38658,6,0,B|290:79|257:73|257:73|215:90|201:150|227:212,1,203.999993774414,2|8,0:0|0:0,0:0:0:0:
346,228,39301,2,0,B|378:223|400:198|400:198|406:153|361:111|294:102,1,203.999993774414,0|0,0:0|0:0,0:0:0:0:
221,196,39943,1,8,0:0:0:0:
346,228,40158,1,0,0:0:0:0:
311,105,40372,6,0,P|312:62|326:23,1,85,2|0,0:0|0:0,0:0:0:0:
435,0,40801,1,8,0:0:0:0:
412,122,41015,5,0,3:1:0:0:
409,103,41122,1,0,3:0:0:0:
401,81,41229,1,2,3:2:0:0:
326,22,41444,1,2,0:0:0:0:
251,53,41658,6,0,L|169:47,1,63.75,8|0,0:0|0:0,0:0:0:0:
102,42,42086,5,6,0:0:0:0:
181,133,42301,2,0,P|190:176|172:223,1,68,2|8,0:0|0:0,0:0:0:0:
111,250,42729,2,0,P|185:241|244:303,1,136,2|0,0:0|0:0,0:0:0:0:
164,384,43372,2,0,L|160:301,1,68,8|0,0:0|0:0,0:0:0:0:
231,275,43801,5,2,0:0:0:0:
111,250,44015,2,0,P|80:245|16:259,1,68,2|8,0:0|0:0,0:0:0:0:
2,317,44444,2,0,L|1:158,1,136,2|0,0:0|0:0,0:0:0:0:
241,81,45086,1,8,0:0:0:0:
192,21,45301,1,0,0:0:0:0:
288,149,45515,6,0,P|288:198|279:229,2,68,2|0|8,0:0|0:0|0:0,0:0:0:0:
218,272,46158,2,0,P|276:251|355:290,1,136,2|0,0:0|0:0,0:0:0:0:
423,378,46801,1,8,0:0:0:0:
447,358,47229,5,2,0:0:0:0:
457,210,47444,2,0,L|453:277,1,68,2|8,0:0|0:0,0:0:0:0:
380,159,47872,2,0,P|440:165|493:104,1,136,2|2,0:0|0:0,0:0:0:0:
226,89,48515,1,8,0:0:0:0:
221,62,48944,5,6,0:0:0:0:
150,21,49158,1,0,0:0:0:0:
70,42,49372,1,8,0:0:0:0:
28,113,49586,2,0,L|17:204,2,85,0|2|0,0:0|0:0|0:0,0:0:0:0:
150,21,50229,5,8,0:0:0:0:
221,62,50443,2,0,L|312:51,1,85,0|2,0:0|0:0,0:0:0:0:
460,82,50872,5,0,0:0:0:0:
390,42,51086,2,0,L|299:53,1,85,8|0,0:0|0:0,0:0:0:0:
311,126,51515,6,0,P|316:88|305:52,1,76.4999976654053,2|0,0:0|0:0,0:0:0:0:
306,200,51944,2,0,P|300:162|311:126,1,76.4999976654053,2|0,1:2|0:0,0:0:0:0:
366,266,52372,5,2,0:0:0:0:
306,200,52586,1,0,0:0:0:0:
221,196,52800,1,8,0:0:0:0:
156,252,53015,2,0,P|110:261|48:255,2,93.5000028533936,0|2|0,0:0|0:0|0:0,0:0:0:0:
366,266,53658,5,8,0:0:0:0:
221,196,53872,2,0,P|213:154|225:103,1,93.5000028533936,0|2,0:0|0:0,0:0:0:0:
376,57,54301,5,0,0:0:0:0:
276,5,54515,1,8,0:0:0:0:
224,105,54729,1,0,0:0:0:0:
324,157,54944,5,8,0:0:0:0:
315,144,55051,1,8,0:0:0:0:
309,129,55158,1,2,0:0:0:0:
309,113,55265,1,2,0:0:0:0:
310,96,55372,6,0,P|343:167|266:240,1,191.250007295609,8|0,0:0|0:0,0:0:0:0:
177,246,55801,5,6,0:0:0:0:
256,159,56015,1,0,0:0:0:0:
228,338,56229,1,8,0:0:0:0:
85,204,56444,2,0,L|73:88,1,110.499994941712,0|2,0:0|0:0,0:0:0:0:
160,28,56872,1,2,0:0:0:0:
85,204,57086,1,8,0:0:0:0:
0,42,57301,1,0,0:0:0:0:
181,137,57515,5,2,0:0:0:0:
127,291,57729,2,0,P|55:296|9:268,1,110.499994941712,0|8,0:0|0:0,0:0:0:0:
216,234,58158,2,0,B|328:194|341:284|443:231,1,220.999989883423,0|2,0:0|0:0,0:0:0:0:
444,68,58801,2,0,P|392:115|388:172,1,110.499994941712,8|0,0:0|0:0,0:0:0:0:
509,286,59229,5,6,0:0:0:0:
480,151,59444,1,0,0:0:0:0:
441,356,59658,1,8,0:0:0:0:
324,266,59872,2,0,P|379:257|430:236,1,110.499994941712,0|2,0:0|0:0,0:0:0:0:
385,152,60301,1,2,0:0:0:0:
324,266,60515,1,8,0:0:0:0:
244,168,60729,6,0,L|228:31,1,110.499994941712,0|2,0:0|0:0,0:0:0:0:
307,5,61158,1,0,0:0:0:0:
244,168,61372,1,8,0:0:0:0:
122,64,61586,2,0,P|214:54|258:68,1,110.499994941712,2|2,0:0|0:0,0:0:0:0:
244,168,62015,1,0,0:0:0:0:
49,121,62229,2,0,P|27:71|39:18,1,110.499994941712,8|0,0:0|0:0,0:0:0:0:
98,289,62658,6,0,B|183:336|255:291|255:291|226:291|202:272,1,220.999989883423,6|8,0:0|0:0,0:0:0:0:
0,253,63301,2,0,P|-10:314|94:270,1,220.999989883423,0|2,0:0|0:0,0:0:0:0:
79,199,63944,1,8,0:0:0:0:
271,210,64158,1,0,0:0:0:0:
271,210,64265,1,0,0:0:0:0:
271,210,64372,6,0,L|260:81,1,110.499994941712,2|0,0:0|0:0,0:0:0:0:
257,4,64801,1,8,0:0:0:0:
377,224,65015,2,0,P|305:224|254:199,1,110.499994941712,0|2,0:0|0:0,0:0:0:0:
261,99,65444,1,2,0:0:0:0:
427,133,65658,1,8,0:0:0:0:
316,287,65872,1,0,0:0:0:0:
316,287,65979,1,0,0:0:0:0:
316,287,66086,6,0,L|178:302,1,110.499994941712,6|0,0:0|0:0,0:0:0:0:
36,355,66515,2,0,P|160:368|205:262,1,220.999989883423,8|2,0:0|0:0,0:0:0:0:
105,285,67158,1,2,0:0:0:0:
156,108,67372,2,0,P|175:173|161:233,1,110.499994941712,8|0,0:0|0:0,0:0:0:0:
19,263,67801,5,6,0:0:0:0:
19,263,68015,1,0,0:0:0:0:
168,214,68229,1,8,0:0:0:0:
57,143,68444,1,0,0:0:0:0:
57,143,68551,1,0,0:0:0:0:
57,143,68658,1,8,0:0:0:0:
175,221,68872,1,0,3:0:0:0:
175,221,68979,1,0,0:0:0:0:
175,221,69086,2,0,L|249:214,1,55.2499974708558,8|2,0:3|3:2,0:0:0:0:
188,107,69301,1,4,3:3:0:0:
188,107,69408,1,2,3:2:0:0:
188,107,69515,6,0,P|206:55|200:0,1,110.499994941712,6|0,0:0|0:0,0:0:0:0:
57,143,69943,1,8,0:0:0:0:
230,215,70158,2,0,P|182:187|127:182,1,110.499994941712,0|2,0:0|0:0,0:0:0:0:
13,288,70586,1,2,0:0:0:0:
57,143,70800,1,8,0:0:0:0:
157,293,71015,6,0,P|201:261|229:214,1,110.499994941712,0|2,0:0|0:0,0:0:0:0:
146,75,71443,1,0,0:0:0:0:
111,228,71657,1,8,0:0:0:0:
276,145,71872,2,0,B|215:115|163:159|163:159|104:163|74:122,1,220.999989883423,2|0,0:0|0:0,0:0:0:0:
196,316,72515,2,0,P|224:268|229:213,1,110.499994941712,8|0,0:0|0:0,0:0:0:0:
146,75,72943,5,6,0:0:0:0:
111,228,73158,1,0,0:0:0:0:
276,145,73372,1,8,0:0:0:0:
385,299,73586,2,0,P|340:267|312:220,1,110.499994941712,0|2,0:0|0:0,0:0:0:0:
323,75,74015,1,2,0:0:0:0:
229,214,74229,1,8,0:0:0:0:
146,120,74443,6,0,B|164:85|199:80|199:80|234:100|251:140|247:175|229:213,1,220.999989883423,6|2,0:2|0:0,0:0:0:0:
98,289,75086,1,8,0:0:0:0:
27,165,75301,2,0,P|21:108|44:58,1,110.499994941712,0|2,0:0|0:0,0:0:0:0:
98,289,75729,1,2,0:0:0:0:
228,213,75944,2,0,P|278:191|332:196,1,110.499994941712,8|0,0:0|0:0,0:0:0:0:
366,333,76372,6,0,B|340:365|340:365|284:265|332:196,1,220.999989883423,6|8,0:0|0:0,0:0:0:0:
452,117,77015,2,0,P|429:215|331:194,1,220.999989883423,0|2,0:0|0:0,0:0:0:0:
256,40,77658,1,8,0:0:0:0:
164,124,77872,1,0,0:0:0:0:
164,124,77979,1,0,0:0:0:0:
164,124,78086,6,0,P|214:116|280:142,1,110.499994941712,2|0,0:0|0:0,0:0:0:0:
102,214,78515,1,8,0:0:0:0:
55,115,78729,2,0,P|73:67|128:23,2,110.499994941712,0|2|2,0:0|0:0|0:0,0:0:0:0:
210,222,79372,1,8,0:0:0:0:
375,123,79586,1,0,0:0:0:0:
375,123,79693,1,2,0:0:0:0:
375,123,79801,6,0,P|325:115|259:141,1,110.499994941712,6|0,0:0|0:0,0:0:0:0:
437,213,80229,1,8,0:0:0:0:
484,114,80444,2,0,P|466:66|411:22,2,110.499994941712,0|2|2,0:0|0:0|0:0,0:0:0:0:
392,309,81086,2,0,P|426:266|436:212,1,110.499994941712,8|0,0:0|0:0,0:0:0:0:
345,15,81515,5,6,0:0:0:0:
345,15,81729,1,0,0:0:0:0:
269,133,81943,1,8,0:0:0:0:
157,17,82158,1,0,0:0:0:0:
157,17,82265,1,0,0:0:0:0:
157,17,82372,1,8,0:0:0:0:
106,87,82586,1,4,3:0:0:0:
156,157,82801,1,8,0:3:0:0:
104,226,83015,1,4,0:3:0:0:
22,197,83229,6,0,L|10:95,2,85,6|0|0,0:0|0:0|0:0,0:0:0:0:
40,283,83872,2,0,P|40:332|18:374,1,85,2|0,0:0|0:0,0:0:0:0:
134,247,84301,2,0,P|134:296|156:338,1,85,0|2,0:0|0:0,0:0:0:0:
226,370,84729,1,0,0:0:0:0:
313,286,84944,6,0,L|197:280,2,85,2|0|0,0:0|0:0|0:0,0:0:0:0:
389,231,85586,2,0,P|393:184|376:124,1,85,2|0,0:0|0:0,0:0:0:0:
293,113,86015,2,0,P|289:66|306:6,1,85,0|2,0:0|0:0,0:0:0:0:
452,8,86444,1,0,0:0:0:0:
463,25,86551,1,0,0:0:0:0:
471,44,86658,6,0,P|475:91|458:151,2,85,2|0|0,0:0|0:0|0:0,0:0:0:0:
381,27,87301,2,0,L|271:29,1,85,2|0,0:0|0:0,0:0:0:0:
211,70,87729,2,0,L|126:68,1,85,0|2,0:0|0:0,0:0:0:0:
48,33,88158,1,0,0:0:0:0:
51,200,88372,6,0,P|66:142|48:99,2,85,2|0|0,0:0|0:0|0:0,0:0:0:0:
120,253,89015,2,0,P|181:261|215:249,1,85,2|0,0:0|0:0,0:0:0:0:
222,171,89444,2,0,P|283:163|317:175,1,85,0|2,0:0|0:0,0:0:0:0:
406,251,89872,2,0,P|345:259|311:247,1,85,2|0,2:2|0:0,0:0:0:0:
