osu file format v14

[General]
AudioFilename: audio.mp3
AudioLeadIn: 0
PreviewTime: 14444
Countdown: 1
SampleSet: Soft
StackLeniency: 0.7
Mode: 0
LetterboxInBreaks: 0
WidescreenStoryboard: 1

[Editor]
DistanceSpacing: 1.2
BeatDivisor: 4
GridSize: 4
TimelineZoom: 1

[Metadata]
Title:knowing
TitleUnicode:knowing
Artist:Marika
ArtistUnicode:真里歌
Creator:Naotoshi
Version:Normal
Source:俺の彼女のウラオモテ
Tags:ore no kanojo uraomote eroge visual novel Nonoura aries meis clauson lasse mir
BeatmapID:1433216
BeatmapSetID:677700

[Difficulty]
HPDrainRate:4.4
CircleSize:3.3
OverallDifficulty:4.4
ApproachRate:5.2
SliderMultiplier:1
SliderTickRate:1

[Events]
//Background and Video events
0,0,"241468.jpg",0,0
//Break Periods
//Storyboard Layer 0 (Background)
//Storyboard Layer 1 (Fail)
//Storyboard Layer 2 (Pass)
//Storyboard Layer 3 (Foreground)
//Storyboard Sound Samples

[TimingPoints]
944,428.571428571429,4,2,1,35,1,0
14658,-100,4,2,1,40,0,0
27944,-100,4,2,5,60,0,0
28372,-83.3333333333333,4,2,5,60,0,0
41658,-133.333333333333,4,2,5,60,0,0
41979,-133.333333333333,4,2,5,10,0,0
42086,-100,4,2,5,50,0,0
48944,-83.3333333333333,4,2,5,60,0,0
54944,-83.3333333333333,4,2,5,65,0,0
55801,-71.4285714285714,4,2,5,75,0,1
83229,-100,4,2,5,60,0,0
83444,-100,4,2,1,40,0,0
90086,-100,4,2,1,5,0,0
90944,-100,4,2,1,5,0,0

[Colours]
Combo1 : 239,112,80
Combo2 : 237,133,18
Combo3 : 88,163,231

[HitObjects]
183,156,944,6,0,P|244:120|292:126,1,100,2|0,0:0|0:0,0:0:0:0:
317,150,1586,2,0,P|384:164|424:148,1,100,2|0,0:0|0:0,0:0:0:0:
451,116,2229,1,2,0:0:0:0:
385,27,2658,6,0,P|336:47|270:36,1,100,2|0,0:0|0:0,0:0:0:0:
238,23,3301,2,0,P|184:24|136:50,1,100,2|0,0:0|0:0,0:0:0:0:
109,87,3944,1,2,0:0:0:0:
158,185,4372,6,0,P|160:242|148:288,1,100,2|0,0:0|0:0,0:0:0:0:
126,333,5015,2,0,P|182:330|236:336,1,100,2|0,0:0|0:0,0:0:0:0:
278,350,5658,1,2,0:0:0:0:
371,292,6086,6,0,P|386:231|372:179,1,100,2|0,0:0|0:0,0:0:0:0:
338,158,6729,2,0,P|285:169|222:156,1,100,2|0,0:0|0:0,0:0:0:0:
195,130,7372,1,2,0:0:0:0:
276,55,7801,6,0,B|316:43|337:74|385:53,1,100,2|0,0:0|0:0,0:0:0:0:
426,37,8444,2,0,P|438:77|430:144,1,100,2|0,0:0|0:0,0:0:0:0:
399,177,9086,2,0,P|387:222|387:245,1,50,2|0,0:0|0:0,0:0:0:0:
402,278,9515,6,0,P|344:262|288:276,1,100,2|0,0:0|3:0,0:0:0:0:
203,308,10372,2,0,P|174:236|110:206,1,150,2|0,2:0|0:0,0:0:0:0:
91,154,11229,6,0,L|180:89,1,100,2|0,0:0|0:0,0:0:0:0:
209,136,11872,2,0,P|267:149|318:126,1,100,2|0,0:0|0:0,0:0:0:0:
346,93,12515,1,0,0:0:0:0:
442,21,12944,6,0,P|472:39|503:99,1,100,2|0,0:0|0:0,0:0:0:0:
459,136,13586,2,0,P|443:213|458:241,1,100,2|0,0:0|0:0,0:0:0:0:
494,270,14229,1,2,0:0:0:0:
383,290,14658,6,0,P|328:268|278:280,1,100,2|0,0:0|0:0,0:0:0:0:
244,315,15301,2,0,P|205:328|136:310,1,100,2|0,0:0|0:0,0:0:0:0:
112,268,15944,1,2,0:0:0:0:
187,187,16372,2,0,P|216:138|205:79,1,100,2|0,0:0|0:0,0:0:0:0:
175,49,17015,2,0,P|122:36|75:60,1,100,2|0,0:0|0:0,0:0:0:0:
50,105,17658,2,0,L|53:168,1,50,2|0,0:0|0:0,0:0:0:0:
90,200,18086,6,0,P|140:211|201:190,1,100,2|0,0:0|0:0,0:0:0:0:
240,174,18729,2,0,P|302:159|357:168,1,100,2|0,0:0|0:0,0:0:0:0:
391,183,19372,1,2,0:0:0:0:
479,264,19801,2,0,P|490:216|517:172,1,100,2|0,0:0|0:0,0:0:0:0:
495,116,20444,2,0,P|468:91|401:57,1,100,2|0,0:0|0:0,0:0:0:0:
355,79,21086,1,2,0:0:0:0:
286,177,21515,6,0,P|228:195|176:178,1,100,2|0,0:0|0:0,0:0:0:0:
174,143,22158,1,2,0:0:0:0:
174,143,22372,2,0,P|169:71|142:44,1,100,2|2,2:0|0:0,0:0:0:0:
94,156,23229,2,0,P|89:212|121:264,1,100,2|0,0:0|0:0,0:0:0:0:
162,222,23872,2,0,P|208:197|273:196,1,100,2|0,0:0|0:0,0:0:0:0:
309,218,24515,2,0,P|351:222|376:215,1,50,2|0,0:0|0:0,0:0:0:0:
405,182,24944,6,0,P|405:129|437:76,1,100,2|0,0:0|0:0,0:0:0:0:
340,60,25801,2,0,P|295:76|241:67,1,100,2|0,2:0|0:0,0:0:0:0:
194,34,26444,2,0,P|145:42|162:165,1,200,2|0,0:0|0:0,0:0:0:0:
273,187,27729,1,2,2:2:0:0:
275,248,27944,1,8,0:0:0:0:
422,234,28372,6,0,P|459:194|442:110,1,119.999996337891,6|8,0:0|0:0,0:0:0:0:
414,65,29015,2,0,P|368:34|289:66,1,119.999996337891,2|0,0:0|0:0,0:0:0:0:
267,114,29658,1,8,0:0:0:0:
267,114,29872,1,0,0:0:0:0:
190,130,30086,2,0,P|186:175|177:265,1,119.999996337891,2|8,0:0|0:0,0:0:0:0:
109,285,30729,2,0,P|101:256|80:218,1,59.9999981689454,0|2,0:0|0:0,0:0:0:0:
119,85,31372,1,8,0:0:0:0:
119,85,31586,1,0,0:0:0:0:
162,150,31801,6,0,P|221:155|280:128,1,119.999996337891,2|8,0:0|0:0,0:0:0:0:
285,53,32444,2,0,P|342:27|418:43,1,119.999996337891,2|0,0:0|0:0,0:0:0:0:
466,69,33086,1,8,0:0:0:0:
494,222,33515,2,0,P|482:265|424:320,1,119.999996337891,2|8,0:0|0:0,0:0:0:0:
352,308,34158,1,0,0:0:0:0:
352,308,34372,2,0,P|296:295|233:314,1,119.999996337891,2|8,0:0|0:0,0:0:0:0:
81,324,35229,6,0,P|93:267|127:204,1,119.999996337891,2|8,0:0|0:0,0:0:0:0:
203,210,35872,1,0,0:0:0:0:
203,210,36086,2,0,P|235:241|304:285,1,119.999996337891,2|8,0:0|0:0,0:0:0:0:
372,254,36729,2,0,P|410:213|416:131,1,119.999996337891,2|0,0:0|0:0,0:0:0:0:
391,78,37372,2,0,L|450:48,2,59.9999981689454,8|0|2,0:0|0:0|0:0,0:0:0:0:
242,29,38229,1,8,0:0:0:0:
117,123,38658,6,0,P|91:176|101:245,1,119.999996337891,2|8,0:0|0:0,0:0:0:0:
167,284,39301,1,0,0:0:0:0:
167,284,39515,2,0,P|219:244|286:242,1,119.999996337891,2|8,0:0|0:0,0:0:0:0:
341,275,40158,1,0,0:0:0:0:
410,234,40372,2,0,P|417:185|420:153,2,59.9999981689454,2|0|8,0:0|0:0|0:0,0:0:0:0:
453,308,41015,1,0,3:1:0:0:
453,308,41229,1,2,3:2:0:0:
334,352,41658,1,8,0:0:0:0:
221,281,42086,6,0,P|167:265|110:292,1,100,6|8,0:0|0:0,0:0:0:0:
95,316,42729,1,2,0:0:0:0:
95,316,43372,1,8,0:0:0:0:
39,232,43801,6,0,P|28:185|56:125,1,100,2|8,0:0|0:0,0:0:0:0:
89,114,44444,1,2,0:0:0:0:
89,114,45086,1,8,0:0:0:0:
168,175,45515,6,0,P|232:191|280:170,1,100,2|8,0:0|0:0,0:0:0:0:
304,154,46158,1,2,0:0:0:0:
304,154,46801,1,8,0:0:0:0:
395,193,47229,6,0,P|404:144|383:92,1,100,2|8,0:0|0:0,0:0:0:0:
348,66,47872,2,0,P|289:103|243:94,1,100,2|2,0:0|0:0,0:0:0:0:
216,78,48515,1,8,0:0:0:0:
121,151,48944,6,0,P|96:222|90:231,1,59.9999981689454,6|0,0:0|0:0,0:0:0:0:
66,255,49372,1,8,0:0:0:0:
93,308,49586,2,0,P|168:303|221:321,1,119.999996337891,2|0,0:0|0:0,0:0:0:0:
261,284,50229,1,8,0:0:0:0:
313,314,50444,2,0,P|378:325|397:325,1,59.9999981689454,2|2,0:0|0:0,0:0:0:0:
419,287,50872,1,0,0:0:0:0:
451,236,51086,2,0,P|448:185|437:153,2,59.9999981689454,8|0|2,0:0|0:0|0:0,0:0:0:0:
337,196,51944,1,8,0:0:0:0:
230,251,52372,6,0,P|175:261|153:261,1,59.9999981689454,2|0,0:0|0:0,0:0:0:0:
125,221,52801,1,8,0:0:0:0:
161,173,53015,2,0,P|171:110|140:44,1,119.999996337891,2|0,0:0|0:0,0:0:0:0:
94,38,53658,1,8,0:0:0:0:
44,71,53872,2,0,P|33:129|53:185,1,119.999996337891,2|0,0:0|0:0,0:0:0:0:
103,219,54515,1,8,0:0:0:0:
221,238,54944,5,8,0:0:0:0:
276,216,55158,1,2,0:0:0:0:
334,228,55372,1,8,0:0:0:0:
485,138,55801,6,0,P|482:74|418:26,1,139.999995727539,6|8,0:0|0:0,0:0:0:0:
343,16,56444,2,0,B|301:10|272:33|272:33|278:77|276:124,1,139.999995727539,2|2,0:0|0:0,0:0:0:0:
328,168,57086,1,8,0:0:0:0:
242,321,57515,6,0,P|200:319|152:305,1,69.9999978637696,2|0,0:0|0:0,0:0:0:0:
121,248,57944,1,8,0:0:0:0:
40,270,58158,2,0,P|42:218|119:163,1,139.999995727539,2|2,0:0|0:0,0:0:0:0:
186,188,58801,1,8,0:0:0:0:
335,107,59229,6,0,P|392:95|473:137,1,139.999995727539,6|8,0:0|0:0,0:0:0:0:
448,210,59872,2,0,P|379:220|318:189,1,139.999995727539,2|0,0:0|0:0,0:0:0:0:
242,226,60515,1,8,0:0:0:0:
240,309,60729,1,0,0:0:0:0:
184,372,60944,6,0,P|120:360|94:362,1,69.9999978637696,2|0,0:0|0:0,0:0:0:0:
76,285,61372,1,8,0:0:0:0:
76,201,61586,2,8,P|115:168|199:140,1,139.999995727539,2|0,0:0|0:0,0:0:0:0:
272,179,62229,1,8,0:0:0:0:
431,231,62658,6,0,P|463:163|434:101,1,139.999995727539,6|8,0:0|0:0,0:0:0:0:
357,122,63301,2,0,P|293:134|193:111,1,139.999995727539,2|2,0:0|0:0,0:0:0:0:
163,59,63944,2,0,P|100:55|70:60,1,69.9999978637696,8|0,0:0|0:0,0:0:0:0:
25,104,64372,5,2,0:0:0:0:
109,249,64801,1,8,0:0:0:0:
58,315,65015,2,0,P|108:333|147:329,2,69.9999978637696,2|2|2,0:0|0:0|0:0,0:0:0:0:
24,237,65658,2,0,P|30:179|29:146,1,69.9999978637696,8|0,0:0|0:0,0:0:0:0:
8,86,66086,6,0,P|60:50|154:68,1,139.999995727539,6|8,0:0|0:0,0:0:0:0:
203,102,66729,1,0,0:0:0:0:
276,60,66944,2,0,P|293:115|294:146,1,69.9999978637696,2|2,0:0|0:0,0:0:0:0:
255,201,67372,1,8,0:0:0:0:
416,248,67801,6,0,P|413:207|401:165,1,69.9999978637696,6|0,0:0|0:0,0:0:0:0:
334,136,68229,1,8,0:0:0:0:
283,203,68444,1,0,0:0:0:0:
283,203,68658,2,0,P|223:191|153:227,1,139.999995727539,8|8,0:0|0:3,0:0:0:0:
150,309,69301,1,4,3:3:0:0:
233,301,69515,6,0,P|287:314|358:373,1,139.999995727539,6|8,0:0|0:0,0:0:0:0:
433,326,70158,2,0,P|441:253|386:190,1,139.999995727539,2|2,0:0|0:0,0:0:0:0:
321,211,70801,1,8,0:0:0:0:
321,211,71015,1,0,0:0:0:0:
250,165,71229,6,0,P|237:105|244:76,1,69.9999978637696,2|0,0:0|0:0,0:0:0:0:
301,41,71658,1,8,0:0:0:0:
372,85,71872,1,0,0:0:0:0:
432,242,72301,1,2,0:0:0:0:
432,242,72515,1,8,0:0:0:0:
268,283,72944,6,0,P|212:263|120:280,1,139.999995727539,6|8,0:0|0:0,0:0:0:0:
51,259,73586,2,0,P|22:198|56:131,1,139.999995727539,2|2,0:0|0:0,0:0:0:0:
122,92,74229,1,8,0:0:0:0:
183,149,74444,6,0,P|240:120|314:148,1,139.999995727539,4|0,0:0|0:0,0:0:0:0:
348,216,75086,1,8,0:0:0:0:
423,179,75301,2,0,P|440:133|437:90,1,69.9999978637696,0|2,0:0|0:0,0:0:0:0:
396,41,75729,1,2,0:0:0:0:
311,41,75944,1,8,0:0:0:0:
238,192,76372,6,0,P|182:213|89:188,1,139.999995727539,6|8,0:0|0:0,0:0:0:0:
103,114,77015,2,0,P|168:92|235:107,1,139.999995727539,2|2,0:0|0:0,0:0:0:0:
312,143,77658,1,8,0:0:0:0:
312,143,77872,6,0,P|372:135|438:90,1,139.999995727539,0|0,0:0|0:0,0:0:0:0:
424,7,78515,1,8,0:0:0:0:
424,7,78729,1,0,0:0:0:0:
329,9,78944,2,0,P|305:64|313:147,1,139.999995727539,2|8,0:0|0:0,0:0:0:0:
364,212,79586,1,0,0:0:0:0:
364,212,79801,6,0,B|324:226|307:255|307:255|274:269|220:253,1,139.999995727539,2|8,0:0|0:0,0:0:0:0:
189,193,80444,1,0,0:0:0:0:
206,110,80658,2,0,P|155:92|124:93,2,69.9999978637696,2|2|8,0:0|0:0|0:0,0:0:0:0:
357,47,81515,6,0,P|421:39|446:99,1,139.999995727539,6|8,0:0|0:0,0:0:0:0:
379,152,82158,2,0,B|347:183|350:209|350:209|382:248|378:286,1,139.999995727539,0|4,0:0|3:0,0:0:0:0:
368,359,82801,1,8,0:0:0:0:
266,294,83229,5,6,0:0:0:0:
159,341,83658,1,0,0:0:0:0:
159,341,83872,2,0,P|138:285|154:242,1,100,2|0,0:0|0:0,0:0:0:0:
184,206,84515,1,2,0:0:0:0:
288,169,84944,6,0,P|341:185|403:170,1,100,2|0,0:0|0:0,0:0:0:0:
419,136,85586,2,0,P|409:88|371:39,1,100,2|0,0:0|0:0,0:0:0:0:
325,43,86229,1,2,0:0:0:0:
230,99,86658,6,0,P|180:109|113:91,1,100,2|0,0:0|0:0,0:0:0:0:
91,63,87301,2,0,P|64:117|57:176,1,100,2|0,0:0|0:0,0:0:0:0:
82,204,87944,2,0,P|90:263|87:275,1,50,2|0,0:0|0:0,0:0:0:0:
68,302,88372,6,0,P|125:326|173:320,1,100,2|0,0:0|0:0,0:0:0:0:
210,296,89015,1,2,0:0:0:0:
312,337,89444,1,0,0:0:0:0:
312,337,89658,2,0,P|378:305|423:315,1,100,2|0,0:0|0:0,0:0:0:0:
