osu file format v14

[General]
AudioFilename: audio.mp3
AudioLeadIn: 0
PreviewTime: 14444
Countdown: 1
SampleSet: Normal
StackLeniency: 0.7
Mode: 1
LetterboxInBreaks: 0
WidescreenStoryboard: 1

[Editor]
DistanceSpacing: 0.1
BeatDivisor: 4
GridSize: 32
TimelineZoom: 1

[Metadata]
Title:knowing
TitleUnicode:knowing
Artist:Marika
ArtistUnicode:真里歌
Creator:Naotoshi
Version:Muzukashii
Source:俺の彼女のウラオモテ
Tags:ore no kanojo uraomote eroge visual novel Nonoura aries meis clauson lasse mir
BeatmapID:1433486
BeatmapSetID:677700

[Difficulty]
HPDrainRate:5
CircleSize:3
OverallDifficulty:4.5
ApproachRate:4
SliderMultiplier:1.4
SliderTickRate:1

[Events]
//Background and Video events
0,0,"241468.jpg",0,100
//Break Periods
//Storyboard Layer 0 (Background)
//Storyboard Layer 1 (Fail)
//Storyboard Layer 2 (Pass)
//Storyboard Layer 3 (Foreground)
//Storyboard Sound Samples

[TimingPoints]
944,428.571428571429,4,1,0,45,1,0
944,-111.111111111111,4,1,0,45,0,0
28372,-100,4,1,0,45,0,0
42086,-111.111111111111,4,1,0,45,0,0
48944,-100,4,1,0,45,0,0
55801,-90.9090909090909,4,1,0,45,0,1
83229,-100,4,1,0,45,0,0

[Colours]
Combo1 : 239,112,80
Combo2 : 237,133,18
Combo3 : 88,163,231

[HitObjects]
215,170,944,5,0,0:1:0:0:
283,170,1586,1,8,0:1:0:0:
215,170,2229,1,0,0:1:0:0:
215,170,2658,1,0,0:1:0:0:
283,170,3300,1,8,0:1:0:0:
215,170,3944,1,0,0:1:0:0:
215,170,4158,1,0,0:1:0:0:
283,170,4372,1,8,0:1:0:0:
215,170,5015,1,0,0:1:0:0:
283,170,5658,1,8,0:1:0:0:
283,170,6086,1,8,0:1:0:0:
215,170,6729,1,0,0:1:0:0:
283,170,7372,1,8,0:1:0:0:
215,170,7801,1,0,0:1:0:0:
215,170,8444,1,0,0:1:0:0:
283,170,9086,1,8,0:1:0:0:
215,170,9515,1,0,0:1:0:0:
215,170,10158,1,0,0:1:0:0:
283,170,10372,1,8,0:1:0:0:
283,170,10801,1,0,0:1:0:0:
283,170,11229,1,8,0:1:0:0:
283,170,11872,1,8,0:1:0:0:
215,170,12515,1,0,0:1:0:0:
215,170,12944,1,8,0:1:0:0:
283,170,13586,1,8,0:1:0:0:
283,170,14015,1,8,0:1:0:0:
215,170,14229,1,0,0:1:0:0:
256,64,14658,5,0,0:1:0:0:
256,64,15086,1,8,0:1:0:0:
320,64,15301,1,8,0:1:0:0:
288,64,15944,1,0,0:1:0:0:
320,64,16372,1,8,0:1:0:0:
288,64,16801,1,0,0:1:0:0:
320,64,17015,1,0,0:1:0:0:
288,64,17658,1,0,0:1:0:0:
288,64,17872,1,0,0:1:0:0:
320,64,18086,1,8,0:1:0:0:
288,64,18515,1,0,0:1:0:0:
288,64,18729,1,8,0:1:0:0:
320,64,19801,1,8,0:1:0:0:
288,64,20444,1,8,0:1:0:0:
288,64,20872,1,0,0:1:0:0:
288,64,21086,1,8,0:1:0:0:
288,64,21515,1,8,0:1:0:0:
288,64,21944,1,0,0:1:0:0:
288,64,22158,1,0,0:1:0:0:
320,64,22801,1,8,0:1:0:0:
288,64,23015,1,0,0:1:0:0:
288,64,23229,1,8,0:1:0:0:
288,64,23872,1,8,0:1:0:0:
320,64,24515,1,0,0:1:0:0:
288,64,24729,1,0,0:1:0:0:
288,64,24944,1,8,0:1:0:0:
288,64,25372,1,8,0:1:0:0:
320,64,25586,1,0,0:1:0:0:
288,64,26229,1,0,0:1:0:0:
320,64,26444,1,0,0:1:0:0:
320,64,26658,1,8,0:1:0:0:
288,64,27301,1,8,0:1:0:0:
288,64,27729,1,8,0:1:0:0:
320,64,27944,1,4,0:1:0:0:
192,192,28372,5,0,0:1:0:0:
224,192,28801,1,8,0:1:0:0:
192,192,29015,1,0,0:1:0:0:
192,192,29658,1,0,0:1:0:0:
192,192,29872,1,0,0:1:0:0:
224,192,30086,1,8,0:1:0:0:
224,192,30515,1,8,0:1:0:0:
192,192,30729,1,0,0:1:0:0:
192,192,31372,1,0,0:1:0:0:
192,192,31586,1,8,0:1:0:0:
224,192,31801,1,0,0:1:0:0:
224,192,32229,1,8,0:1:0:0:
192,192,32444,1,0,0:1:0:0:
192,192,32872,1,0,0:1:0:0:
224,192,33086,1,8,0:1:0:0:
224,192,33515,1,0,0:1:0:0:
224,192,33944,1,8,0:1:0:0:
224,192,34158,1,0,0:1:0:0:
224,192,34586,1,0,0:1:0:0:
224,192,34801,1,8,0:1:0:0:
186,198,35015,1,0,0:0:0:0:
186,198,35122,1,0,0:0:0:0:
192,192,35229,1,0,0:1:0:0:
224,192,35658,1,8,0:1:0:0:
192,192,35872,1,0,0:1:0:0:
224,192,36515,1,8,0:1:0:0:
192,192,36729,1,0,0:1:0:0:
192,192,36944,1,0,0:1:0:0:
224,192,37372,1,8,0:1:0:0:
192,192,37586,1,0,0:1:0:0:
224,192,38229,1,8,0:1:0:0:
224,192,38658,1,8,0:1:0:0:
224,192,39086,1,8,0:1:0:0:
224,192,39301,1,0,0:1:0:0:
224,192,39944,1,8,0:1:0:0:
192,192,40158,1,8,0:1:0:0:
224,192,40372,1,0,0:1:0:0:
224,192,40801,1,0,0:1:0:0:
224,192,41015,1,8,0:1:0:0:
224,192,41122,1,8,0:1:0:0:
192,192,41229,1,8,0:1:0:0:
224,192,41444,1,8,0:1:0:0:
192,192,41658,1,4,0:1:0:0:
224,192,42086,1,12,0:1:0:0:
224,192,42729,1,0,0:1:0:0:
256,192,43372,1,8,0:1:0:0:
224,192,43801,1,0,0:1:0:0:
224,192,44444,1,0,0:1:0:0:
224,192,45086,1,4,0:1:0:0:
256,192,45515,1,0,0:1:0:0:
256,192,46158,1,0,0:1:0:0:
224,192,46801,1,8,0:1:0:0:
256,192,47229,1,0,0:1:0:0:
256,192,47872,1,8,0:1:0:0:
256,192,48086,1,0,0:0:0:0:
256,192,48301,1,0,0:1:0:0:
224,192,48515,1,8,0:1:0:0:
320,160,48944,5,0,0:1:0:0:
352,160,49372,1,8,0:1:0:0:
320,160,49801,1,0,0:1:0:0:
320,160,50015,1,0,0:1:0:0:
352,160,50229,1,8,0:1:0:0:
320,160,50658,1,0,0:1:0:0:
320,160,51086,1,8,0:1:0:0:
320,160,51515,1,0,0:0:0:0:
320,160,51729,1,0,0:1:0:0:
352,160,51944,1,8,0:1:0:0:
288,160,52372,1,0,0:1:0:0:
320,160,52801,1,8,0:1:0:0:
320,160,53229,1,0,0:0:0:0:
288,160,53444,1,0,0:1:0:0:
320,160,53658,1,8,0:1:0:0:
320,160,54086,1,0,0:1:0:0:
320,160,54515,1,8,0:1:0:0:
288,160,54944,1,8,0:1:0:0:
160,160,55051,1,8,0:1:0:0:
288,160,55158,1,8,0:1:0:0:
288,160,55372,1,4,0:1:0:0:
160,160,55801,5,4,0:1:0:0:
160,160,56229,1,8,0:1:0:0:
160,160,56444,1,8,1:1:0:0:
160,160,56658,1,8,1:1:0:0:
160,160,56872,1,0,0:1:0:0:
192,160,57086,1,8,0:1:0:0:
160,160,57515,1,0,0:1:0:0:
160,160,57944,1,8,0:1:0:0:
192,160,58158,1,8,0:1:0:0:
192,160,58372,1,0,0:1:0:0:
192,160,58586,1,0,0:1:0:0:
160,160,58801,1,8,0:1:0:0:
192,160,59229,1,0,0:1:0:0:
157,156,59444,1,0,0:0:0:0:
192,160,59658,1,8,0:1:0:0:
192,160,59872,1,8,0:1:0:0:
192,160,60301,1,0,0:1:0:0:
192,160,60515,1,0,0:1:0:0:
224,160,60944,1,0,0:1:0:0:
224,160,61372,1,8,0:1:0:0:
192,160,61586,1,8,0:1:0:0:
224,160,61801,1,0,0:1:0:0:
192,160,62015,1,8,0:1:0:0:
224,160,62229,1,8,0:1:0:0:
192,160,62658,1,12,0:1:0:0:
224,160,63086,1,8,0:1:0:0:
224,160,63301,1,0,0:1:0:0:
157,156,63515,1,8,0:0:0:0:
192,160,63944,1,8,0:1:0:0:
223,159,64158,1,0,0:1:0:0:
224,160,64372,1,0,0:1:0:0:
192,160,64801,1,0,0:1:0:0:
192,160,65015,1,0,0:0:0:0:
192,160,65229,1,8,0:1:0:0:
224,160,65658,1,8,0:1:0:0:
256,128,66086,1,0,0:1:0:0:
320,160,66515,1,8,0:1:0:0:
288,160,66729,1,8,0:1:0:0:
384,96,67158,1,8,0:1:0:0:
320,160,67372,1,8,0:1:0:0:
384,96,67801,1,8,0:1:0:0:
384,128,68015,1,0,0:1:0:0:
416,160,68229,1,12,0:1:0:0:
384,192,68658,1,8,0:1:0:0:
288,192,68872,1,0,0:1:0:0:
256,224,68979,1,0,0:1:0:0:
256,224,69086,1,0,0:1:0:0:
224,224,69301,1,0,0:1:0:0:
160,224,69515,1,12,0:1:0:0:
192,160,69944,1,8,0:1:0:0:
256,160,70372,1,0,0:1:0:0:
256,160,70586,1,0,0:1:0:0:
256,160,70801,1,8,0:1:0:0:
256,160,71015,1,8,0:1:0:0:
256,160,71229,1,0,0:1:0:0:
320,160,71658,1,8,0:1:0:0:
288,160,71872,1,0,0:1:0:0:
320,160,72086,1,0,0:0:0:0:
320,160,72301,1,8,0:1:0:0:
320,160,72515,1,8,0:1:0:0:
320,160,72944,1,8,0:1:0:0:
320,160,73158,1,8,0:0:0:0:
320,160,73372,1,0,0:1:0:0:
288,160,73586,1,8,0:1:0:0:
288,160,74015,1,0,0:1:0:0:
288,160,74229,1,8,0:1:0:0:
288,128,74444,1,8,0:1:0:0:
291,158,74658,1,12,0:1:0:0:
288,160,75086,1,0,0:1:0:0:
288,160,75301,1,8,0:1:0:0:
288,160,75515,1,0,0:1:0:0:
288,160,75729,1,0,0:1:0:0:
320,160,75944,1,8,0:1:0:0:
320,160,76372,1,4,0:1:0:0:
256,160,76801,1,8,0:1:0:0:
192,160,77015,1,0,0:1:0:0:
192,160,77229,1,0,0:1:0:0:
192,160,77444,1,0,0:0:0:0:
192,160,77658,1,8,0:1:0:0:
192,160,78086,1,0,0:1:0:0:
192,160,78301,1,0,0:1:0:0:
224,128,78515,1,8,0:1:0:0:
224,96,78729,1,0,0:1:0:0:
238,99,78944,1,8,0:1:0:0:
234,105,79372,1,8,0:1:0:0:
227,95,79586,1,0,0:1:0:0:
224,96,79801,1,0,0:1:0:0:
224,96,80229,1,8,0:1:0:0:
256,96,80658,1,0,0:1:0:0:
320,128,80872,1,0,0:1:0:0:
288,96,81086,1,8,0:1:0:0:
352,128,81515,1,0,0:1:0:0:
256,192,81729,1,0,0:1:0:0:
256,192,81944,1,8,0:1:0:0:
320,224,82158,1,8,0:1:0:0:
320,224,82265,1,8,0:1:0:0:
320,224,82372,1,8,0:1:0:0:
256,256,82586,1,0,0:1:0:0:
224,256,82801,1,0,0:1:0:0:
160,224,83229,5,12,0:1:0:0:
256,160,83872,1,8,0:1:0:0:
256,160,84515,1,0,0:1:0:0:
288,96,84944,1,8,0:1:0:0:
288,128,85586,1,8,0:1:0:0:
352,128,86229,1,0,0:1:0:0:
320,128,86444,1,8,0:1:0:0:
288,128,86658,1,0,0:1:0:0:
288,256,87301,1,8,0:1:0:0:
288,256,87944,1,0,0:1:0:0:
288,128,88372,1,0,0:1:0:0:
288,256,89015,1,8,0:1:0:0:
288,256,89658,1,8,0:1:0:0:
320,256,89872,1,8,0:1:0:0:
