osu file format v14

[General]
AudioFilename: audio.mp3
AudioLeadIn: 0
PreviewTime: 91385
Countdown: 0
SampleSet: Normal
StackLeniency: 0.4
Mode: 0
LetterboxInBreaks: 0
WidescreenStoryboard: 0

[Editor]
DistanceSpacing: 0.3
BeatDivisor: 4
GridSize: 16
TimelineZoom: 1.6

[Metadata]
Title:Truth and Light
TitleUnicode:Truth and Light
Artist:Marika
ArtistUnicode:真里歌
Creator:ponbot
Version:Salvation
Source:ハロー・レディ!
Tags:hello gazimal lady! japanese eroge rock
BeatmapID:3256905
BeatmapSetID:1594534

[Difficulty]
HPDrainRate:6
CircleSize:4
OverallDifficulty:8.8
ApproachRate:9.3
SliderMultiplier:1.8
SliderTickRate:1

[Events]
//Background and Video events
0,0,"bgg.jpg",0,0
//Break Periods
2,28546,32056
2,214646,218790
2,280569,281239
//Storyboard Layer 0 (Background)
//Storyboard Layer 1 (Fail)
//Storyboard Layer 2 (Pass)
//Storyboard Layer 3 (Foreground)
//Storyboard Layer 4 (Overlay)
//Storyboard Sound Samples

[TimingPoints]
2747,800,4,2,2,40,1,0
2747,-83.3333333333333,4,2,2,40,0,0
28347,-83.3333333333333,4,2,2,15,0,0
31998,306.122448979592,4,1,1,60,1,0
32457,-100,4,1,1,5,0,0
32610,-100,4,1,1,60,0,0
33528,-83.3333333333333,4,1,1,60,0,0
36742,-66.6666666666667,4,1,1,60,0,0
38426,-83.3333333333333,4,1,1,60,0,0
42253,-66.6666666666667,4,1,1,60,0,0
43324,-83.3333333333333,4,1,1,60,0,0
46538,-66.6666666666667,4,1,1,60,0,0
48222,-83.3333333333333,4,1,1,60,0,0
51895,-333.333333333333,4,2,1,60,0,0
52814,-125,4,2,1,50,0,0
57712,-100,4,1,1,60,0,0
62610,-125,4,2,1,50,0,0
67508,-100,4,1,1,60,0,0
71105,-100,4,1,1,5,0,0
71334,-100,4,1,1,60,0,0
71411,-100,4,1,1,5,0,0
71640,-100,4,1,1,60,0,0
71717,-100,4,1,1,5,0,0
71946,-66.6666666666667,4,1,1,60,0,0
72329,-66.6666666666667,4,1,1,5,0,0
72406,-90.9090909090909,4,1,1,60,0,0
80901,-90.9090909090909,4,1,1,5,0,0
81130,-90.9090909090909,4,1,1,60,0,0
81207,-90.9090909090909,4,1,1,5,0,0
81436,-90.9090909090909,4,1,1,60,0,0
81513,-90.9090909090909,4,1,1,5,0,0
81742,-90.9090909090909,4,1,1,60,0,0
84651,-125,4,1,1,60,0,0
84957,-66.6666666666667,4,1,1,60,0,0
85263,-125,4,1,1,60,0,0
85569,-66.6666666666667,4,1,1,60,0,0
85875,-90.9090909090909,4,1,1,60,0,0
89855,-66.6666666666667,4,1,1,60,0,0
90620,-76.9230769230769,4,1,1,60,0,0
91998,-50,4,1,1,80,0,1
92457,-66.6666666666667,4,1,1,80,0,1
104549,-50,4,1,1,80,0,1
105620,-55.5555555555556,4,1,1,80,0,1
106691,-66.6666666666667,4,1,1,80,0,1
110212,-45.4545454545455,4,1,1,80,0,1
111589,-50,4,1,1,80,0,1
112049,-66.6666666666667,4,1,1,80,0,1
119702,-50,4,1,1,80,0,1
120008,-66.6666666666667,4,1,1,80,0,1
123834,-100,4,1,1,80,0,1
124140,-66.6666666666667,4,1,1,80,0,1
124446,-50,4,1,1,80,0,1
124600,-40,4,1,1,80,0,1
124906,-33.3333333333333,4,1,1,80,0,1
126283,-66.6666666666667,4,1,1,80,0,1
127355,-71.4285714285714,4,1,1,60,0,0
127814,-71.4285714285714,4,2,0,60,0,0
128732,-100,4,1,1,60,0,0
137610,-100,4,2,2,60,0,0
137763,-125,4,2,2,60,0,0
137839,-125,4,2,2,5,0,0
138452,-125,4,2,2,5,0,0
138522,-166.666666666667,4,2,2,80,0,0
138834,-166.666666666667,4,2,2,65,0,0
139140,-166.666666666667,4,2,2,50,0,0
139446,-166.666666666667,4,2,2,35,0,0
139753,-166.666666666667,4,2,2,25,0,0
140059,-166.666666666667,4,2,2,10,0,0
140365,-166.666666666667,4,2,2,5,0,0
140977,-166.666666666667,4,2,2,15,0,0
141283,-166.666666666667,4,2,2,35,0,0
141589,-166.666666666667,4,2,2,55,0,0
143120,-166.666666666667,4,2,1,60,0,0
143426,-100,4,1,1,60,0,0
148324,-125,4,2,1,50,0,0
153222,-100,4,1,1,60,0,0
156819,-100,4,1,1,5,0,0
157049,-100,4,1,1,60,0,0
157125,-100,4,1,1,5,0,0
157355,-100,4,1,1,60,0,0
157431,-100,4,1,1,5,0,0
157661,-66.6666666666667,4,1,1,60,0,0
158043,-66.6666666666667,4,1,1,5,0,0
158120,-90.9090909090909,4,1,1,60,0,0
160875,-90.9090909090909,4,1,2,60,0,0
161334,-90.9090909090909,4,1,1,60,0,0
166615,-90.9090909090909,4,1,1,5,0,0
166844,-90.9090909090909,4,1,1,60,0,0
166921,-90.9090909090909,4,1,1,5,0,0
167151,-90.9090909090909,4,1,1,60,0,0
167227,-90.9090909090909,4,1,1,5,0,0
167457,-90.9090909090909,4,1,1,60,0,0
170365,-125,4,1,1,60,0,0
170671,-66.6666666666667,4,1,1,60,0,0
170977,-125,4,1,1,60,0,0
171283,-66.6666666666667,4,1,1,60,0,0
171589,-90.9090909090909,4,1,1,60,0,0
175569,-66.6666666666667,4,1,1,60,0,0
176334,-76.9230769230769,4,1,1,60,0,0
177712,-50,4,1,1,80,0,1
178171,-66.6666666666667,4,1,1,80,0,1
185059,-200,4,1,1,80,0,1
185365,-66.6666666666667,4,1,1,80,0,1
190263,-50,4,1,1,80,0,1
191334,-55.5555555555556,4,1,1,80,0,1
192406,-66.6666666666667,4,1,1,80,0,1
195926,-45.4545454545455,4,1,1,80,0,1
196844,-100,4,1,1,80,0,1
197304,-50,4,1,1,80,0,1
197610,-66.6666666666667,4,1,1,80,0,1
204651,-200,4,1,1,80,0,1
204957,-66.6666666666667,4,1,1,80,0,1
209549,-100,4,1,1,80,0,1
209855,-66.6666666666667,4,1,1,80,0,1
210161,-50,4,1,1,80,0,1
210314,-40,4,1,1,80,0,1
210620,-33.3333333333333,4,1,1,80,0,1
211998,-66.6666666666667,4,1,1,80,0,1
213069,-71.4285714285714,4,1,1,60,0,0
213528,-71.4285714285714,4,2,0,60,0,0
214446,-71.4285714285714,4,1,1,60,0,0
219344,-200,4,1,1,60,0,0
219651,-66.6666666666667,4,1,1,60,0,0
219957,-200,4,1,1,60,0,0
220263,-66.6666666666667,4,1,1,60,0,0
220569,-200,4,1,1,60,0,0
220875,-66.6666666666667,4,1,1,60,0,0
221181,-200,4,1,1,60,0,0
221487,-66.6666666666667,4,1,1,60,0,0
223018,-50,4,1,1,60,0,0
224242,-50,4,1,1,70,0,0
224702,-55.5555555555556,4,1,1,70,0,0
236487,-100,4,1,1,70,0,0
236793,-66.6666666666667,4,1,1,70,0,0
237100,-100,4,1,1,70,0,0
237406,-66.6666666666667,4,1,1,70,0,0
241385,-55.5555555555556,4,1,1,70,0,0
243834,-100,4,1,1,60,0,0
243911,-100,4,1,1,5,0,0
243987,-500,4,1,1,60,0,0
244064,-500,4,1,2,5,0,0
244906,-100,4,1,1,60,0,0
244982,-100,4,1,2,5,0,0
245212,-100,4,1,1,60,0,0
245288,-100,4,1,2,5,0,0
245365,-500,4,1,1,60,0,0
245441,-500,4,1,2,5,0,0
245824,-500,4,1,1,60,0,0
245977,-66.6666666666667,4,1,1,60,0,0
246054,-66.6666666666667,4,1,2,5,0,0
246283,-100,4,1,1,60,0,0
246360,-100,4,1,2,5,0,0
246436,-500,4,1,1,60,0,0
246513,-500,4,1,2,5,0,0
247355,-100,4,1,1,60,0,0
247431,-100,4,1,2,5,0,0
247661,-100,4,1,1,60,0,0
247737,-100,4,1,2,5,0,0
247814,-500,4,1,1,60,0,0
247890,-500,4,1,2,5,0,0
248273,-100,4,1,1,60,0,0
248809,-100,4,1,2,5,0,0
248885,-500,4,1,1,60,0,0
248962,-500,4,1,2,5,0,0
249344,-100,4,1,1,60,0,0
249421,-100,4,1,2,5,0,0
249498,-500,4,1,1,60,0,0
249574,-500,4,1,2,5,0,0
249957,-500,4,1,1,60,0,0
252253,-66.6666666666667,4,1,1,60,0,0
253630,-100,4,1,1,60,0,0
255161,-125,4,1,1,60,0,0
255467,-166.666666666667,4,1,1,60,0,0
255773,-250,4,1,1,60,0,0
256079,-100,4,1,1,60,0,0
263426,-50,4,1,1,80,0,1
263885,-66.6666666666667,4,1,1,80,0,1
270773,-200,4,1,1,80,0,1
271079,-66.6666666666667,4,1,1,80,0,1
276742,-50,4,1,1,80,0,1
278120,-66.6666666666667,4,1,1,80,0,1
279191,-66.6666666666667,4,1,1,80,0,0
281793,-66.6666666666667,4,1,1,50,0,0
283018,-83.3333333333333,4,1,1,60,0,0
283936,-66.6666666666667,4,1,1,60,0,0
286538,-50,4,1,1,60,0,0
288222,-66.6666666666667,4,1,1,60,0,0
296334,-50,4,1,1,60,0,0
298018,-66.6666666666667,4,1,1,60,0,0

[Colours]
Combo1 : 167,112,250
Combo2 : 250,133,165
Combo3 : 127,127,127

[HitObjects]
268,32,2747,6,0,P|253:138|244:246,1,215.999993408203,2|0,0:0|0:0,0:0:0:0:
336,304,3947,1,2,0:0:0:0:
336,304,4147,2,0,P|404:272|393:197,1,161.999995056153
291,139,5147,1,2,0:0:0:0:
195,209,5547,1,2,0:0:0:0:
24,64,5947,6,0,B|88:92|88:92|53:233,1,215.999993408203,2|0,0:0|0:0,0:0:0:0:
165,312,7147,1,2,0:0:0:0:
104,369,7347,2,0,P|161:338|283:354,1,161.999995056153
328,384,8347,1,0,0:0:0:0:
434,319,8747,2,0,L|443:254,1,53.9999983520508,2|0,0:0|0:0,0:0:0:0:
493,168,9147,6,0,B|506:194|506:194|475:165|433:169,1,107.999996704102,2|0,0:0|0:0,0:0:0:0:
332,284,9747,2,0,B|302:282|302:282|343:269|361:231,1,107.999996704102,2|0,0:0|0:0,0:0:0:0:
312,86,10347,2,0,B|328:61|328:61|318:103|342:137,1,107.999996704102,2|0,0:0|0:0,0:0:0:0:
342,136,11147,5,2,0:0:0:0:
234,125,11547,1,2,0:0:0:0:
126,115,11947,1,2,0:0:0:0:
40,232,12347,6,0,B|-5:218|26:168|94:197|88:304|35:314,1,161.999995056153,2|0,0:0|0:0,0:0:0:0:
57,300,13147,2,0,P|47:174|46:134,1,161.999995056153,2|0,0:0|0:0,0:0:0:0:
0,64,13947,5,0,0:0:0:0:
120,0,14347,2,0,P|168:8|210:17,1,53.9999983520508
208,80,14747,2,0,P|256:72|298:63,1,53.9999983520508
344,40,15147,1,2,0:0:0:0:
344,40,15347,1,0,0:0:0:0:
496,72,15547,6,0,P|394:54|333:135,1,215.999993408203,2|0,0:0|0:0,0:0:0:0:
444,248,16613,2,0,P|450:212|459:177,1,71.9999978027344,2|0,0:0|0:0,0:0:0:0:
388,316,17147,5,2,0:0:0:0:
512,292,17547,1,2,0:0:0:0:
384,332,17947,1,2,0:0:0:0:
286,241,18347,1,2,0:0:0:0:
140,340,18747,6,0,P|70:323|-6:306,1,107.999996704102,2|0,0:0|0:0,0:0:0:0:
8,188,19547,5,2,0:0:0:0:
8,188,19747,2,0,P|71:174|106:167,1,53.9999983520508,2|0,0:0|0:0,0:0:0:0:
152,208,20147,2,0,B|195:153|166:79|166:79|195:153|263:161,1,269.999991760254,2|0,0:0|0:0,0:0:0:0:
263,161,21547,1,2,0:0:0:0:
240,244,21747,1,0,0:0:0:0:
421,215,21947,6,0,P|371:199|323:221,2,107.999996704102,2|0|2,0:0|0:0|0:0,0:0:0:0:
348,176,22947,1,0,0:0:0:0:
449,294,23347,6,0,P|465:165|475:108,1,161.999995056153,2|0,0:0|0:0,0:0:0:0:
496,176,24147,1,0,0:0:0:0:
496,176,24347,1,2,0:0:0:0:
352,320,24747,1,0,0:0:0:0:
155,186,25147,6,0,B|245:266|245:386|245:386|254:267|352:200|352:200|263:130|266:-1|266:-1|252:129|158:190,1,863.999973632813,2|2,0:0|0:0,0:0:0:0:
256,0,32610,5,4,0:2:0:0:
256,0,32916,1,4,0:2:0:0:
408,165,33222,6,0,L|420:91,1,45,6|0,0:2|2:0,0:0:0:0:
341,107,33375,2,0,L|333:151,1,45,0|0,0:0|2:0,0:0:0:0:
225,219,33528,6,0,P|257:149|333:151,1,161.999995056153,8|0,0:0|2:0,0:0:0:0:
365,181,33834,1,2,0:2:0:0:
439,338,33987,1,2,0:2:0:0:
506,286,34140,2,0,L|338:315,1,161.999995056153,8|0,0:0|2:0,0:0:0:0:
320,342,34446,6,0,B|150:318|150:318|131:276,1,215.999993408203,2|8,0:2|0:0,0:0:0:0:
88,197,34906,2,0,B|31:260|31:260|87:386,1,215.999993408203,2|2,0:2|0:2,0:0:0:0:
238,294,35365,2,0,L|131:277,1,107.999996704102,8|0,0:0|0:0,0:0:0:0:
0,172,35671,5,2,0:2:0:0:
158,136,35824,1,0,0:0:0:0:
290,230,35977,1,12,0:0:0:0:
113,211,36130,5,0,0:0:0:0:
255,133,36283,1,0,1:0:0:0:
238,294,36436,1,0,1:0:0:0:
158,136,36589,5,8,0:0:0:0:
355,316,36742,2,0,B|355:279|327:249|327:249|367:113|367:113|343:95|341:65,2,270.000010299683,14|14|14,0:1|0:0|0:0,0:0:0:0:
255,133,37508,1,2,0:2:0:0:
487,205,37661,1,2,0:0:0:0:
270,315,37814,1,8,0:0:0:0:
427,55,37967,1,0,0:0:0:0:
427,55,38043,1,0,0:0:0:0:
427,55,38120,1,6,0:2:0:0:
427,55,38426,6,0,P|285:36|189:24,1,215.999993408203,8|2,0:0|0:2,0:0:0:0:
124,184,38885,1,2,0:2:0:0:
0,68,39038,2,0,P|67:75|117:81,1,107.999996704102,8|0,0:0|0:0,0:0:0:0:
297,225,39344,6,0,P|349:142|321:73,1,161.999995056153,2|0,0:2|2:0,0:0:0:0:
308,64,39651,1,8,0:0:0:0:
136,196,39804,2,0,P|141:263|146:318,1,107.999996704102,2|0,0:2|0:0,0:0:0:0:
236,364,40110,1,2,0:2:0:0:
52,320,40263,2,0,P|70:266|129:254,1,107.999996704102,8|0,0:0|0:0,0:0:0:0:
297,225,40569,6,0,P|246:142|143:168,2,215.999993408203,2|8|2,0:2|0:0|0:2,0:0:0:0:
224,280,41334,1,2,0:2:0:0:
203,174,41487,1,8,0:0:0:0:
314,76,41640,1,0,0:0:0:0:
464,137,41793,1,2,0:2:0:0:
224,280,41946,6,0,P|225:226|229:172,1,107.999996704102,14|0,0:0|0:0,0:0:0:0:
36,74,42253,2,0,P|6:164|141:240,1,270.000010299683,14|8,0:0|0:3,0:0:0:0:
213,256,42635,1,8,0:3:0:0:
231,207,42712,1,8,0:0:0:0:
228,172,42788,1,4,0:3:0:0:
211,154,42865,1,4,0:3:0:0:
198,157,42941,1,4,0:3:0:0:
200,168,43018,1,4,0:0:0:0:
200,168,43324,6,0,L|439:138,1,215.999993408203,8|2,0:0|0:2,0:0:0:0:
489,196,43783,1,0,0:0:0:0:
328,120,43936,1,8,0:0:0:0:
435,263,44089,1,0,0:0:0:0:
318,48,44242,6,0,B|304:215|304:215|341:257,1,215.999993408203,2|8,0:2|0:0,0:0:0:0:
352,343,44702,2,0,B|288:338|288:338|230:270|230:270|144:265,1,215.999993408203,2|2,0:2|0:2,0:0:0:0:
344,143,45161,2,0,L|335:250,1,107.999996704102,8|0,0:0|0:0,0:0:0:0:
188,348,45467,5,2,0:2:0:0:
226,190,45620,1,0,0:0:0:0:
89,102,45773,1,8,0:0:0:0:
104,263,45926,5,0,0:0:0:0:
193,96,46079,1,2,0:2:0:0:
38,194,46232,1,0,0:0:0:0:
226,190,46385,1,8,0:0:0:0:
287,12,46538,6,0,B|382:29|382:29|422:97|422:97|515:117,2,270.000010299683,14|14|14,0:0|0:0|0:0,0:0:0:0:
469,131,47304,1,2,0:2:0:0:
340,269,47457,1,2,0:0:0:0:
276,196,47610,1,8,0:0:0:0:
488,364,47763,1,0,0:0:0:0:
488,364,47839,1,0,0:0:0:0:
488,364,47916,1,6,0:2:0:0:
488,364,48222,6,0,P|381:348|271:335,1,215.999993408203,8|0,0:0|0:0,0:0:0:0:
416,320,48681,1,2,0:2:0:0:
276,196,48834,1,8,0:0:0:0:
132,332,48987,1,0,0:0:0:0:
141,338,49064,1,0,0:0:0:0:
149,345,49140,2,0,P|169:273|133:235,1,107.999996704102,2|0,0:2|0:0,0:0:0:0:
60,200,49446,1,8,0:0:0:0:
143,384,49600,6,0,P|162:277|186:172,1,215.999993408203,2|2,0:2|0:2,0:0:0:0:
305,112,50059,2,0,P|315:162|275:195,1,107.999996704102,8|0,0:0|0:0,0:0:0:0:
26,115,50365,5,6,0:2:0:0:
185,47,50518,1,0,0:0:0:0:
275,195,50671,1,8,0:0:0:0:
101,349,50824,5,0,0:0:0:0:
134,281,50977,1,0,0:0:0:0:
197,322,51130,1,0,0:0:0:0:
92,356,51283,5,8,0:0:0:0:
401,275,51436,1,2,0:2:0:0:
228,104,51895,6,0,L|220:157,2,53.9999983520508
452,64,52814,6,0,P|385:57|332:110,1,144,2|0,0:2|2:0,0:0:0:0:
249,138,53273,1,2,0:2:0:0:
299,213,53426,2,0,P|291:141|283:69,1,144,0|2,0:0|0:2,0:0:0:0:
201,225,53885,6,0,P|141:204|137:123,1,144,0|2,0:0|0:2,0:0:0:0:
355,178,54344,2,0,P|320:184|298:212,1,72
188,212,54651,2,0,P|183:246|203:276,1,72,2|0,0:2|0:0,0:0:0:0:
240,356,54957,1,2,0:2:0:0:
240,356,55110,1,0,0:0:0:0:
332,328,55263,6,0,P|260:317|105:298,1,216,2|2,0:2|0:2,0:0:0:0:
34,371,55875,2,0,P|12:342|7:306,1,72
91,235,56181,2,0,P|113:264|117:299,1,72,2|0,0:2|0:0,0:0:0:0:
0,168,56487,1,0,0:0:0:0:
0,168,56640,2,0,P|70:153|141:141,1,144,2|0,0:2|0:0,0:0:0:0:
180,44,57100,5,2,0:2:0:0:
264,60,57253,1,0,0:0:0:0:
362,79,57406,1,8,0:0:0:0:
489,104,57559,1,0,0:0:0:0:
280,204,57712,6,0,P|260:117|289:33,2,180,6|8|2,0:2|0:0|0:2,0:0:0:0:
415,147,58477,1,2,0:2:0:0:
236,287,58630,2,0,P|278:300|321:290,1,90,8|0,0:0|0:0,0:0:0:0:
457,234,58936,6,0,L|278:203,1,180,6|8,0:2|0:0,0:0:0:0:
236,287,59395,1,0,0:0:0:0:
111,124,59549,2,0,P|85:162|82:205,1,90,2|2,0:2|0:2,0:0:0:0:
206,371,59855,2,0,P|185:283|172:194,1,180,8|2,0:0|0:2,0:0:0:0:
172,194,60467,5,8,0:0:0:0:
59,322,60620,1,0,0:0:0:0:
0,162,60773,1,2,0:2:0:0:
171,284,60926,5,2,0:2:0:0:
277,265,61079,1,8,0:0:0:0:
383,247,61232,1,0,0:0:0:0:
147,86,61385,5,2,0:2:0:0:
125,182,61538,1,2,0:2:0:0:
223,188,61691,1,8,0:0:0:0:
245,92,61844,1,0,0:0:0:0:
88,272,61997,5,8,0:0:0:0:
88,272,62074,1,8,0:0:0:0:
88,272,62151,1,8,0:0:0:0:
44,51,62304,1,8,0:0:0:0:
280,8,62457,1,8,0:0:0:0:
324,228,62610,1,2,0:2:0:0:
415,168,62763,5,0,0:0:0:0:
420,141,62916,1,0,0:0:0:0:
426,114,63069,1,2,0:2:0:0:
240,214,63222,2,0,P|241:249|259:282,1,72
336,316,63528,1,2,0:2:0:0:
220,356,63681,6,0,P|230:284|240:213,1,144,0|2,0:0|0:2,0:0:0:0:
324,228,64140,2,0,P|329:192|334:156,1,72
128,84,64446,2,0,P|115:120|126:158,1,72,2|0,0:2|0:0,0:0:0:0:
84,236,64753,2,0,P|114:259|153:260,1,72,2|0,0:2|0:0,0:0:0:0:
239,213,65059,6,0,L|222:59,1,144,2|0,0:2|0:0,0:0:0:0:
292,16,65518,1,0,0:0:0:0:
444,128,65671,2,0,P|374:93|303:112,2,144,0|2|0,0:0|0:2|0:0,0:0:0:0:
247,284,66436,6,0,P|239:240|239:198,1,72
315,203,66742,2,0,P|323:247|323:289,1,72
296,348,67049,1,0,0:0:0:0:
161,258,67202,1,12,0:0:0:0:
268,136,67355,1,0,0:0:0:0:
403,225,67508,6,0,P|413:135|423:46,1,180,6|8,0:2|0:0,0:0:0:0:
314,313,67967,2,0,P|286:279|277:228,1,90,2|0,0:2|0:0,0:0:0:0:
384,120,68273,1,2,0:2:0:0:
489,340,68426,6,0,P|448:321|403:317,1,90,8|0,0:0|0:0,0:0:0:0:
276,234,68732,2,0,P|231:238|188:257,1,90,6|0,0:2|0:0,0:0:0:0:
446,221,69038,2,0,P|391:178|343:171,1,90,8|0,0:0|0:0,0:0:0:0:
234,323,69344,2,0,P|197:348|175:387,1,90,2|0,0:2|0:0,0:0:0:0:
169,156,69651,6,0,P|122:208|110:322,1,180,8|6,0:0|0:2,0:0:0:0:
107,313,70263,1,8,0:0:0:0:
173,195,70416,1,0,0:0:0:0:
104,79,70569,1,2,0:2:0:0:
50,151,70722,5,0,0:0:0:0:
227,123,70875,5,8,0:0:0:0:
404,95,71028,6,0,L|390:157,1,45,12|0,0:0|2:0,0:0:0:0:
243,245,71334,6,0,L|252:288,1,45,12|0,0:0|2:0,0:0:0:0:
472,376,71640,6,0,L|481:332,1,45,12|0,0:0|2:0,0:0:0:0:
308,132,71946,5,2,0:2:0:0:
308,132,72023,1,2,0:2:0:0:
308,132,72100,2,0,P|323:231|335:342,1,202.500007724762,12|0,0:0|2:0,0:0:0:0:
260,368,72406,6,0,P|165:360|139:271,1,198.000006042481,6|8,0:2|0:0,0:0:0:0:
218,196,72865,1,0,0:0:0:0:
428,292,73018,1,0,0:0:0:0:
334,332,73171,1,2,0:2:0:0:
334,332,73324,2,0,P|338:282|343:233,1,99.0000030212403,8|0,0:0|0:0,0:0:0:0:
499,182,73630,6,0,P|421:158|304:131,1,198.000006042481,2|8,0:2|0:0,0:0:0:0:
218,196,74089,2,0,P|165:181|151:135,1,99.0000030212403
298,54,74395,1,2,0:2:0:0:
253,222,74549,2,0,P|259:123|281:26,1,198.000006042481,8|2,0:0|0:2,0:0:0:0:
281,26,75161,6,0,L|285:124,1,99.0000030212403,8|0,0:0|0:0,0:0:0:0:
439,193,75467,1,2,0:2:0:0:
439,193,75620,2,0,P|432:242|427:291,1,99.0000030212403,2|8,0:2|0:0,0:0:0:0:
138,272,75926,6,0,P|143:340|150:399,1,99.0000030212403,2|0,0:2|0:0,0:0:0:0:
285,124,76232,2,0,P|282:177|276:238,1,99.0000030212403,2|8,0:2|0:0,0:0:0:0:
26,39,76538,2,0,P|31:107|38:166,1,99.0000030212403,2|0,0:2|0:0,0:0:0:0:
138,272,76844,5,2,0:2:0:0:
148,193,76997,1,8,0:0:0:0:
155,113,77151,1,0,0:0:0:0:
8,320,77304,6,0,P|104:301|201:320,1,198.000006042481,6|8,0:2|0:0,0:0:0:0:
276,384,77763,1,0,0:0:0:0:
211,225,77916,2,0,P|193:270|200:319,1,99.0000030212403,2|0,0:2|0:0,0:0:0:0:
400,272,78222,1,8,0:0:0:0:
325,192,78375,1,0,0:0:0:0:
325,192,78528,6,0,P|297:286|275:383,2,198.000006042481,2|8|0,0:2|0:0|0:0,0:0:0:0:
379,363,79293,1,2,0:2:0:0:
482,243,79446,1,8,0:0:0:0:
248,145,79600,1,0,0:0:0:0:
398,273,79753,6,0,P|435:227|432:174,1,99.0000030212403,2|0,0:2|0:0,0:0:0:0:
292,34,80059,1,12,0:0:0:0:
331,229,80212,2,0,P|307:222|282:219,1,49.5000015106202,0|0,0:0|2:0,0:0:0:0:
100,124,80365,2,0,L|256:146,1,148.50000453186,2|0,0:2|2:0,0:0:0:0:
284,132,80671,1,8,0:0:0:0:
120,324,80824,6,0,L|106:263,1,49.5000015106202,12|0,0:0|2:0,0:0:0:0:
331,229,81130,6,0,L|345:168,1,49.5000015106202,12|0,0:0|2:0,0:0:0:0:
121,58,81436,6,0,L|133:107,1,49.5000015106202,12|0,0:0|2:0,0:0:0:0:
273,292,81742,5,8,0:0:0:0:
273,292,81819,1,8,0:0:0:0:
273,292,81895,1,8,0:0:0:0:
8,200,82049,5,8,0:0:0:0:
8,200,82125,1,8,0:0:0:0:
8,200,82202,2,0,P|89:143|194:160,1,198.000006042481,6|8,0:2|0:0,0:0:0:0:
48,336,82661,1,0,0:0:0:0:
131,222,82814,2,0,P|165:265|160:324,1,99.0000030212403,2|0,0:2|0:0,0:0:0:0:
232,368,83120,2,0,P|281:357|338:355,1,99.0000030212403,8|0,0:0|0:0,0:0:0:0:
424,272,83426,6,0,P|342:318|259:267,1,198.000006042481,2|8,0:2|0:0,0:0:0:0:
343,216,83885,2,0,P|375:124|348:30,1,198.000006042481,2|2,0:2|0:2,0:0:0:0:
247,0,84344,2,0,P|241:37|263:5,1,99.0000030212403,8|0,0:0|0:0,0:0:0:0:
105,102,84651,6,0,P|140:95|176:91,1,72,2|0,0:2|0:0,0:0:0:0:
416,149,84957,2,0,P|419:216|419:283,1,135.000005149842,12|0,0:0|0:0,0:0:0:0:
184,360,85263,6,0,P|177:325|173:289,1,72,2|0,0:2|0:0,0:0:0:0:
336,75,85569,2,0,P|403:72|470:72,1,135.000005149842,12|0,0:0|0:0,0:0:0:0:
317,249,85875,6,0,P|223:264|146:206,1,198.000006042481,0|12,0:2|0:0,0:0:0:0:
88,272,86334,1,0,0:0:0:0:
0,88,86487,5,8,0:3:0:0:
39,90,86564,1,8,0:3:0:0:
79,93,86640,1,8,0:3:0:0:
119,96,86717,1,8,0:3:0:0:
149,126,86793,5,4,0:3:0:0:
188,128,86870,1,4,0:3:0:0:
228,131,86946,1,4,0:3:0:0:
268,134,87023,1,4,0:3:0:0:
303,160,87100,6,0,P|354:106|322:-9,1,198.000006042481,6|8,0:2|0:0,0:0:0:0:
188,128,87559,2,0,L|215:297,1,148.50000453186,2|0,0:2|2:0,0:0:0:0:
240,300,87865,1,2,0:2:0:0:
400,176,88018,2,0,L|273:155,1,99.0000030212403,8|0,0:0|0:0,0:0:0:0:
136,324,88324,6,0,P|166:283|224:278,1,99.0000030212403,2|0,0:2|0:0,0:0:0:0:
292,141,88630,2,0,P|340:156|362:210,1,99.0000030212403,8|0,0:0|0:0,0:0:0:0:
429,369,88936,6,0,P|378:376|334:339,1,99.0000030212403,2|0,0:2|0:0,0:0:0:0:
211,274,89242,2,0,P|188:228|209:174,1,99.0000030212403,8|0,0:0|0:0,0:0:0:0:
256,56,89549,5,0,0:0:0:0:
211,274,89702,5,12,0:0:0:0:
32,144,89855,2,0,P|110:158|176:175,1,135.000005149842,8|2,0:0|0:2,0:0:0:0:
301,360,90161,5,12,0:0:0:0:
480,230,90314,2,0,P|402:244|336:261,1,135.000005149842,8|2,0:0|0:2,0:0:0:0:
149,349,90620,6,0,P|115:298|126:230,1,116.999994644165,12|0,0:0|0:0,0:0:0:0:
380,60,90926,2,0,P|414:111|403:179,1,116.999994644165,12|0,0:0|0:0,0:0:0:0:
160,72,91232,1,6,0:2:0:0:
404,272,91998,6,0,B|452:228|452:228|452:172|372:144|308:228|336:292,1,270,4|0,0:0|2:0,0:0:0:0:
320,280,92304,1,8,0:0:0:0:
152,208,92457,2,0,P|147:240|163:273,1,67.5000025749208,0|0,0:0|2:0,0:0:0:0:
256,364,92610,2,0,L|224:156,1,202.500007724762,2|0,0:2|2:0,0:0:0:0:
200,140,92916,1,8,0:0:0:0:
48,368,93069,6,0,P|124:376|192:332,1,135.000005149842,2|0,0:2|0:0,0:0:0:0:
304,136,93375,1,2,0:2:0:0:
456,252,93528,2,0,L|390:236,1,67.5000025749208,8|0,0:0|2:0,0:0:0:0:
316,216,93681,1,0,0:0:0:0:
436,116,93834,5,2,0:2:0:0:
244,64,93987,1,2,0:2:0:0:
200,140,94140,1,8,0:0:0:0:
472,36,94293,1,0,0:0:0:0:
96,0,94446,6,0,P|86:65|119:124,1,135.000005149842,6|0,0:2|0:0,0:0:0:0:
39,339,94753,2,0,P|35:247|127:235,1,202.500007724762,8|0,0:0|2:0,0:0:0:0:
140,268,95059,1,2,0:2:0:0:
16,144,95212,1,2,0:2:0:0:
216,36,95365,2,0,L|200:108,1,67.5000025749208,8|0,0:0|2:0,0:0:0:0:
256,252,95518,6,0,P|310:216|313:151,1,135.000005149842,2|0,0:2|0:0,0:0:0:0:
212,352,95824,1,2,0:2:0:0:
313,151,95977,2,0,P|260:120|188:180,1,135.000005149842,8|0,0:0|0:0,0:0:0:0:
424,344,96283,5,2,0:2:0:0:
488,256,96436,1,2,0:2:0:0:
464,100,96589,1,8,0:0:0:0:
284,28,96742,1,0,0:0:0:0:
388,40,96895,5,6,0:2:0:0:
188,68,97049,1,0,0:0:0:0:
380,140,97202,2,0,P|351:121|320:108,1,67.5000025749208,8|0,0:0|2:0,0:0:0:0:
128,0,97355,2,0,P|96:57|187:155,1,202.500007724762,2|0,0:2|2:0,0:0:0:0:
199,175,97661,1,0,0:0:0:0:
88,316,97814,6,0,P|50:261|56:195,1,135.000005149842,8|0,0:0|0:0,0:0:0:0:
316,260,98120,2,0,P|322:194|284:139,1,135.000005149842,2|0,0:2|0:0,0:0:0:0:
132,208,98426,6,0,P|144:142|195:100,1,135.000005149842,8|0,0:0|0:0,0:0:0:0:
372,348,98732,2,0,P|422:305|435:240,1,135.000005149842,2|0,0:2|0:0,0:0:0:0:
208,276,99038,6,0,P|212:328|304:348,1,135.000005149842,8|0,0:0|0:0,0:0:0:0:
480,144,99344,2,0,L|280:177,1,202.500007724762,2|0,0:2|2:0,0:0:0:0:
248,164,99651,1,12,0:0:0:0:
152,24,99804,2,0,L|226:36,1,67.5000025749208,0|0,0:0|2:0,0:0:0:0:
359,164,99957,1,2,0:2:0:0:
208,276,100110,1,2,0:2:0:0:
306,82,100263,1,8,0:0:0:0:
391,282,100416,1,2,0:2:0:0:
160,120,100569,5,2,0:0:0:0:
80,136,100722,1,2,0:2:0:0:
0,152,100875,1,8,0:0:0:0:
306,82,101028,5,2,0:0:0:0:
386,98,101181,1,2,0:2:0:0:
466,114,101334,1,8,0:0:0:0:
236,0,101487,6,0,L|224:67,1,67.5000025749208,8|0,0:3|2:0,0:0:0:0:
290,260,101640,5,4,0:3:0:0:
290,260,101717,1,4,0:3:0:0:
290,260,101793,2,0,P|411:280|502:305,1,202.500007724762,4|0,0:0|2:0,0:0:0:0:
509,289,102100,2,0,P|525:236|432:210,1,135.000005149842,8|0,0:0|0:0,0:0:0:0:
272,272,102406,5,2,0:2:0:0:
61,384,102559,1,2,0:2:0:0:
61,384,102635,1,2,0:2:0:0:
61,384,102712,2,0,P|51:335|55:306,1,67.5000025749208,8|0,0:0|2:0,0:0:0:0:
190,168,102865,2,0,P|200:217|196:246,1,67.5000025749208,2|0,0:2|2:0,0:0:0:0:
144,376,103018,6,0,B|125:342|135:294|135:294|109:223|26:236,1,202.500007724762,0|0,0:0|2:0,0:0:0:0:
11,253,103324,1,8,0:0:0:0:
213,330,103477,1,0,0:0:0:0:
290,128,103630,1,2,0:2:0:0:
88,51,103783,1,2,0:2:0:0:
50,153,103936,1,8,0:0:0:0:
151,191,104089,1,0,0:0:0:0:
189,90,104242,6,0,P|310:71|421:57,1,202.500007724762,2|0,0:2|2:0,0:0:0:0:
452,225,104549,2,0,B|536:260|588:123|395:114|384:258,1,270,12|0,0:0|2:0,0:0:0:0:
316,340,104855,6,0,L|297:237,1,90,0|0,0:0|2:0,0:0:0:0:
263,44,105008,1,10,0:0:0:0:
263,44,105314,6,0,B|328:109|252:214|227:88|151:197|220:257,1,270,14|0,0:0|2:0,0:0:0:0:
231,266,105620,6,0,P|256:276|232:262,1,80.9999975280763,2|0,0:2|2:0,0:0:0:0:
124,167,105773,2,0,P|117:206|125:246,1,80.9999975280763,8|0,0:0|2:0,0:0:0:0:
88,319,105926,2,0,P|126:329|164:318,1,80.9999975280763,0|0,0:0|2:0,0:0:0:0:
316,209,106079,5,2,0:2:0:0:
80,92,106232,1,8,0:0:0:0:
31,254,106385,1,8,0:3:0:0:
365,47,106538,5,8,0:0:0:0:
365,47,106615,1,8,0:0:0:0:
365,47,106691,2,0,L|342:258,1,202.500007724762,6|0,0:2|2:0,0:0:0:0:
364,280,106997,1,8,0:0:0:0:
512,144,107151,2,0,P|474:90|409:86,1,135.000005149842,2|0,0:2|0:0,0:0:0:0:
284,16,107457,1,2,0:2:0:0:
146,57,107610,2,0,P|118:116|146:174,1,135.000005149842,8|0,0:0|0:0,0:0:0:0:
278,303,107916,5,2,0:2:0:0:
472,244,108069,1,0,0:0:0:0:
303,132,108222,1,8,0:0:0:0:
364,233,108375,5,0,0:0:0:0:
301,34,108528,1,2,0:2:0:0:
146,174,108681,1,0,0:0:0:0:
242,219,108834,5,8,0:0:0:0:
242,219,108987,1,0,0:0:0:0:
22,310,109140,6,0,B|133:291|133:291|169:322|169:322|277:303,1,270.000010299683,6|8,0:2|0:0,0:0:0:0:
400,160,109600,2,0,B|456:133|406:36|316:76|290:144|316:204|362:232,1,270.000010299683,2|2,0:2|0:2,0:0:0:0:
448,248,110059,5,8,0:0:0:0:
224,16,110212,6,0,B|238:67|180:109|180:109|245:138|234:210|234:210|181:275|214:361,2,396.000012084961,6|6|6,0:0|0:0|0:0,0:0:0:0:
88,324,111130,5,0,0:0:0:0:
88,319,111207,1,0,0:0:0:0:
91,316,111283,1,0,0:0:0:0:
95,315,111360,1,0,0:0:0:0:
99,316,111436,1,0,0:0:0:0:
101,319,111513,1,0,0:0:0:0:
101,323,111589,6,0,B|6:283|6:283|-36:250|-18:181|59:174|90:239,1,270,4|0,0:0|2:0,0:0:0:0:
88,239,111895,1,8,0:0:0:0:
168,376,112049,2,0,P|201:379|265:343,1,67.5000025749208,0|0,0:0|2:0,0:0:0:0:
343,202,112202,2,0,P|253:191|193:279,1,202.500007724762,2|0,0:2|2:0,0:0:0:0:
192,303,112508,1,8,0:0:0:0:
378,381,112661,6,0,P|412:322|399:258,1,135.000005149842,2|0,0:2|0:0,0:0:0:0:
500,238,112967,1,2,0:2:0:0:
289,146,113120,2,0,P|269:173|265:206,1,67.5000025749208,8|0,0:0|2:0,0:0:0:0:
304,280,113273,1,0,0:0:0:0:
74,362,113426,5,2,0:2:0:0:
168,124,113579,1,2,0:2:0:0:
203,343,113732,1,8,0:0:0:0:
39,143,113885,1,2,0:2:0:0:
313,23,114038,6,0,P|322:89|285:148,1,135.000005149842,6|0,0:2|0:0,0:0:0:0:
156,248,114344,2,0,P|127:231|112:201,1,67.5000025749208,8|0,0:0|2:0,0:0:0:0:
39,143,114498,1,0,0:0:0:0:
234,194,114651,2,0,P|136:166|38:142,1,202.500007724762,2|0,0:2|0:0,0:0:0:0:
16,116,114957,1,8,0:0:0:0:
214,9,115110,2,0,P|233:39|237:80,1,67.5000025749208,2|0,0:2|2:0,0:0:0:0:
205,160,115263,5,2,0:2:0:0:
207,240,115416,1,2,0:2:0:0:
273,286,115569,1,8,0:0:0:0:
470,158,115722,5,2,0:2:0:0:
400,241,115875,1,2,0:2:0:0:
307,184,116028,1,2,0:2:0:0:
314,68,116181,5,8,0:0:0:0:
207,240,116334,1,0,0:0:0:0:
388,328,116487,2,0,P|388:233|385:97,1,202.500007724762,6|0,0:2|2:0,0:0:0:0:
402,148,116793,5,8,0:0:0:0:
190,327,116946,2,0,P|133:293|117:229,1,135.000005149842,2|0,0:2|0:0,0:0:0:0:
64,164,117253,1,2,0:2:0:0:
369,27,117406,6,0,P|407:82|401:148,1,135.000005149842,8|0,0:0|0:0,0:0:0:0:
200,202,117712,2,0,P|162:147|168:81,1,135.000005149842,2|0,0:2|0:0,0:0:0:0:
322,169,118018,6,0,P|310:235|259:277,1,135.000005149842,8|0,0:0|0:0,0:0:0:0:
64,164,118324,2,0,P|76:98|127:56,1,135.000005149842,2|0,0:2|0:0,0:0:0:0:
162,329,118630,6,0,P|153:284|169:327,1,135.000005149842,8|0,0:0|0:0,0:0:0:0:
247,118,118936,2,0,P|216:273|199:391,1,270.000010299683,2|12,0:2|0:0,0:0:0:0:
400,320,119395,1,0,0:0:0:0:
325,208,119549,6,0,P|295:190|263:197,1,67.5000025749208,2|0,0:2|2:0,0:0:0:0:
276,278,119702,2,0,P|309:218|253:256,1,180,2|8,0:2|0:0,0:0:0:0:
332,116,120008,1,2,0:2:0:0:
162,329,120161,5,2,0:0:0:0:
149,248,120314,1,2,0:2:0:0:
137,167,120467,1,8,0:0:0:0:
432,76,120620,5,2,0:0:0:0:
418,183,120773,1,2,0:2:0:0:
403,290,120926,1,8,0:0:0:0:
253,135,121079,5,0,0:0:0:0:
253,135,121156,1,0,0:0:0:0:
253,135,121232,1,0,0:0:0:0:
253,135,121309,1,0,0:0:0:0:
253,135,121385,2,0,L|32:183,1,202.500007724762,4|0,0:0|2:0,0:0:0:0:
32,208,121691,1,8,0:0:0:0:
162,329,121844,2,0,P|192:315|204:284,1,67.5000025749208,0|0,0:0|2:0,0:0:0:0:
88,90,121998,1,2,0:2:0:0:
111,384,122151,1,2,0:2:0:0:
111,384,122227,1,0,0:0:0:0:
111,384,122304,2,0,L|139:244,1,135.000005149842,8|0,0:0|0:0,0:0:0:0:
318,27,122610,5,2,0:2:0:0:
137,251,122763,1,2,0:2:0:0:
429,125,122916,5,8,0:0:0:0:
190,185,123069,1,2,0:2:0:0:
415,242,123222,5,2,0:2:0:0:
267,179,123375,1,2,0:2:0:0:
331,304,123528,5,8,0:0:0:0:
322,229,123681,1,2,0:2:0:0:
245,384,123834,6,0,P|239:316|235:249,1,135,2|0,0:2|2:0,0:0:0:0:
152,202,124140,2,0,B|142:161|94:230|176:276|259:235|268:172,1,202.500007724762,12|0,0:0|2:0,0:0:0:0:
344,92,124446,6,0,P|315:105|339:84,1,90,2|0,0:2|2:0,0:0:0:0:
415,242,124600,2,0,P|252:206|80:174,1,337.5,8|0,0:0|2:0,0:0:0:0:
56,148,124906,6,0,P|248:86|445:38,1,405.000015449525,4|0,0:0|2:0,0:0:0:0:
475,52,125212,5,2,0:2:0:0:
260,31,125365,1,8,0:0:0:0:
44,15,125518,1,0,0:3:0:0:
148,76,125671,1,8,0:3:0:0:
252,137,125824,1,8,0:3:0:0:
356,198,125977,1,4,0:3:0:0:
148,76,126130,1,4,0:3:0:0:
437,137,126283,6,0,P|305:169|175:205,2,270.000010299683,4|8|2,0:0|0:0|0:2,0:0:0:0:
308,305,127049,2,0,P|274:305|243:292,1,67.5000025749208,2|0,0:2|2:0,0:0:0:0:
85,182,127202,2,0,P|82:215|92:247,1,67.5000025749208,8|0,0:0|2:0,0:0:0:0:
112,376,127355,6,0,P|127:246|159:-2,1,377.999988464356,4|0,0:0|0:0,0:0:0:0:
170,30,128120,5,0,2:0:0:0:
124,91,128273,1,2,2:0:0:0:
124,106,128350,1,2,2:0:0:0:
129,119,128426,1,2,2:0:0:0:
255,192,128732,6,0,P|389:169|523:159,1,270,4|2,0:0|0:2,0:0:0:0:
343,303,129344,2,0,P|320:266|326:223,1,90,8|0,0:0|0:0,0:0:0:0:
512,128,129651,1,0,0:0:0:0:
440,76,129804,2,0,P|418:163|400:251,1,180,8|8,0:0|0:0,0:0:0:0:
376,384,130263,1,2,0:2:0:0:
376,384,130416,1,0,0:0:0:0:
472,280,130569,5,8,0:0:0:0:
343,303,130722,1,0,0:0:0:0:
255,192,130875,5,0,0:0:0:0:
200,360,131028,1,8,0:0:0:0:
0,228,131181,6,0,P|88:244|176:264,1,180,2|0,0:2|0:0,0:0:0:0:
72,276,131640,1,2,0:2:0:0:
124,152,131793,2,0,P|147:189|148:234,1,90,8|0,0:0|0:0,0:0:0:0:
64,284,132100,1,2,0:2:0:0:
0,120,132253,2,0,P|58:68|159:83,1,180,8|8,0:0|0:0,0:0:0:0:
255,192,132712,6,0,P|276:136|258:111,1,90,2|0,0:2|0:0,0:0:0:0:
220,0,133018,2,0,P|234:136|245:268,1,270,14|0,0:0|0:0,0:0:0:0:
436,340,133630,6,0,B|491:406|550:330|472:255|362:282|340:379,1,270,6|0,0:0|0:0,0:0:0:0:
347,358,134242,2,0,P|357:280|372:167,1,180,8|0,0:0|0:0,0:0:0:0:
464,122,134702,2,0,P|483:161|472:204,1,90,8|0,0:0|0:0,0:0:0:0:
324,280,135008,1,8,0:0:0:0:
191,158,135161,6,0,P|280:168|369:178,1,180,2|8,0:2|0:0,0:0:0:0:
381,89,135620,1,0,0:0:0:0:
291,77,135773,1,0,0:0:0:0:
201,67,135926,1,8,0:0:0:0:
173,336,136079,5,6,0:2:0:0:
111,55,136232,1,0,0:0:0:0:
0,271,136385,1,0,0:0:0:0:
215,255,136538,1,2,0:2:0:0:
42,158,136691,1,8,0:0:0:0:
102,249,136844,1,8,0:0:0:0:
102,249,136921,1,8,0:0:0:0:
102,249,136998,1,8,0:0:0:0:
257,174,137151,5,6,0:2:0:0:
158,48,137610,6,0,L|151:92,1,45,2|2,0:0|0:0,0:0:0:0:
0,159,137763,2,0,L|332:87,1,324,2|0,0:0|0:0,0:0:0:0:
389,242,138528,6,0,B|481:234|491:62|324:64|289:149|317:204|330:220|330:220|442:349|442:349|389:288|306:260|265:337|265:337|262:327|262:327|202:349|149:308|148:247|148:247|132:238|132:238|208:226|231:147|187:80|187:80|160:59|160:59|231:147|175:198,1,1295.99996044922,2|0,0:0|0:0,0:0:0:0:
56,219,142355,1,0,0:0:0:0:
46,216,142661,1,0,0:0:0:0:
97,136,142814,5,0,0:0:0:0:
22,106,142967,1,0,0:0:0:0:
133,238,143120,1,8,0:1:0:0:
219,88,143273,1,0,0:0:0:0:
71,294,143426,6,0,L|276:248,1,180,6|8,0:2|0:0,0:0:0:0:
336,304,143885,1,0,0:0:0:0:
440,151,144038,2,0,P|426:193|415:237,1,90,2|2,0:2|0:2,0:0:0:0:
498,375,144344,2,0,P|465:344|423:329,1,90,8|0,0:0|0:0,0:0:0:0:
306,162,144651,6,0,L|481:211,2,180,6|8|2,0:2|0:0|0:2,0:0:0:0:
512,112,145416,1,2,0:2:0:0:
336,304,145569,2,0,P|275:282|268:236,1,90,8|0,0:0|0:0,0:0:0:0:
221,7,145875,6,0,P|205:95|191:184,1,180,6|8,0:2|0:0,0:0:0:0:
300,64,146334,1,0,0:0:0:0:
111,127,146487,1,2,0:2:0:0:
306,162,146640,1,2,0:2:0:0:
105,29,146793,1,8,0:0:0:0:
18,175,146946,5,0,0:0:0:0:
22,187,147023,1,0,0:0:0:0:
26,199,147100,2,0,L|114:216,1,90,2|0,0:2|0:0,0:0:0:0:
222,150,147406,1,8,0:0:0:0:
96,324,147559,2,0,P|130:247|228:258,1,180,2|8,0:2|0:0,0:0:0:0:
296,204,148018,1,8,0:0:0:0:
413,341,148171,1,8,0:0:0:0:
512,244,148324,6,0,P|440:252|369:263,1,144,2|0,0:2|0:0,0:0:0:0:
241,337,148783,2,0,P|269:270|295:203,1,144,2|0,0:2|0:0,0:0:0:0:
383,168,149242,1,8,0:0:0:0:
383,168,149395,2,0,P|338:111|294:54,1,144,2|2,0:2|0:2,0:0:0:0:
208,28,149855,6,0,P|207:79|237:109,1,72
312,124,150161,1,2,0:2:0:0:
312,124,150237,1,0,0:0:0:0:
312,124,150314,1,0,0:0:0:0:
168,168,150467,2,0,P|216:184|253:165,1,72,8|0,0:0|0:0,0:0:0:0:
449,165,150773,6,0,P|380:144|311:123,1,144,2|0,0:2|0:0,0:0:0:0:
217,95,151232,1,2,0:2:0:0:
103,214,151385,2,0,P|85:184|91:146,1,72
40,28,151691,6,0,P|75:33|110:40,1,72,8|0,0:0|0:0,0:0:0:0:
251,186,151998,1,0,0:0:0:0:
115,290,152151,2,0,P|105:218|89:148,1,144,6|2,0:2|0:2,0:0:0:0:
251,186,152610,2,0,P|228:213|191:218,1,72,8|2,0:0|0:2,0:0:0:0:
0,200,152916,1,8,0:0:0:0:
0,200,152992,1,8,0:0:0:0:
0,200,153069,1,8,0:0:0:0:
104,314,153222,6,0,P|188:294|251:357,1,180,6|8,0:2|0:0,0:0:0:0:
333,294,153681,2,0,P|334:249|340:204,1,90,2|0,0:2|0:0,0:0:0:0:
252,224,153987,1,2,0:2:0:0:
384,374,154140,2,0,P|414:341|423:298,1,90,8|0,0:0|0:0,0:0:0:0:
279,136,154446,6,0,P|355:177|432:137,2,180,6|8|0,0:2|0:0|0:0,0:0:0:0:
356,88,155212,1,2,0:2:0:0:
476,224,155365,1,8,0:0:0:0:
341,348,155518,5,0,0:0:0:0:
341,348,155594,1,0,0:0:0:0:
341,348,155671,2,0,P|333:258|332:228,1,90,6|0,0:2|0:0,0:0:0:0:
333,258,155977,1,8,0:0:0:0:
157,368,156130,1,0,0:0:0:0:
219,186,156283,2,0,P|233:230|237:273,1,90,2|2,0:2|0:2,0:0:0:0:
341,348,156589,1,8,0:0:0:0:
68,340,156742,6,0,L|74:295,1,45,12|0,0:0|2:0,0:0:0:0:
271,247,157049,6,0,L|264:202,1,45,12|0,0:0|2:0,0:0:0:0:
56,64,157355,6,0,L|49:108,1,45,12|0,0:0|2:0,0:0:0:0:
132,229,157661,5,2,0:2:0:0:
132,229,157737,1,2,0:2:0:0:
132,229,157814,2,0,P|147:152|193:14,1,202.500007724762,12|0,0:0|2:0,0:0:0:0:
176,20,158120,6,0,P|263:39|251:128,1,198.000006042481,6|8,0:2|0:0,0:0:0:0:
249,129,158579,1,0,0:0:0:0:
79,113,158732,2,0,P|127:105|177:99,1,99.0000030212403,2|0,0:2|0:0,0:0:0:0:
284,16,159038,1,8,0:0:0:0:
420,136,159191,5,0,0:0:0:0:
420,136,159268,1,0,0:0:0:0:
420,136,159344,2,0,P|327:113|269:188,1,198.000006042481,2|8,0:2|0:0,0:0:0:0:
389,291,159804,2,0,P|417:223|377:194,1,99.0000030212403,2|0,0:2|0:0,0:0:0:0:
368,296,160110,1,2,0:2:0:0:
452,368,160263,2,0,P|362:325|258:324,1,198.000006042481,8|2,0:0|0:2,0:0:0:0:
265,322,160875,5,2,0:3:0:0:
254,311,160952,1,2,0:2:0:0:
250,296,161028,1,2,0:2:0:0:
254,281,161105,1,2,0:2:0:0:
264,270,161181,1,2,0:2:0:0:
172,368,161334,2,0,P|128:362|69:356,1,99.0000030212403,0|8,0:0|0:0,0:0:0:0:
0,252,161640,6,0,P|44:261|85:228,1,99.0000030212403,2|0,0:2|0:0,0:0:0:0:
171,125,161946,2,0,P|160:170|186:221,1,99.0000030212403,2|8,0:2|0:0,0:0:0:0:
181,216,162253,2,0,P|87:186|2:136,1,198.000006042481,2|2,0:2|0:2,0:0:0:0:
1,135,162712,1,8,0:0:0:0:
77,59,162865,1,0,0:0:0:0:
182,312,163018,6,0,P|265:268|267:172,1,198.000006042481,6|8,0:2|0:0,0:0:0:0:
268,173,163477,1,0,0:0:0:0:
180,216,163630,2,0,P|175:166|181:117,1,99.0000030212403,2|0,0:2|0:0,0:0:0:0:
340,99,163936,1,8,0:0:0:0:
340,99,164089,1,0,0:0:0:0:
441,212,164242,6,0,P|346:228|267:173,2,198.000006042481,2|8|0,0:2|0:0|0:0,0:0:0:0:
340,99,165008,1,2,0:2:0:0:
504,264,165161,2,0,P|523:214|507:166,1,99.0000030212403,8|0,0:0|0:0,0:0:0:0:
440,80,165467,6,0,L|409:275,1,198.000006042481,2|8,0:2|0:0,0:0:0:0:
360,352,165926,1,0,0:0:0:0:
360,352,166003,1,0,0:0:0:0:
360,352,166079,1,2,0:2:0:0:
504,264,166232,1,2,0:2:0:0:
266,172,166385,1,8,0:0:0:0:
431,31,166538,6,0,P|435:55|439:79,1,49.5000015106202,12|0,0:0|2:0,0:0:0:0:
256,184,166844,6,0,P|251:208|247:232,1,49.5000015106202,12|0,0:0|2:0,0:0:0:0:
508,324,167151,6,0,P|503:299|499:275,1,49.5000015106202,12|0,0:0|2:0,0:0:0:0:
353,77,167457,5,8,0:0:0:0:
353,77,167533,1,8,0:0:0:0:
353,77,167610,1,8,0:0:0:0:
176,280,167763,5,8,0:0:0:0:
176,280,167839,1,8,0:0:0:0:
176,280,167916,2,0,P|81:274|44:183,1,198.000006042481,6|8,0:2|0:0,0:0:0:0:
224,144,168375,1,0,0:0:0:0:
139,196,168528,2,0,P|135:147|135:98,1,99.0000030212403,2|0,0:2|0:0,0:0:0:0:
312,224,168834,2,0,P|220:243|203:335,1,198.000006042481,8|2,0:0|0:2,0:0:0:0:
372,284,169293,5,0,0:0:0:0:
224,144,169446,1,8,0:0:0:0:
301,322,169600,2,0,P|399:307|498:299,1,198.000006042481
512,208,170059,2,0,P|477:159|416:182,1,99.0000030212403,8|0,0:0|0:0,0:0:0:0:
367,66,170365,6,0,P|360:101|355:136,1,72,2|0,0:2|0:2,0:2:0:0:
433,291,170671,2,0,P|338:312|291:324,1,135.000005149842,12|0,0:0|0:2,0:2:0:0:
144,352,170977,6,0,P|150:316|155:281,1,72,2|0,0:2|0:2,0:2:0:0:
78,127,171283,2,0,P|173:106|220:94,1,135.000005149842,12|0,0:0|0:2,0:2:0:0:
442,159,171589,6,0,P|348:134|277:203,1,198.000006042481,2|12,0:2|0:0,0:0:0:0:
336,272,172049,1,0,0:0:0:0:
192,368,172202,5,8,0:3:0:0:
186,329,172278,1,8,0:3:0:0:
180,289,172355,1,8,0:3:0:0:
174,250,172431,1,8,0:3:0:0:
193,215,172508,5,4,0:3:0:0:
187,176,172584,1,4,0:3:0:0:
181,136,172661,1,4,0:3:0:0:
175,97,172737,1,4,0:3:0:0:
193,62,172814,6,0,P|285:32|356:108,1,198.000006042481,6|8,0:2|0:0,0:0:0:0:
463,152,173273,2,0,P|362:140|265:130,1,198.000006042481,2|2,0:2|0:2,0:0:0:0:
187,176,173732,1,8,0:0:0:0:
362,270,173885,5,0,0:0:0:0:
362,270,173962,1,0,0:0:0:0:
362,270,174038,2,0,P|389:216|373:165,1,99.0000030212403,2|0,0:2|0:0,0:0:0:0:
178,298,174344,2,0,P|232:325|283:309,1,99.0000030212403,8|0,0:0|0:0,0:0:0:0:
150,114,174651,2,0,P|123:168|139:219,1,99.0000030212403,2|0,0:2|0:0,0:0:0:0:
334,86,174957,2,0,P|280:59|229:75,1,99.0000030212403,8|0,0:0|0:0,0:0:0:0:
256,192,175263,5,2,0:2:0:0:
496,160,175416,5,12,0:0:0:0:
336,8,175569,2,0,P|346:74|355:141,1,135.000005149842,8|0,0:0|0:0,0:0:0:0:
272,280,175875,5,12,0:0:0:0:
480,272,176028,2,0,P|421:258|346:244,1,135.000005149842,8|0,0:0|0:0,0:0:0:0:
144,106,176334,6,0,P|111:153|118:210,1,116.999994644165,12|0,0:0|0:0,0:0:0:0:
321,347,176640,2,0,P|354:300|347:243,1,116.999994644165,12|0,0:0|0:0,0:0:0:0:
176,24,176946,1,12,0:0:0:0:
101,235,177712,6,0,B|56:275|-11:217|28:124|144:130|184:211,1,270,4|0,0:0|2:0,0:0:0:0:
181,231,178018,1,8,0:0:0:0:
88,301,178171,2,0,L|101:232,1,67.5000025749208,0|0,0:0|2:0,0:0:0:0:
312,202,178324,6,0,P|241:216|175:232,1,135.000005149842,2|0,0:2|0:0,0:0:0:0:
12,269,178630,1,8,0:0:0:0:
168,376,178783,2,0,P|183:276|202:174,1,202.500007724762,2|0,0:2|2:0,0:0:0:0:
224,155,179089,1,2,0:2:0:0:
379,341,179242,6,0,P|305:343|282:289,1,135.000005149842,8|0,0:0|0:0,0:0:0:0:
327,228,179472,1,0,0:0:0:0:
408,242,179549,2,0,P|473:246|508:192,1,135.000005149842,2|0,0:2|0:0,0:0:0:0:
473,34,179855,1,8,0:0:0:0:
314,4,180008,1,0,0:0:0:0:
224,155,180161,6,0,P|92:199|18:79,1,270.000010299683,6|8,0:2|0:0,0:0:0:0:
18,111,180620,1,0,0:0:0:0:
159,0,180773,2,0,P|122:57|136:124,1,135.000005149842,2|0,0:2|0:0,0:0:0:0:
169,235,181079,1,8,0:0:0:0:
344,47,181232,1,2,0:2:0:0:
344,47,181385,6,0,P|275:59|212:73,1,135.000005149842,2|0,0:0|0:0,0:0:0:0:
300,218,181691,1,8,0:0:0:0:
96,137,181844,2,0,P|165:149|227:163,1,135.000005149842,2|0,0:0|0:0,0:0:0:0:
390,214,182151,1,0,0:0:0:0:
409,219,182227,1,0,0:0:0:0:
428,226,182304,1,8,0:0:0:0:
245,285,182457,1,0,0:0:0:0:
480,160,182610,6,0,P|535:240|505:334,1,202.500007724762,6|0,0:2|2:0,0:0:0:0:
485,351,182916,1,8,0:0:0:0:
288,384,183069,2,0,L|156:355,1,135.000005149842,2|0,0:2|0:0,0:0:0:0:
62,332,183375,1,0,0:0:0:0:
245,285,183528,1,8,0:0:0:0:
324,118,183681,1,0,0:0:0:0:
324,118,183758,1,0,0:0:0:0:
324,118,183834,5,2,0:2:0:0:
242,68,183987,1,0,0:0:0:0:
330,318,184140,5,8,0:0:0:0:
426,310,184293,1,0,0:0:0:0:
207,159,184446,5,2,0:2:0:0:
134,221,184599,1,0,0:0:0:0:
400,216,184753,5,8,0:0:0:0:
422,122,184906,1,0,0:0:0:0:
211,283,185059,6,0,L|236:343,1,45,2|0,0:2|0:0,0:0:0:0:
426,310,185365,6,0,P|511:265|476:165,1,202.500007724762,12|0,0:0|2:0,0:0:0:0:
472,184,185671,1,2,0:2:0:0:
341,78,185824,2,0,L|188:105,1,135.000005149842,2|8,0:2|0:0,0:0:0:0:
108,120,186130,1,0,0:0:0:0:
248,288,186283,5,2,0:0:0:0:
264,208,186436,1,2,0:2:0:0:
280,128,186589,1,8,0:0:0:0:
232,57,186742,5,2,0:0:0:0:
260,201,186895,1,2,0:2:0:0:
289,344,187048,1,8,0:0:0:0:
294,347,187125,1,8,0:0:0:0:
299,350,187202,1,8,0:0:0:0:
457,262,187355,5,8,0:0:0:0:
453,248,187432,1,8,0:0:0:0:
448,235,187508,2,0,P|347:217|173:190,1,270.000010299683,4|8,0:0|0:0,0:0:0:0:
181,191,187967,2,0,L|200:256,1,67.5000025749208,0|0,0:0|2:0,0:0:0:0:
20,368,188120,1,2,0:2:0:0:
80,236,188273,1,0,0:0:0:0:
80,236,188350,1,0,0:0:0:0:
80,236,188427,2,0,L|54:148,1,67.5000025749208,8|0,0:0|2:0,0:0:0:0:
8,80,188579,2,0,L|91:94,1,67.5000025749208,0|0,0:0|2:0,0:0:0:0:
202,57,188732,6,0,P|192:123|180:190,1,135.000005149842,2|0,0:2|0:0,0:0:0:0:
310,327,189038,2,0,P|319:260|331:193,1,135.000005149842,8|0,0:0|0:0,0:0:0:0:
331,193,189344,1,2,0:2:0:0:
196,288,189498,1,2,0:2:0:0:
439,209,189651,2,0,P|430:145|364:96,1,135.000005149842,8|0,0:0|0:0,0:0:0:0:
298,95,189880,1,0,0:0:0:0:
327,18,189957,6,0,P|386:16|422:86,1,135.000005149842,2|0,0:2|0:0,0:0:0:0:
512,216,190263,2,0,P|380:187|226:162,1,270,12|0,0:0|2:0,0:0:0:0:
258,154,190569,6,0,L|151:167,1,90,0|0,0:0|2:0,0:2:0:0:
0,188,190722,1,10,0:0:0:0:
0,188,191028,6,0,P|131:159|286:134,1,270,14|0,0:0|2:0,0:0:0:0:
254,126,191334,2,0,L|334:135,1,80.9999975280763,2|0,0:2|2:0,0:2:0:0:
432,272,191487,6,0,P|420:234|385:215,1,80.9999975280763,8|0,0:0|2:0,0:0:0:0:
348,127,191640,2,0,P|308:126|280:153,1,80.9999975280763,0|0,0:0|2:0,0:0:0:0:
198,269,191793,6,0,L|282:244,1,80.9999975280763,2|0,0:2|2:0,0:0:0:0:
385,215,191946,2,0,L|469:190,1,80.9999975280763,8|0,0:0|2:0,0:0:0:0:
170,279,192100,1,8,0:0:0:0:
490,181,192253,1,8,0:0:0:0:
309,360,192406,6,0,P|263:292|290:229,1,135.000005149842,6|0,0:2|0:0,0:0:0:0:
348,127,192712,1,8,0:0:0:0:
497,322,192865,2,0,P|429:301|366:288,1,135.000005149842,2|0,0:2|0:0,0:0:0:0:
196,185,193171,1,2,0:2:0:0:
88,276,193324,1,8,0:0:0:0:
0,168,193477,5,0,0:0:0:0:
0,168,193554,1,0,0:0:0:0:
0,168,193630,2,0,P|66:131|130:172,1,135.000005149842,2|0,0:2|0:0,0:0:0:0:
219,52,193936,2,0,P|205:118|195:184,1,135.000005149842,8|0,0:0|0:0,0:0:0:0:
309,360,194242,2,0,P|362:323|356:259,1,135.000005149842,2|0,0:2|0:0,0:0:0:0:
195,184,194549,2,0,P|204:250|213:318,1,135.000005149842,8|0,0:0|0:0,0:0:0:0:
60,320,194855,6,0,P|158:297|258:278,1,202.500007724762,6|0,0:2|2:0,0:0:0:0:
280,288,195161,1,8,0:0:0:0:
456,356,195314,2,0,P|505:307|479:224,1,135.000005149842,2|0,0:2|0:0,0:0:0:0:
498,246,195620,1,2,0:2:0:0:
356,376,195773,1,8,0:0:0:0:
487,160,195926,6,0,B|435:163|412:213|412:213|348:152|316:217|249:163|249:163|216:227|147:213,2,396.000012084961,14|14|14,0:0|0:0|0:0,0:0:0:0:
172,136,196844,5,0,0:0:0:0:
167,134,196921,1,0,0:0:0:0:
166,129,196998,1,0,0:0:0:0:
169,126,197074,1,0,0:0:0:0:
173,126,197151,1,0,0:0:0:0:
176,129,197227,1,0,0:0:0:0:
177,135,197304,6,0,B|81:146|9:57|9:57|2:104|41:129,1,270,4|0,0:0|2:0,0:0:0:0:
187,221,197610,6,0,P|244:191|262:123,1,135.000005149842,8|0,0:0|0:0,0:0:0:0:
128,39,197916,2,0,P|161:170|173:304,1,270.000010299683,2|8,0:2|0:0,0:0:0:0:
72,380,198375,6,0,P|17:348|28:285,1,135.000005149842,2|0,0:2|0:0,0:0:0:0:
187,221,198681,1,2,0:2:0:0:
352,337,198834,1,8,0:0:0:0:
248,384,198987,1,0,0:0:0:0:
248,384,199064,1,0,0:0:0:0:
248,384,199140,5,2,0:2:0:0:
291,174,199293,1,2,0:2:0:0:
489,275,199446,2,0,P|423:257|357:244,1,135.000005149842,8|0,0:0|0:0,0:0:0:0:
175,315,199753,6,0,P|81:235|121:104,2,270.000010299683,6|8|2,0:2|0:0|0:2,0:0:0:0:
357,244,200518,1,0,0:0:0:0:
187,221,200671,1,8,0:0:0:0:
344,338,200824,1,2,0:2:0:0:
504,128,200977,6,0,P|432:137|370:148,1,135.000005149842,2|0,0:0|0:0,0:0:0:0:
276,208,201283,1,8,0:0:0:0:
64,96,201436,6,0,P|136:105|197:116,1,135.000005149842,2|0,0:0|0:0,0:0:0:0:
280,216,201742,1,2,0:2:0:0:
88,360,201895,2,0,P|60:300|81:238,1,135.000005149842,8|0,0:0|0:0,0:0:0:0:
155,202,202125,1,0,0:0:0:0:
149,283,202202,6,0,P|209:357|302:334,1,202.500007724762,6|0,0:2|2:0,0:0:0:0:
304,300,202508,1,8,0:0:0:0:
452,132,202661,2,0,P|441:198|431:265,1,135.000005149842,2|0,0:2|0:0,0:0:0:0:
430,265,202967,1,2,0:2:0:0:
332,68,203120,1,8,0:0:0:0:
158,210,203273,1,0,0:0:0:0:
158,210,203350,1,0,0:0:0:0:
158,210,203426,5,2,0:2:0:0:
192,296,203579,1,0,0:0:0:0:
290,54,203732,5,8,0:0:0:0:
213,4,203885,1,0,0:0:0:0:
276,258,204038,5,2,0:2:0:0:
367,252,204191,1,0,0:0:0:0:
168,84,204344,5,8,0:0:0:0:
96,142,204497,1,0,0:0:0:0:
357,161,204651,6,0,L|379:87,1,67.5,2|0,0:2|2:0,0:0:0:0:
158,209,204957,2,0,P|255:210|297:303,1,202.500007724762,12|0,0:0|2:0,0:0:0:0:
280,320,205263,1,2,0:2:0:0:
152,363,205416,1,2,0:2:0:0:
40,286,205569,1,8,0:0:0:0:
51,151,205722,1,0,0:0:0:0:
269,89,205875,5,2,0:0:0:0:
256,169,206028,1,0,0:0:0:0:
243,249,206181,1,8,0:0:0:0:
280,320,206334,5,2,0:0:0:0:
251,175,206487,1,0,0:0:0:0:
222,30,206640,1,8,0:0:0:0:
118,143,206793,5,0,0:0:0:0:
182,162,206870,1,0,0:0:0:0:
246,181,206946,1,0,0:0:0:0:
310,200,207023,1,0,0:0:0:0:
374,220,207100,2,0,P|463:187|464:93,1,202.500007724762,4|0,0:0|2:0,0:0:0:0:
460,72,207406,2,0,P|397:75|396:139,1,135.000005149842,8|0,0:0|0:0,0:0:0:0:
471,279,207712,6,0,P|438:222|373:219,1,135.000005149842,2|0,0:2|0:0,0:0:0:0:
340,208,207941,1,0,0:0:0:0:
340,208,208018,2,0,L|325:276,1,67.5000025749208,8|0,0:0|0:0,0:0:0:0:
329,355,208171,2,0,L|257:371,1,67.5000025749208,0|0,0:0|2:0,0:0:0:0:
176,384,208324,6,0,P|153:323|200:282,1,135.000005149842,2|0,0:2|0:0,0:0:0:0:
24,168,208630,2,0,P|114:182|189:193,1,135.000005149842,8|0,0:0|0:0,0:0:0:0:
256,148,208936,1,2,0:2:0:0:
64,280,209089,1,2,0:2:0:0:
184,68,209242,2,0,P|147:121|157:189,1,135.000005149842,8|0,0:0|0:0,0:0:0:0:
291,275,209549,6,0,P|310:234|286:272,1,135,2|0,0:2|2:0,0:0:0:0:
397,266,209855,2,0,B|334:218|244:243|206:299|271:271,1,202.500007724762,12|0,0:0|2:0,0:0:0:0:
372,149,210161,6,0,B|369:113|369:113|348:196,1,90,2|0,0:2|2:0,0:0:0:0:
349,354,210314,2,0,P|321:187|295:20,1,337.5,8|0,0:0|2:0,0:0:0:0:
220,72,210620,6,0,B|178:195|309:231|332:157|469:194|441:330,1,405.000015449525,4|0,0:0|2:0,0:0:0:0:
424,344,210926,1,2,0:2:0:0:
308,104,211079,1,8,0:0:0:0:
497,198,211232,5,8,0:3:0:0:
338,232,211385,1,8,0:3:0:0:
232,255,211538,1,8,0:3:0:0:
153,272,211691,1,4,0:3:0:0:
308,104,211844,1,4,0:3:0:0:
0,247,211998,6,0,P|133:263|267:282,1,270.000010299683,6|8,0:2|0:0,0:0:0:0:
332,352,212457,1,0,0:0:0:0:
512,216,212610,1,2,0:2:0:0:
433,142,212763,2,0,P|427:209|432:276,1,135.000005149842,2|8,0:2|0:0,0:0:0:0:
484,384,213069,6,0,P|360:240|235:99,1,377.999988464356,4|0,0:0|0:0,0:0:0:0:
246,127,213834,5,0,0:0:0:0:
321,139,213987,1,2,0:0:0:0:
331,147,214064,1,2,0:0:0:0:
335,159,214140,1,2,0:0:0:0:
316,268,214446,5,4,0:0:0:0:
206,121,219344,6,0,L|121:103,1,67.5,4|0,0:0|2:0,0:0:0:0:
74,33,219651,2,0,B|155:50|155:50|176:87|176:87|253:104,1,202.500007724762,8|0,0:0|2:0,0:0:0:0:
306,201,219957,6,0,L|391:183,1,67.5,2|0,0:2|2:0,0:0:0:0:
438,113,220263,2,0,B|357:130|357:130|336:167|336:167|259:184,1,202.500007724762,8|0,0:0|2:0,0:0:0:0:
206,281,220569,6,0,L|121:263,1,67.5,2|0,0:2|2:0,0:0:0:0:
74,193,220875,2,0,B|155:210|155:210|176:247|176:247|253:264,1,202.500007724762,8|0,0:0|2:0,0:0:0:0:
306,361,221181,6,0,L|391:343,1,67.5,2|0,0:2|2:0,0:0:0:0:
438,273,221487,2,0,B|357:290|357:290|336:327|336:327|259:344,1,202.500007724762,8|0,0:0|2:0,0:0:0:0:
172,384,221793,6,0,P|157:318|137:253,1,135.000005149842,2|0,0:2|0:0,0:0:0:0:
64,200,222023,1,0,0:0:0:0:
74,193,222100,2,0,P|88:127|108:62,1,135.000005149842,12|0,0:0|0:0,0:0:0:0:
174,11,222329,1,0,0:0:0:0:
169,0,222406,5,2,0:2:0:0:
461,52,222559,1,0,0:0:0:0:
300,104,222712,5,12,0:0:0:0:
468,44,222865,1,0,0:0:0:0:
388,256,223018,6,0,P|373:213|336:188,1,90,2|0,0:2|2:0,0:0:0:0:
256,177,223171,2,0,P|226:210|222:255,1,90,2|0,0:2|2:0,0:0:0:0:
254,331,223324,2,0,P|297:339|338:320,1,90,8|0,0:0|2:0,0:0:0:0:
472,307,223477,5,0,0:0:0:0:
472,307,223554,1,0,0:0:0:0:
472,307,223630,2,0,P|386:280|299:255,2,180,2|2|8,0:2|0:2|0:0,0:0:0:0:
168,324,224089,1,2,0:2:0:0:
412,125,224242,6,2,B|323:110|323:110|255:177|255:177|248:165|248:165|156:149|156:149|120:77,1,360,4|8,1:0|0:0,2:0:0:0:
220,10,224702,2,2,L|175:330,1,323.999990112305,2|0,0:2|0:0,2:0:0:0:
174,330,225161,1,0,0:0:0:0:
16,356,225314,6,2,B|-10:327|-10:327|-14:282|-14:282|11:244|11:244|85:231|85:231|95:258|95:258|80:295|80:295|94:346|94:346|163:377|163:377|202:341|202:341|190:295|190:295|172:273|172:273|180:222|180:222|241:205|241:205|268:239|268:239|275:262|275:262|268:296|268:296|283:358|283:358|364:380|364:380|374:337|374:337|339:296,1,971.999970336915,4|0,0:0|0:0,2:0:0:0:
120,136,226385,6,0,B|90:125|90:125|137:164,1,80.9999975280763,10|0,0:0|2:0,0:0:0:0:
376,236,226538,2,0,B|388:208|388:208|356:220|356:220|356:254,1,80.9999975280763,2|0,0:0|2:0,0:0:0:0:
116,384,226691,6,2,B|159:82|159:82|180:62,1,323.999990112305,4|8,0:0|0:0,2:0:0:0:
182,186,227151,2,0,B|171:209|171:209|183:126,1,80.9999975280763,2|0,0:0|2:0,0:0:0:0:
105,28,227304,5,2,0:0:0:0:
175,55,227406,5,0,0:0:0:0:
249,40,227508,5,0,0:0:0:0:
324,42,227610,5,10,0:0:0:0:
378,93,227712,5,0,0:0:0:0:
443,130,227814,5,0,0:0:0:0:
510,98,227916,6,2,B|406:71|406:71|435:198|435:198|345:154|345:154|322:210|322:210|277:190|277:190|227:217,1,485.999985168458,2|0,0:2|0:0,2:0:0:0:
44,264,228528,5,2,0:0:0:0:
28,207,228605,1,0,0:0:0:0:
85,191,228681,1,0,0:0:0:0:
100,248,228758,2,0,B|209:274|209:274|258:344|258:344|381:373,1,323.999990112305,2|0,0:0|2:0,0:0:0:0:
237,363,229140,6,0,B|191:298|191:298|402:347|402:347|426:333,1,323.999990112305,4|8,0:0|0:0,0:0:0:0:
510,284,229600,1,0,0:0:0:0:
275,203,229753,6,0,B|252:193|252:193|283:238,1,80.9999975280763,2|0,0:0|2:0,0:0:0:0:
328,312,229906,2,0,B|330:336|330:336|354:287,1,80.9999975280763,2|0,0:2|2:0,0:0:0:0:
396,212,230059,2,0,B|416:197|416:197|361:201,1,80.9999975280763,10|0,0:0|2:0,0:0:0:0:
237,363,230212,6,2,B|269:198|269:198|274:195|274:195|305:34,1,323.999990112305,4|0,0:0|0:0,2:0:0:0:
448,128,230671,2,0,B|487:97|487:97|365:129,1,161.999995056153,10|0,0:0|0:0,0:0:0:0:
248,160,230977,1,2,0:0:0:0:
493,192,231130,2,2,B|343:163|343:163|335:150|335:150|181:122,1,323.999990112305,0|0,0:0|0:0,2:0:0:0:
28,80,231589,6,0,B|32:57|32:57|42:113,1,80.9999975280763,6|0,0:0|2:0,0:0:0:0:
116,208,231742,2,0,B|112:185|112:185|101:241,1,80.9999975280763,2|0,0:0|2:0,0:0:0:0:
0,316,231895,6,2,B|62:264|62:264|180:284|180:284|182:287|182:287|267:302|267:302|295:345,1,323.999990112305,8|2,0:0|0:2,2:0:0:0:
399,343,232355,2,0,B|424:328|424:328|373:339,1,80.9999975280763,2|0,0:0|2:0,0:0:0:0:
212,380,232508,1,8,0:0:0:0:
432,226,232661,6,2,B|406:206|406:206|342:263|342:263|390:228|390:228|436:44,1,323.999990112305,4|0,0:0|0:0,2:0:0:0:
368,24,233120,2,0,B|370:8|370:8|423:-7|423:-7|342:55,1,161.999995056153,8|0,0:0|0:0,0:0:0:0:
236,152,233426,5,8,0:0:0:0:
236,152,233503,1,8,0:0:0:0:
236,152,233579,2,0,L|336:169,1,80.9999975280763,8|0,0:0|2:0,0:0:0:0:
511,212,233732,5,8,0:0:0:0:
511,212,233809,1,8,0:0:0:0:
511,212,233885,2,0,L|411:229,1,80.9999975280763,8|0,0:0|2:0,0:0:0:0:
293,330,234038,5,6,0:0:0:0:
245,318,234115,1,0,0:0:0:0:
220,294,234191,1,0,0:0:0:0:
221,265,234268,1,0,0:0:0:0:
232,254,234344,5,10,0:0:0:0:
212,283,234421,1,0,0:0:0:0:
173,295,234498,1,0,0:0:0:0:
122,285,234574,1,0,0:0:0:0:
83,245,234650,5,2,0:2:0:0:
112,212,234727,1,0,0:0:0:0:
78,193,234803,5,2,0:2:0:0:
105,189,234880,1,0,0:0:0:0:
97,158,234957,5,10,0:0:0:0:
142,143,235033,1,0,0:0:0:0:
179,174,235110,1,4,0:0:0:0:
226,176,235186,1,0,0:0:0:0:
265,148,235263,5,2,0:0:0:0:
272,105,235339,1,0,0:0:0:0:
254,71,235416,1,0,0:0:0:0:
225,66,235492,1,0,0:0:0:0:
211,78,235569,5,10,0:0:0:0:
204,114,235645,1,0,0:0:0:0:
239,147,235722,1,0,0:0:0:0:
270,193,235799,1,0,0:0:0:0:
254,243,235875,5,2,0:2:0:0:
287,281,235952,1,0,0:0:0:0:
274,311,236028,5,2,0:2:0:0:
311,317,236105,1,0,0:0:0:0:
303,350,236181,5,10,0:0:0:0:
349,361,236258,1,0,0:0:0:0:
392,340,236334,1,0,0:0:0:0:
413,296,236411,1,0,0:0:0:0:
427,289,236487,6,0,L|473:302,3,45,2|0|0|0,0:0|0:0|0:0|0:0,0:0:0:0:
344,226,236793,2,0,B|369:157|369:157|405:142|405:142|376:56,1,202.500007724762,12|0,0:0|2:0,0:0:0:0:
274,43,237100,6,0,L|287:-3,3,45,2|0|0|0,0:0|0:0|0:0|0:0,0:0:0:0:
211,126,237406,2,0,B|142:101|142:101|127:65|127:65|41:94,1,202.500007724762,12|0,0:0|2:0,0:0:0:0:
0,204,237712,6,2,B|62:217|62:217|75:178|75:178|148:127|148:127|83:202,1,270.000010299683,2|12,0:2|0:0,2:0:0:0:
16,292,238171,1,0,0:0:0:0:
192,208,238324,5,8,0:3:0:0:
239,203,238401,1,8,0:3:0:0:
285,199,238477,1,8,0:3:0:0:
332,195,238554,1,8,0:3:0:0:
371,221,238630,5,4,0:3:0:0:
418,216,238707,1,4,0:3:0:0:
464,212,238783,1,4,0:3:0:0:
511,208,238860,1,4,0:3:0:0:
504,217,238936,6,0,P|460:302|401:297,1,135.000005149842,6|0,0:0|0:0,0:0:0:0:
417,303,239166,1,0,0:0:0:0:
403,305,239242,1,8,0:0:0:0:
389,307,239319,1,0,0:0:0:0:
375,309,239395,2,0,P|366:278|353:245,1,67.5000025749208,0|0,0:0|2:0,0:0:0:0:
305,375,239549,2,0,P|285:310|259:248,1,135.000005149842,2|0,0:0|0:0,0:0:0:0:
164,176,239778,5,0,0:0:0:0:
164,176,239855,2,0,P|135:196|130:233,1,67.5000025749208,8|0,0:0|2:0,0:0:0:0:
76,288,240008,2,0,P|86:321|119:337,1,67.5000025749208,0|0,0:0|2:0,0:0:0:0:
204,384,240161,6,2,P|227:239|258:72,1,270.000010299683,2|8,0:2|0:0,2:0:0:0:
375,309,240620,2,2,P|471:286|474:181,1,202.500007724762,2|0,0:2|2:0,2:0:0:0:
460,184,240926,1,2,0:2:0:0:
255,229,241079,2,0,P|220:180|267:109,1,135.000005149842,8|0,0:0|0:0,0:0:0:0:
376,40,241385,6,2,P|345:199|320:359,2,323.999990112305,2|12|2,0:2|0:0|0:2,2:0:0:0:
375,309,242151,1,8,0:0:0:0:
116,168,242304,1,0,0:0:0:0:
395,70,242457,6,0,P|379:149|365:229,1,161.999995056153,12|0,0:0|0:0,0:0:0:0:
117,314,242763,2,0,P|132:234|146:154,1,161.999995056153,12|0,0:0|0:0,0:0:0:0:
256,192,243069,1,12,0:0:0:0:
42,262,243834,6,0,L|36:211,1,45,8|0,0:0|2:0,0:0:0:0:
130,70,243987,6,0,P|124:106|115:173,1,99,8|0,0:0|2:0,0:0:0:0:
266,297,244906,6,0,P|201:277|136:259,1,135,8|0,0:0|2:0,0:0:0:0:
136,259,245212,6,0,P|178:253|220:247,1,45,8|0,0:0|2:0,0:0:0:0:
387,219,245365,6,0,P|409:215|431:211,1,45,8|0,0:0|2:0,0:0:0:0:
448,224,245824,5,2,0:2:0:0:
295,353,245977,2,0,P|261:259|301:165,1,202.500007724762,12|0,0:2|2:0,0:0:0:0:
367,126,246283,6,0,P|362:103|357:81,1,45,8|0,0:0|2:0,0:0:0:0:
274,71,246436,6,0,P|286:118|297:167,1,99,8|0,0:0|0:0,0:0:0:0:
230,287,247355,6,0,P|146:292|109:253,1,135,12|0,0:0|2:0,0:0:0:0:
112,260,247661,6,0,L|118:215,1,45,12|0,0:0|2:0,0:0:0:0:
143,69,247814,6,0,L|148:33,1,36,12|0,0:0|2:0,0:0:0:0:
31,153,248273,5,8,0:3:0:0:
80,147,248350,1,8,0:3:0:0:
128,141,248426,1,4,0:3:0:0:
177,135,248503,1,4,0:3:0:0:
225,129,248579,1,4,0:3:0:0:
274,123,248656,1,4,0:3:0:0:
322,117,248732,6,0,L|312:174,1,45,10|0,0:0|2:0,0:0:0:0:
290,284,248885,6,0,L|297:239,1,45,10|0,0:0|2:0,0:0:0:0:
299,64,249344,6,0,L|309:120,1,45,10|0,0:0|2:0,0:0:0:0:
313,337,249498,6,0,L|302:280,1,45,10|0,0:0|2:0,0:0:0:0:
307,199,249957,5,2,0:2:0:0:
232,260,250110,5,8,0:0:0:0:
380,141,250263,1,2,0:0:0:0:
300,327,250416,5,8,0:0:0:0:
312,74,250569,1,2,0:0:0:0:
408,316,250722,5,8,0:0:0:0:
204,85,250875,1,2,0:0:0:0:
480,216,251028,5,8,0:0:0:0:
480,216,251105,1,8,0:0:0:0:
480,216,251181,1,14,0:0:0:0:
132,185,251334,1,10,0:0:0:0:
132,185,252253,6,0,P|210:171|404:138,2,270.000010299683,14|14|14,0:0|0:0|0:0,0:0:0:0:
459,225,253171,1,0,0:0:0:0:
459,225,253248,1,2,0:3:0:0:
459,225,253324,2,0,P|502:177|489:92,1,135.000005149842,2|0,0:3|0:0,0:0:0:0:
332,32,253630,6,0,P|319:91|310:135,1,90,2|0,0:2|0:0,0:0:0:0:
417,51,253936,2,0,P|404:110|395:154,1,90,2|0,0:2|0:0,0:0:0:0:
338,203,254242,6,0,P|297:152|232:154,1,135,2|0,0:2|0:0,0:0:0:0:
222,162,254549,2,0,P|200:203|213:253,1,90,8|0,0:0|0:0,0:0:0:0:
80,376,254855,6,0,P|109:343|153:342,1,90,2|0,0:2|0:0,0:0:0:0:
196,260,255161,2,0,P|227:274|239:307,1,72,8|0,0:0|0:0,0:0:0:0:
312,288,255467,2,0,P|309:313|288:329,1,53.9999983520508,2|0,0:2|0:0,0:0:0:0:
324,364,255773,2,0,P|307:367|292:357,1,36,8|0,0:0|0:0,0:0:0:0:
61,278,256079,6,0,P|148:291|237:306,2,180,2|8|2,0:2|0:0|0:2,0:0:0:0:
146,247,256844,2,0,P|176:216|178:170,1,90,2|8,0:2|0:0,0:0:0:0:
126,97,257151,1,0,0:0:0:0:
81,185,257304,5,2,0:2:0:0:
221,95,257457,1,0,0:0:0:0:
263,169,257610,1,8,0:0:0:0:
347,185,257763,1,0,0:0:0:0:
496,92,257916,5,2,0:2:0:0:
407,105,258069,1,0,0:0:0:0:
355,179,258222,1,8,0:0:0:0:
381,265,258375,1,0,0:0:0:0:
256,352,258528,5,4,0:0:0:0:
252,360,258834,5,8,0:0:0:0:
328,328,258987,1,0,0:0:0:0:
216,280,259140,1,2,0:2:0:0:
360,248,259293,5,0,0:0:0:0:
184,196,259446,1,8,0:0:0:0:
400,164,259600,1,0,0:0:0:0:
152,112,259753,5,2,0:2:0:0:
100,276,259906,1,0,0:0:0:0:
264,328,260059,1,8,0:0:0:0:
316,164,260212,1,0,0:0:0:0:
82,180,260365,5,2,0:2:0:0:
168,347,260518,1,0,0:0:0:0:
336,260,260671,1,8,0:0:0:0:
249,92,260824,1,0,0:0:0:0:
100,276,260977,5,2,0:2:0:0:
264,328,261130,1,8,0:2:0:0:
168,347,261283,5,8,0:2:0:0:
336,260,261436,1,8,0:2:0:0:
264,328,261589,5,8,0:2:0:0:
336,80,261742,1,8,0:2:0:0:
336,260,261895,5,8,0:2:0:0:
188,30,262049,1,8,0:2:0:0:
82,180,262202,5,8,0:2:0:0:
401,141,262355,1,8,0:2:0:0:
72,192,262508,5,8,0:2:0:0:
411,129,262661,1,8,0:2:0:0:
188,30,262814,5,8,0:0:0:0:
183,74,262890,1,8,0:0:0:0:
179,119,262967,1,8,0:0:0:0:
175,163,263043,1,8,0:0:0:0:
153,202,263120,5,8,0:0:0:0:
225,178,263196,1,8,0:0:0:0:
299,198,263273,1,8,0:0:0:0:
341,262,263350,1,8,0:0:0:0:
345,335,263426,6,0,P|467:352|474:223,1,270,4|0,0:0|2:0,0:0:0:0:
460,224,263732,1,8,0:0:0:0:
256,328,263885,2,0,P|227:322|186:315,1,67.5000025749208,0|0,0:0|2:0,0:0:0:0:
62,228,264038,6,0,P|128:218|195:211,1,135.000005149842,2|0,0:2|0:0,0:0:0:0:
349,337,264344,1,8,0:0:0:0:
512,136,264498,2,0,B|411:117|411:117|360:160|360:160|247:138,1,270.000010299683,2|2,0:2|0:2,0:0:0:0:
195,211,264957,1,8,0:0:0:0:
44,144,265110,5,0,0:0:0:0:
44,144,265186,1,0,0:0:0:0:
44,144,265263,2,0,P|16:78|50:27,1,135.000005149842,2|0,0:2|0:0,0:0:0:0:
200,220,265569,2,0,P|173:306|159:380,1,135.000005149842,8|0,0:0|0:0,0:0:0:0:
4,384,265875,6,0,P|116:310|240:347,1,270.000010299683,6|8,0:2|0:0,0:0:0:0:
312,292,266334,1,0,0:0:0:0:
476,384,266487,2,0,P|485:317|497:250,1,135.000005149842,2|0,0:2|0:0,0:0:0:0:
308,300,266793,1,8,0:0:0:0:
368,104,266946,6,0,P|394:244|407:348,1,202.500007724762,2|0,0:2|2:0,0:0:0:0:
392,332,267253,1,2,0:2:0:0:
244,224,267406,2,0,P|291:170|355:185,1,135.000005149842,8|0,0:0|0:0,0:0:0:0:
452,84,267712,1,2,0:2:0:0:
283,0,267865,1,2,0:2:0:0:
154,126,268018,2,0,P|86:118|20:109,1,135.000005149842,8|0,0:0|0:0,0:0:0:0:
0,26,268248,5,0,0:0:0:0:
0,26,268324,2,0,P|100:40|200:52,1,202.500007724762,6|0,0:2|2:0,0:0:0:0:
224,80,268630,1,8,0:0:0:0:
372,236,268783,2,0,P|436:229|469:173,1,135.000005149842,2|0,0:2|0:0,0:0:0:0:
452,84,269089,1,2,0:2:0:0:
308,296,269242,2,0,P|241:305|174:313,1,135.000005149842,8|0,0:0|2:0,0:0:0:0:
20,109,269549,5,2,0:2:0:0:
110,136,269702,1,0,0:0:0:0:
174,313,269855,5,8,0:0:0:0:
264,286,270008,1,0,0:0:0:0:
212,20,270161,5,2,0:2:0:0:
302,47,270314,1,0,0:0:0:0:
376,344,270467,5,8,0:0:0:0:
466,317,270620,1,0,0:0:0:0:
445,30,270773,6,0,P|437:62|431:96,1,67.5,2|0,0:2|2:0,0:0:0:0:
512,141,271079,6,0,B|452:96|377:146|426:190|346:249|282:192,1,270.000010299683,12|2,0:0|0:2,0:0:0:0:
283,193,271538,1,2,0:2:0:0:
452,356,271691,2,0,P|464:289|478:223,1,135.000005149842,8|0,0:0|0:0,0:0:0:0:
302,47,271998,5,2,0:0:0:0:
328,272,272151,1,2,0:2:0:0:
212,80,272304,1,8,0:0:0:0:
256,351,272457,5,2,0:0:0:0:
282,126,272610,1,2,0:2:0:0:
166,318,272763,1,8,0:0:0:0:
120,80,272916,5,8,0:0:0:0:
236,272,273069,1,2,0:2:0:0:
236,272,273145,1,0,0:0:0:0:
235,272,273222,2,0,P|207:170|111:183,1,202.500007724762,4|0,0:0|2:0,0:0:0:0:
109,166,273528,2,0,P|75:224|99:282,1,135.000005149842,8|0,0:0|0:0,0:0:0:0:
256,351,273834,5,2,0:2:0:0:
480,192,273987,1,0,0:0:0:0:
480,192,274064,1,0,0:0:0:0:
480,192,274140,2,0,L|402:177,1,67.5000025749208,8|0,0:0|2:0,0:0:0:0:
360,108,274293,2,0,L|282:93,1,67.5000025749208,0|0,0:0|2:0,0:0:0:0:
240,24,274446,6,0,P|309:9|383:-6,1,135.000005149842,2|0,0:2|0:0,0:0:0:0:
494,279,274753,2,0,P|425:264|351:249,1,135.000005149842,8|0,0:0|0:0,0:0:0:0:
484,68,275059,1,2,0:2:0:0:
288,192,275212,1,2,0:2:0:0:
489,57,275365,2,0,P|486:124|479:191,1,135.000005149842,8|0,0:0|0:0,0:0:0:0:
220,264,275671,5,12,0:0:0:0:
292,120,275824,1,2,0:2:0:0:
320,332,275977,5,12,0:0:0:0:
192,52,276130,5,2,0:2:0:0:
128,356,276283,5,12,0:0:0:0:
384,28,276436,1,8,0:0:0:0:
512,352,276742,6,0,P|376:325|140:275,1,360,4|8,0:0|0:3,0:0:0:0:
150,277,277125,1,8,0:3:0:0:
141,275,277202,1,8,0:3:0:0:
132,273,277278,1,8,0:3:0:0:
123,271,277355,1,8,0:3:0:0:
114,269,277431,1,8,0:3:0:0:
75,292,277508,5,12,0:3:0:0:
105,241,277584,1,4,0:3:0:0:
106,198,277661,1,4,0:3:0:0:
83,162,277737,1,4,0:3:0:0:
50,138,277814,5,4,0:3:0:0:
76,95,277890,1,4,0:3:0:0:
69,62,277967,5,4,0:3:0:0:
109,60,278043,1,4,0:3:0:0:
140,39,278120,5,4,0:0:0:0:
20,224,278426,5,8,0:0:0:0:
256,76,278579,1,2,0:2:0:0:
128,356,278732,5,8,0:0:0:0:
256,68,278885,1,2,0:2:0:0:
312,384,279038,5,8,0:0:0:0:
256,60,279191,1,12,0:0:0:0:
338,222,281793,5,8,0:0:0:0:
349,173,281869,1,8,0:0:0:0:
334,125,281946,1,8,0:0:0:0:
297,92,282022,1,8,0:0:0:0:
248,82,282099,1,8,0:0:0:0:
182,246,282253,5,8,0:0:0:0:
218,280,282329,1,8,0:0:0:0:
268,291,282406,1,8,0:0:0:0:
315,275,282482,1,8,0:0:0:0:
348,238,282559,1,8,0:0:0:0:
238,98,282712,5,8,0:0:0:0:
191,113,282788,1,8,0:0:0:0:
157,150,282865,1,8,0:0:0:0:
147,199,282941,1,8,0:0:0:0:
161,246,283018,2,0,P|207:218|259:188,1,107.999996704102,4|0,0:0|0:0,0:0:0:0:
368,23,283324,6,0,P|355:137|347:238,1,215.999993408203,8|2,0:0|0:2,0:0:0:0:
347,237,283783,1,2,0:2:0:0:
238,98,283936,2,0,P|176:74|126:113,1,135.000005149842,8|0,0:0|0:0,0:0:0:0:
6,223,284242,6,0,P|137:254|267:290,1,270.000010299683,2|8,0:2|0:0,0:0:0:0:
346,383,284702,2,0,P|429:284|393:160,1,270.000010299683,2|2,0:2|0:2,0:0:0:0:
348,238,285161,1,8,0:0:0:0:
125,113,285314,5,0,0:0:0:0:
125,113,285390,1,0,0:0:0:0:
125,113,285467,2,0,P|190:101|261:90,1,135.000005149842,2|0,0:2|0:0,0:0:0:0:
320,24,285773,1,12,0:0:0:0:
459,149,285926,2,0,P|425:153|392:159,1,67.5000025749208,0|0,0:0|2:0,0:0:0:0:
294,310,286079,2,0,P|257:238|284:170,1,135.000005149842,2|0,0:2|0:0,0:0:0:0:
269,188,286385,1,8,0:0:0:0:
56,36,286538,6,0,B|45:70|45:70|79:140|79:140|100:146|100:146|128:243|128:243|113:267|113:267|122:362,2,360,14|14|14,0:0|0:0|0:0,0:0:0:0:
36,220,287304,1,2,0:2:0:0:
136,64,287457,1,2,0:0:0:0:
204,304,287610,1,8,0:0:0:0:
43,126,287763,1,0,0:0:0:0:
43,126,287839,1,0,0:0:0:0:
43,126,287916,1,6,0:2:0:0:
43,126,288222,6,0,P|175:102|309:80,1,270.000010299683,8|0,0:0|0:0,0:0:0:0:
269,188,288681,1,2,0:2:0:0:
473,331,288834,2,0,P|480:263|487:196,1,135.000005149842,8|0,0:0|0:0,0:0:0:0:
404,112,289140,6,0,P|390:246|375:380,1,270.000010299683,2|8,0:2|0:0,0:0:0:0:
201,274,289600,2,0,P|208:210|268:187,1,135.000005149842,2|0,0:2|0:0,0:0:0:0:
372,136,289906,1,2,0:2:0:0:
473,331,290059,2,0,P|409:312|341:296,1,135.000005149842,8|0,0:0|0:0,0:0:0:0:
76,384,290365,6,0,P|158:293|276:351,2,270.000010299683,6|8|2,0:2|0:0|0:2,0:0:0:0:
166,313,291130,1,2,0:2:0:0:
161,178,291283,1,8,0:0:0:0:
36,97,291436,1,0,0:0:0:0:
0,255,291589,5,2,0:2:0:0:
204,104,291742,2,0,P|271:109|338:116,1,135.000005149842,14|0,0:0|0:0,0:0:0:0:
224,256,292049,2,0,P|132:268|38:115,1,270.000010299683,14|8,0:0|0:3,0:0:0:0:
50,63,292432,1,8,0:3:0:0:
96,44,292508,1,4,0:3:0:0:
132,48,292584,1,4,0:3:0:0:
154,69,292661,1,4,0:3:0:0:
154,87,292737,1,4,0:3:0:0:
147,95,292814,1,4,0:0:0:0:
147,95,293120,6,0,P|267:78|429:58,1,270.000010299683,8|2,0:0|0:2,0:0:0:0:
414,59,293579,1,0,0:0:0:0:
288,196,293732,2,0,P|227:176|222:113,1,135.000005149842,8|0,0:0|0:0,0:0:0:0:
320,24,294038,6,0,P|306:140|289:318,1,270.000010299683,2|8,0:2|0:0,0:0:0:0:
368,380,294498,2,0,P|485:337|468:213,1,270.000010299683,2|2,0:2|0:2,0:0:0:0:
384,224,294957,1,8,0:0:0:0:
248,384,295110,5,0,0:0:0:0:
248,384,295186,1,0,0:0:0:0:
248,384,295263,2,0,P|171:372|79:360,1,135.000005149842,2|0,0:2|0:0,0:0:0:0:
44,280,295569,1,12,0:0:0:0:
248,180,295722,2,0,L|236:256,1,67.5000025749208,0|0,0:0|2:0,0:0:0:0:
32,276,295875,2,0,P|78:232|155:245,1,135.000005149842
260,172,296181,1,8,0:0:0:0:
444,352,296334,6,0,B|477:300|477:300|458:213|458:213|418:185|418:185|410:82|410:82|457:22,2,360,14|14|14,0:0|0:0|0:0,0:0:0:0:
509,126,297100,1,2,0:2:0:0:
367,280,297253,1,2,0:0:0:0:
256,64,297406,1,8,0:0:0:0:
85,248,297559,1,0,0:0:0:0:
76,245,297635,1,0,0:0:0:0:
67,242,297712,1,6,0:2:0:0:
67,242,298018,6,0,P|200:220|335:202,1,270.000010299683,8|2,0:0|0:2,0:0:0:0:
204,260,298477,1,2,0:2:0:0:
80,132,298630,1,8,0:0:0:0:
276,16,298783,5,0,0:0:0:0:
284,21,298860,1,0,0:0:0:0:
292,26,298936,2,0,P|280:117|274:188,1,135.000005149842,2|0,0:2|0:0,0:0:0:0:
292,336,299242,1,8,0:0:0:0:
124,376,299395,2,0,P|235:305|364:332,1,270.000010299683,2|2,0:2|0:2,0:0:0:0:
472,284,299855,2,0,P|493:225|445:181,1,135.000005149842,12|0,0:0|0:0,0:0:0:0:
160,240,300161,5,2,0:2:0:0:
304,288,300314,1,8,0:0:0:0:
352,144,300467,1,8,0:0:0:0:
208,96,300620,1,2,0:2:0:0:
369,49,300773,5,8,0:0:0:0:
398,305,300926,1,8,0:0:0:0:
142,334,301079,1,2,0:2:0:0:
113,78,301232,1,6,0:2:0:0:
