osu file format v14

[General]
AudioFilename: audio.mp3
AudioLeadIn: 0
PreviewTime: 44200
Countdown: 0
SampleSet: Soft
StackLeniency: 0.7
Mode: 0
LetterboxInBreaks: 0
WidescreenStoryboard: 0

[Editor]
DistanceSpacing: 0.9
BeatDivisor: 4
GridSize: 4
TimelineZoom: 1.3

[Metadata]
Title:Soul Release short ver.
TitleUnicode:Soul Release short ver.
Artist:Marika
ArtistUnicode:真里歌
Creator:Kocari
Version:Doormat's Easy
Source:ハロー・レディ!
Tags:Hello Lady Eroge Visual Novel Kibbleru Lasse Doormat
BeatmapID:1389687
BeatmapSetID:655770

[Difficulty]
HPDrainRate:2
CircleSize:3
OverallDifficulty:2
ApproachRate:3
SliderMultiplier:1
SliderTickRate:1

[Events]
//Background and Video events
0,0,"BG.jpg",0,0
//Break Periods
//Storyboard Layer 0 (Background)
//Storyboard Layer 1 (Fail)
//Storyboard Layer 2 (Pass)
//Storyboard Layer 3 (Foreground)
//Storyboard Sound Samples

[TimingPoints]
876,319.148936170213,4,2,1,50,1,0
3429,-100,4,2,1,65,0,0
13642,-100,4,2,1,45,0,0
23855,-100,4,2,1,55,0,0
41727,-100,4,2,1,65,0,0
44280,-100,4,2,1,85,0,1
54173,-100,4,2,1,85,0,0
54493,-100,4,2,1,85,0,1
67258,-100,4,2,1,65,0,0
77471,-100,4,2,1,85,0,0
77551,-100,4,2,1,45,0,0
81939,-100,4,2,1,5,0,0

[Colours]
Combo1 : 255,209,72
Combo2 : 155,155,255
Combo3 : 255,119,255
Combo4 : 255,149,98

[HitObjects]
60,244,876,6,0,B|32:324|56:364|128:388|180:356|188:316|204:256|120:136,1,400,0|0,0:0|0:0,0:0:0:0:
60,92,2471,1,0,0:0:0:0:
117,23,2790,2,0,L|240:36,1,100,0|8,0:0|0:0,0:0:0:0:
292,84,3429,6,0,P|264:140|292:228,1,150,4|0,0:0|0:0,0:0:0:0:
363,267,4227,1,0,0:0:0:0:
428,204,4546,2,0,L|416:48,1,150,0|8,0:0|0:0,0:0:0:0:
504,76,5344,2,0,L|512:190,1,100,2|8,0:0|0:0,0:0:0:0:
496,263,5982,6,0,P|430:294|363:267,1,150,4|0,0:0|0:0,0:0:0:0:
308,336,6780,1,2,0:0:0:0:
228,292,7099,2,0,L|220:140,1,150,0|8,0:0|0:0,0:0:0:0:
280,76,7897,1,2,0:0:0:0:
213,16,8216,1,8,0:0:0:0:
153,82,8535,6,0,L|-8:72,1,150,6|0,0:0|0:0,0:0:0:0:
4,164,9333,1,2,0:0:0:0:
60,232,9652,2,0,P|100:252|200:220,1,150,0|8,0:0|0:0,0:0:0:0:
259,160,10450,2,0,P|309:153|355:171,1,100,2|8,0:0|0:0,0:0:0:0:
436,216,11088,6,0,L|428:372,1,150,4|0,0:0|0:0,0:0:0:0:
340,384,11886,1,2,0:0:0:0:
272,324,12205,2,0,P|224:296|124:320,1,150,0|8,0:0|0:0,0:0:0:0:
60,364,13003,1,2,0:0:0:0:
7,289,13322,1,8,0:0:0:0:
81,236,13641,6,0,B|104:184|88:136|88:136|140:160|192:144,1,200,4|0,0:0|0:0,0:0:0:0:
268,112,14599,1,8,0:0:0:0:
348,156,14918,2,0,L|336:324,2,150,0|0|8,0:0|0:0|0:0,0:0:0:0:
396,80,16195,6,0,B|340:56|301:81|301:81|256:112|196:80,1,200,2|0,0:0|0:0,0:0:0:0:
124,48,17152,1,8,0:0:0:0:
56,107,17471,2,0,P|23:176|54:253,2,150,0|0|8,0:0|0:0|0:0,0:0:0:0:
116,180,18748,6,0,L|328:156,1,200,2|0,0:0|0:0,0:0:0:0:
372,88,19705,1,8,0:0:0:0:
448,136,20024,2,0,L|440:308,2,150,0|0|8,0:0|0:0|0:0,0:0:0:0:
372,88,21301,6,0,P|413:53|516:80,2,150,2|0|8,0:0|0:0|0:0,0:0:0:0:
320,164,22578,2,0,P|249:182|189:142,2,150,0|0|8,0:0|0:0|0:0,0:0:0:0:
392,216,23854,6,0,L|387:320,1,100,8|8,0:0|0:0,0:0:0:0:
328,384,24493,2,0,L|239:327,1,100,2|8,0:0|0:0,0:0:0:0:
156,312,25131,2,0,P|176:268|224:244,2,100,2|8|2,0:0|0:0|0:0,0:0:0:0:
80,364,26088,1,8,0:0:0:0:
8,308,26407,6,0,L|15:208,1,100,2|8,0:0|0:0,0:0:0:0:
4,120,27046,1,2,0:0:0:0:
84,81,27365,1,8,0:0:0:0:
145,145,27684,2,0,P|188:168|280:124,2,150,2|0|8,0:0|0:0|0:0,0:0:0:0:
84,81,28961,5,2,0:0:0:0:
59,165,29280,1,8,0:0:0:0:
34,249,29599,2,0,L|46:348,1,100,2|8,0:0|0:0,0:0:0:0:
136,332,30237,2,0,L|148:232,2,100,2|8|2,0:0|0:0|0:0,0:0:0:0:
212,380,31195,1,8,0:0:0:0:
268,312,31514,6,0,P|317:307|361:328,2,100,2|8|2,0:0|0:0|0:0,0:0:0:0:
192,264,32472,1,8,0:0:0:0:
236,188,32790,2,0,L|396:176,2,150,8|0|8,0:0|0:0|0:0,0:0:0:0:
160,240,34067,6,0,P|148:212|168:132,1,100,6|0,0:0|0:0,0:0:0:0:
180,60,34705,2,0,L|12:36,2,150,8|0|2,0:0|0:0|0:0,0:0:0:0:
272,60,35982,2,0,L|372:48,1,100,8|2,0:0|0:0,0:0:0:0:
460,32,36620,6,0,P|452:144|452:244,1,200,2|8,0:0|0:0,0:0:0:0:
468,320,37578,1,2,0:0:0:0:
384,352,37897,2,0,B|328:328|289:353|289:353|244:384|184:352,1,200,0|8,0:0|0:0,0:0:0:0:
100,200,39173,6,0,L|198:182,1,100,6|0,0:0|0:0,0:0:0:0:
240,102,39812,2,0,P|280:142|272:234,2,150,8|2|2,0:0|0:0|0:0,0:0:0:0:
164,56,41088,2,0,L|65:73,1,100,8|2,0:0|0:0,0:0:0:0:
20,152,41727,5,0,0:0:0:0:
80,219,42046,1,8,0:0:0:0:
162,182,42365,2,0,L|259:202,1,100,2|8,0:0|0:0,0:0:0:0:
276,116,43003,2,0,L|178:95,1,100,2|8,0:0|0:0,0:0:0:0:
120,28,43641,1,8,0:0:0:0:
52,86,43960,1,8,0:0:0:0:
110,153,44280,6,0,L|104:256,1,100,4|8,0:0|0:0,0:0:0:0:
168,316,44918,2,0,P|102:346|36:312,2,150,2|0|8,0:0|0:0|0:0,0:0:0:0:
232,252,46195,1,2,0:0:0:0:
168,188,46514,6,0,P|136:144|216:24,1,200,8|8,0:0|0:0,0:0:0:0:
284,16,47471,1,2,0:0:0:0:
323,97,47790,1,8,0:0:0:0:
257,159,48110,2,0,L|276:316,2,150,2|0|8,0:0|0:0|0:0,0:0:0:0:
323,97,49386,6,0,L|428:90,1,100,4|8,0:0|0:0,0:0:0:0:
440,2,50024,2,0,L|291:13,2,150,2|0|8,0:0|0:0|0:0,0:0:0:0:
500,68,51301,1,0,0:0:0:0:
456,148,51620,1,8,0:0:0:0:
412,228,51939,6,0,L|260:248,2,150,2|0|8,0:0|0:0|0:0,0:0:0:0:
472,296,53216,1,2,0:0:0:0:
412,364,53535,2,0,P|364:344|312:360,1,100,8|2,0:0|0:0,0:0:0:0:
232,384,54173,1,8,0:0:0:0:
184,308,54493,6,0,L|192:188,1,100,4|8,0:0|0:0,0:0:0:0:
104,176,55131,2,0,L|93:331,2,150,2|0|8,0:0|0:0|0:0,0:0:0:0:
48,108,56407,1,2,0:0:0:0:
116,52,56727,6,0,B|172:76|211:51|211:51|256:20|316:52,1,200,8|8,0:0|0:0,0:0:0:0:
368,116,57684,1,0,0:0:0:0:
436,54,58004,1,8,0:0:0:0:
497,122,58322,2,0,P|496:192|484:288,2,150,2|2|10,0:0|0:0|0:0,0:0:0:0:
504,32,59599,6,0,L|404:48,1,100,4|0,0:0|0:0,0:0:0:0:
332,96,60237,2,0,L|169:72,2,150,8|8|0,0:0|0:0|0:0,0:0:0:0:
388,168,61514,1,8,0:0:0:0:
336,243,61833,1,0,0:0:0:0:
248,217,62152,6,0,P|212:196|84:280,1,200,2|8,0:0|0:0,0:0:0:0:
60,348,63110,1,0,0:0:0:0:
144,376,63429,2,0,L|248:352,1,100,2|0,0:0|0:0,0:0:0:0:
304,292,64067,2,0,L|401:314,1,100,8|2,0:0|0:0,0:0:0:0:
452,240,64705,6,0,P|488:284|472:376,2,150,4|0|8,0:0|0:0|0:0,0:0:0:0:
380,188,65982,2,0,P|363:117|403:56,2,150,8|8|2,0:0|0:0|0:0,0:0:0:0:
368,276,67258,6,0,L|200:264,1,150,4|0,0:0|0:0,0:0:0:0:
156,328,68056,1,2,0:0:0:0:
93,265,68376,2,0,L|103:115,1,150,0|8,0:0|0:0,0:0:0:0:
100,24,69173,2,0,L|204:31,1,100,2|8,0:0|0:0,0:0:0:0:
288,55,69812,6,0,P|262:125|285:195,1,150,0|0,0:0|0:0,0:0:0:0:
368,232,70610,1,2,0:0:0:0:
358,322,70929,2,0,P|316:320|208:324,1,150,0|8,0:0|0:0,0:0:0:0:
132,372,71727,1,2,0:0:0:0:
62,314,72046,1,8,0:0:0:0:
95,230,72365,6,0,P|108:184|60:100,1,150,2|0,0:0|0:0,0:0:0:0:
0,32,73163,1,2,0:0:0:0:
88,12,73482,2,0,L|240:28,1,150,0|8,0:0|0:0,0:0:0:0:
312,76,74280,2,0,L|411:65,1,100,2|8,0:0|0:0,0:0:0:0:
500,56,74918,6,0,L|477:203,1,150,0|0,0:0|0:0,0:0:0:0:
404,260,75716,1,2,0:0:0:0:
336,200,76035,2,0,P|245:173|182:245,1,200,0|2,0:0|0:0,0:0:0:0:
176,336,76993,2,0,P|264:328|332:332,1,150,8|4,0:0|0:0,0:0:0:0:
256,192,77631,12,0,81939,0:0:0:0:
