osu file format v14

[General]
AudioFilename: audio.mp3
AudioLeadIn: 0
PreviewTime: 44593
Countdown: 0
SampleSet: Normal
StackLeniency: 0.7
Mode: 1
LetterboxInBreaks: 0
WidescreenStoryboard: 1

[Editor]
Bookmarks: 3742,13954,24167,34380,44593,54806,67571,82891,87997,98210,108423,118635,131401,141614,151827,162040,182465,187571,197784,207997
DistanceSpacing: 1
BeatDivisor: 4
GridSize: 32
TimelineZoom: 2.4

[Metadata]
Title:Soul Release
TitleUnicode:Soul Release
Artist:Marika
ArtistUnicode:真里歌
Creator:gaston_2199
Version:Oni
Source:ハロー・レディ!
Tags:Hello Lady! Akatsuki Works Meis Clauson Angel Note eroge visual novel
BeatmapID:1941067
BeatmapSetID:925258

[Difficulty]
HPDrainRate:5
CircleSize:2
OverallDifficulty:5
ApproachRate:10
SliderMultiplier:1.4
SliderTickRate:1

[Events]
//Background and Video events
0,0,"BG.jpg",0,0
//Break Periods
2,172452,176909
//Storyboard Layer 0 (Background)
//Storyboard Layer 1 (Fail)
//Storyboard Layer 2 (Pass)
//Storyboard Layer 3 (Foreground)
//Storyboard Sound Samples

[TimingPoints]
1189,319.148936170213,4,1,0,100,1,0
14274,-100,4,1,0,100,0,0
24167,-100,4,1,0,100,0,0
44593,-100,4,1,0,100,0,1
53529,-100,4,1,0,100,0,0
54806,-100,4,1,0,100,0,1
66295,-100,4,1,0,100,0,0
108423,-100,4,1,0,100,0,1
117359,-100,4,1,0,100,0,0
118635,-100,4,1,0,100,0,1
130125,-100,4,1,0,100,0,0
182465,-100,4,1,0,100,0,1
186295,-100,4,1,0,100,0,0
187571,-100,4,1,0,100,0,1
196508,-100,4,1,0,100,0,0
197784,-100,4,1,0,100,0,1
206720,-100,4,1,0,100,0,0
207997,-100,4,1,0,100,0,1
219486,-100,4,1,0,100,0,0

[HitObjects]
256,192,1189,12,0,2306,0:0:0:0:
346,132,2465,5,8,0:0:0:0:
346,132,2784,1,8,0:0:0:0:
346,132,3103,1,8,0:0:0:0:
346,132,3263,1,0,0:0:0:0:
346,132,3343,1,0,0:0:0:0:
346,132,3423,1,8,0:0:0:0:
346,132,3742,1,4,0:0:0:0:
346,132,4061,1,8,0:0:0:0:
346,132,4220,1,0,0:0:0:0:
346,132,4540,1,0,0:0:0:0:
346,132,4699,1,8,0:0:0:0:
346,132,4859,1,0,0:0:0:0:
346,132,4939,1,0,0:0:0:0:
346,132,5018,1,8,0:0:0:0:
346,132,5178,1,0,0:0:0:0:
346,132,5337,1,8,0:0:0:0:
346,132,5657,1,0,0:0:0:0:
346,132,5816,1,0,0:0:0:0:
346,132,5976,1,8,0:0:0:0:
346,132,6295,1,0,0:0:0:0:
346,132,6614,1,8,0:0:0:0:
368,255,6774,1,0,0:0:0:0:
346,132,6933,1,0,0:0:0:0:
346,132,7093,1,8,0:0:0:0:
335,225,7412,1,8,0:0:0:0:
335,225,7571,1,8,0:0:0:0:
335,225,7651,1,8,0:0:0:0:
335,225,7731,1,0,0:0:0:0:
335,225,7891,1,8,0:0:0:0:
335,225,8050,1,0,0:0:0:0:
349,244,8130,1,8,0:0:0:0:
349,244,8210,1,0,0:0:0:0:
349,244,8369,1,0,0:0:0:0:
349,244,8529,1,8,0:0:0:0:
349,244,8848,1,0,0:0:0:0:
368,255,9167,1,8,0:0:0:0:
368,255,9327,1,0,0:0:0:0:
368,255,9646,1,0,0:0:0:0:
368,255,9806,1,8,0:0:0:0:
368,255,9965,1,8,0:0:0:0:
368,255,10045,1,8,0:0:0:0:
368,255,10125,1,0,0:0:0:0:
368,255,10284,1,0,0:0:0:0:
368,255,10444,1,8,0:0:0:0:
368,255,10763,1,8,0:0:0:0:
368,255,10923,1,0,0:0:0:0:
368,255,11082,1,8,0:0:0:0:
368,255,11401,1,0,0:0:0:0:
368,255,11720,1,8,0:0:0:0:
368,255,11880,1,8,0:0:0:0:
368,255,12040,1,0,0:0:0:0:
368,255,12199,1,8,0:0:0:0:
368,255,12518,1,8,0:0:0:0:
368,255,12678,1,8,0:0:0:0:
368,255,12758,1,8,0:0:0:0:
368,255,12837,1,0,0:0:0:0:
368,255,12997,1,8,0:0:0:0:
368,255,13157,1,0,0:0:0:0:
368,255,13236,1,0,0:0:0:0:
368,255,13316,1,8,0:0:0:0:
368,255,13476,1,0,0:0:0:0:
368,255,13635,1,8,0:0:0:0:
368,255,13795,1,8,0:0:0:0:
368,255,13954,1,4,0:0:0:0:
368,255,14274,1,8,0:0:0:0:
368,255,14912,1,8,0:0:0:0:
368,255,15550,1,8,0:0:0:0:
368,255,16189,1,8,0:0:0:0:
368,255,16508,1,0,0:0:0:0:
368,255,16827,1,8,0:0:0:0:
368,255,17465,1,8,0:0:0:0:
368,255,18103,1,8,0:0:0:0:
368,255,18742,1,8,0:0:0:0:
368,255,19061,1,0,0:0:0:0:
368,255,19220,1,0,0:0:0:0:
368,255,19380,1,8,0:0:0:0:
368,255,20018,1,8,0:0:0:0:
368,255,20657,1,8,0:0:0:0:
368,255,21295,1,8,0:0:0:0:
368,255,21614,1,0,0:0:0:0:
368,255,21933,1,8,0:0:0:0:
368,255,22571,1,8,0:0:0:0:
368,255,23210,1,8,0:0:0:0:
368,255,23689,1,8,0:0:0:0:
368,255,23848,1,8,0:0:0:0:
368,255,23928,1,8,0:0:0:0:
368,255,24008,1,8,0:0:0:0:
368,255,24167,1,4,0:0:0:0:
368,255,24486,1,8,0:0:0:0:
368,255,24806,1,0,0:0:0:0:
368,255,24965,1,0,0:0:0:0:
368,255,25125,1,8,0:0:0:0:
368,255,25284,1,0,0:0:0:0:
368,255,25364,1,8,0:0:0:0:
368,255,25444,1,0,0:0:0:0:
368,255,25603,1,0,0:0:0:0:
368,255,25763,1,8,0:0:0:0:
368,255,25923,1,0,0:0:0:0:
368,255,26242,1,0,0:0:0:0:
368,255,26401,1,8,0:0:0:0:
368,255,26561,1,8,0:0:0:0:
368,255,26641,1,8,0:0:0:0:
368,255,26720,1,0,0:0:0:0:
368,255,26880,1,0,0:0:0:0:
368,255,27040,1,8,0:0:0:0:
368,255,27359,1,0,0:0:0:0:
368,255,27518,1,0,0:0:0:0:
368,255,27678,1,8,0:0:0:0:
368,255,27837,1,8,0:0:0:0:
368,255,27997,1,0,0:0:0:0:
368,255,28316,1,8,0:0:0:0:
368,255,28476,1,0,0:0:0:0:
368,255,28795,1,0,0:0:0:0:
368,255,28954,1,8,0:0:0:0:
368,255,29114,1,8,0:0:0:0:
368,255,29274,1,0,0:0:0:0:
368,255,29593,1,8,0:0:0:0:
368,255,29912,1,8,0:0:0:0:
368,255,30071,1,0,0:0:0:0:
368,255,30231,1,8,0:0:0:0:
368,255,30391,1,8,0:0:0:0:
368,255,30470,1,0,0:0:0:0:
368,255,30550,1,8,0:0:0:0:
368,255,30710,1,0,0:0:0:0:
368,255,30869,1,8,0:0:0:0:
368,255,31029,1,8,0:0:0:0:
384,249,31189,1,0,0:0:0:0:
368,255,31508,1,8,0:0:0:0:
360,236,31667,1,8,0:0:0:0:
360,236,31747,1,8,0:0:0:0:
368,255,31827,1,8,0:0:0:0:
368,255,31986,1,0,0:0:0:0:
368,255,32146,1,8,0:0:0:0:
368,255,32306,1,0,0:0:0:0:
368,255,32625,1,0,0:0:0:0:
368,255,32784,1,8,0:0:0:0:
360,236,32944,1,0,0:0:0:0:
368,255,33103,1,0,0:0:0:0:
368,255,33263,1,8,0:0:0:0:
368,255,33423,1,8,0:0:0:0:
368,255,33582,1,0,0:0:0:0:
368,255,33662,1,0,0:0:0:0:
368,255,33742,1,8,0:0:0:0:
368,255,33901,1,0,0:0:0:0:
368,255,34061,1,8,0:0:0:0:
368,255,34380,1,4,0:0:0:0:
368,255,34540,1,0,0:0:0:0:
368,255,34859,1,0,0:0:0:0:
368,255,35018,1,8,0:0:0:0:
368,255,35337,1,0,0:0:0:0:
368,255,35497,1,0,0:0:0:0:
368,255,35816,1,8,0:0:0:0:
368,255,35976,1,0,0:0:0:0:
368,255,36295,1,8,0:0:0:0:
368,255,36933,1,0,0:0:0:0:
368,255,37093,1,0,0:0:0:0:
368,255,37412,1,0,0:0:0:0:
368,255,37571,1,8,0:0:0:0:
368,255,37891,1,0,0:0:0:0:
368,255,38050,1,0,0:0:0:0:
368,255,38369,1,8,0:0:0:0:
368,255,38529,1,0,0:0:0:0:
368,255,38848,1,8,0:0:0:0:
368,255,39008,1,0,0:0:0:0:
368,255,39167,1,8,0:0:0:0:
368,255,39327,1,8,0:0:0:0:
368,255,39486,1,4,0:0:0:0:
368,255,39646,1,0,0:0:0:0:
368,255,39965,1,0,0:0:0:0:
368,255,40125,1,8,0:0:0:0:
368,255,40444,1,0,0:0:0:0:
368,255,40603,1,0,0:0:0:0:
368,255,40923,1,8,0:0:0:0:
368,255,41082,1,0,0:0:0:0:
368,255,41401,1,8,0:0:0:0:
368,255,41561,1,0,0:0:0:0:
368,255,41720,1,8,0:0:0:0:
368,255,41880,1,8,0:0:0:0:
368,255,42040,1,0,0:0:0:0:
368,255,42359,1,8,0:0:0:0:
368,255,42678,1,0,0:0:0:0:
368,255,42837,1,0,0:0:0:0:
368,255,42997,1,8,0:0:0:0:
368,255,43157,1,0,0:0:0:0:
360,236,43316,1,8,0:0:0:0:
368,255,43635,1,8,0:0:0:0:
368,255,43795,1,0,0:0:0:0:
368,255,43875,1,0,0:0:0:0:
368,255,43954,1,8,0:0:0:0:
368,255,44114,1,0,0:0:0:0:
368,255,44274,1,8,0:0:0:0:
368,255,44353,1,8,0:0:0:0:
368,255,44433,1,8,0:0:0:0:
368,255,44593,1,4,0:0:0:0:
382,253,44752,1,0,0:0:0:0:
382,253,44912,1,8,0:0:0:0:
382,253,45071,1,0,0:0:0:0:
382,253,45231,1,8,0:0:0:0:
382,253,45311,1,0,0:0:0:0:
382,253,45391,1,8,0:0:0:0:
382,253,45550,1,0,0:0:0:0:
382,253,45710,1,8,0:0:0:0:
382,253,46029,1,0,0:0:0:0:
382,253,46189,1,8,0:0:0:0:
382,253,46348,1,0,0:0:0:0:
382,253,46428,1,0,0:0:0:0:
382,253,46508,1,8,0:0:0:0:
382,253,46667,1,0,0:0:0:0:
382,253,46827,1,12,0:0:0:0:
382,253,47306,1,0,0:0:0:0:
382,253,47465,1,8,0:0:0:0:
382,253,47784,1,0,0:0:0:0:
382,253,47944,1,0,0:0:0:0:
382,253,48103,1,8,0:0:0:0:
382,253,48423,1,0,0:0:0:0:
382,253,48742,1,8,0:0:0:0:
382,253,48901,1,0,0:0:0:0:
382,253,49220,1,0,0:0:0:0:
382,253,49380,1,8,0:0:0:0:
382,253,49460,1,8,0:0:0:0:
382,253,49540,1,8,0:0:0:0:
382,253,49699,1,4,0:0:0:0:
382,253,50018,1,8,0:0:0:0:
382,253,50337,1,8,0:0:0:0:
382,253,50497,1,0,0:0:0:0:
382,253,50657,1,8,0:0:0:0:
382,253,50816,1,8,0:0:0:0:
382,253,50896,1,8,0:0:0:0:
382,253,50976,1,0,0:0:0:0:
382,253,51135,1,0,0:0:0:0:
382,253,51295,1,8,0:0:0:0:
382,253,51614,1,0,0:0:0:0:
382,253,51774,1,0,0:0:0:0:
382,253,51933,1,8,0:0:0:0:
382,253,52093,1,8,0:0:0:0:
382,253,52252,1,0,0:0:0:0:
360,236,52571,1,8,0:0:0:0:
360,236,52731,1,0,0:0:0:0:
360,236,53050,1,0,0:0:0:0:
360,236,53210,1,8,0:0:0:0:
360,236,53529,1,0,0:0:0:0:
360,236,53689,1,0,0:0:0:0:
360,236,53848,1,12,0:0:0:0:
360,236,54008,1,0,0:0:0:0:
360,236,54087,1,0,0:0:0:0:
360,236,54167,1,0,0:0:0:0:
360,236,54327,1,0,0:0:0:0:
360,236,54486,1,12,0:0:0:0:
368,255,54806,1,12,0:0:0:0:
382,253,54965,1,0,0:0:0:0:
382,253,55125,1,8,0:0:0:0:
382,253,55284,1,0,0:0:0:0:
360,236,55364,1,8,0:0:0:0:
382,253,55444,1,0,0:0:0:0:
382,253,55603,1,8,0:0:0:0:
369,246,55763,1,8,0:0:0:0:
369,246,55923,1,0,0:0:0:0:
382,253,56242,1,0,0:0:0:0:
382,253,56401,1,8,0:0:0:0:
382,253,56561,1,0,0:0:0:0:
369,246,56720,1,8,0:0:0:0:
369,246,56800,1,8,0:0:0:0:
382,253,56880,1,0,0:0:0:0:
382,253,57040,1,12,0:0:0:0:
382,253,57518,1,0,0:0:0:0:
382,253,57678,1,8,0:0:0:0:
382,253,57997,1,0,0:0:0:0:
382,253,58157,1,0,0:0:0:0:
382,253,58316,1,8,0:0:0:0:
382,253,58635,1,0,0:0:0:0:
382,253,58954,1,8,0:0:0:0:
382,253,59114,1,0,0:0:0:0:
382,253,59433,1,0,0:0:0:0:
382,253,59593,1,8,0:0:0:0:
382,253,59673,1,8,0:0:0:0:
382,253,59752,1,8,0:0:0:0:
382,253,59912,1,0,0:0:0:0:
382,253,60231,1,0,0:0:0:0:
382,253,60391,1,0,0:0:0:0:
382,253,60550,1,8,0:0:0:0:
382,253,61029,1,8,0:0:0:0:
382,253,61189,1,0,0:0:0:0:
382,253,61508,1,0,0:0:0:0:
382,253,61667,1,0,0:0:0:0:
382,253,61827,1,8,0:0:0:0:
382,253,62146,1,8,0:0:0:0:
382,253,62306,1,8,0:0:0:0:
382,253,62385,1,8,0:0:0:0:
382,253,62465,1,0,0:0:0:0:
382,253,62625,1,8,0:0:0:0:
382,253,62784,1,0,0:0:0:0:
382,253,62944,1,0,0:0:0:0:
382,253,63103,1,8,0:0:0:0:
382,253,63582,1,8,0:0:0:0:
382,253,63742,1,0,0:0:0:0:
382,253,63901,1,8,0:0:0:0:
382,253,63981,1,8,0:0:0:0:
382,253,64061,1,8,0:0:0:0:
382,253,64220,1,0,0:0:0:0:
382,253,64380,1,8,0:0:0:0:
382,253,64540,1,0,0:0:0:0:
382,253,64699,1,8,0:0:0:0:
382,253,65018,1,8,0:0:0:0:
382,253,65178,1,0,0:0:0:0:
382,253,65337,1,8,0:0:0:0:
382,253,65497,1,8,0:0:0:0:
382,253,65577,1,8,0:0:0:0:
382,253,65657,1,0,0:0:0:0:
382,253,65816,1,0,0:0:0:0:
382,253,65976,1,8,0:0:0:0:
382,253,66295,1,4,0:0:0:0:
382,253,66454,1,4,0:0:0:0:
382,253,66614,1,12,0:0:0:0:
382,253,66774,1,4,0:0:0:0:
389,255,67093,1,0,0:0:0:0:
389,255,67173,1,0,0:0:0:0:
389,255,67252,1,8,0:0:0:0:
346,132,67571,1,4,0:0:0:0:
346,132,67891,1,8,0:0:0:0:
346,132,68050,1,0,0:0:0:0:
346,132,68369,1,0,0:0:0:0:
346,132,68529,1,8,0:0:0:0:
346,132,68689,1,0,0:0:0:0:
346,132,68768,1,0,0:0:0:0:
346,132,68848,1,8,0:0:0:0:
346,132,69008,1,0,0:0:0:0:
346,132,69167,1,8,0:0:0:0:
346,132,69486,1,0,0:0:0:0:
346,132,69646,1,0,0:0:0:0:
346,132,69806,1,8,0:0:0:0:
346,132,70125,1,0,0:0:0:0:
346,132,70444,1,8,0:0:0:0:
368,255,70603,1,0,0:0:0:0:
346,132,70763,1,0,0:0:0:0:
346,132,70923,1,8,0:0:0:0:
335,225,71242,1,8,0:0:0:0:
335,225,71401,1,8,0:0:0:0:
335,225,71481,1,8,0:0:0:0:
335,225,71561,1,0,0:0:0:0:
335,225,71720,1,8,0:0:0:0:
335,225,71880,1,0,0:0:0:0:
349,244,71960,1,8,0:0:0:0:
349,244,72040,1,0,0:0:0:0:
349,244,72199,1,0,0:0:0:0:
349,244,72359,1,8,0:0:0:0:
349,244,72678,1,0,0:0:0:0:
368,255,72997,1,8,0:0:0:0:
368,255,73157,1,0,0:0:0:0:
368,255,73476,1,0,0:0:0:0:
368,255,73635,1,8,0:0:0:0:
368,255,73795,1,8,0:0:0:0:
368,255,73875,1,8,0:0:0:0:
368,255,73954,1,0,0:0:0:0:
368,255,74114,1,0,0:0:0:0:
368,255,74274,1,8,0:0:0:0:
368,255,74593,1,8,0:0:0:0:
368,255,74752,1,0,0:0:0:0:
368,255,74912,1,8,0:0:0:0:
368,255,75231,1,0,0:0:0:0:
368,255,75550,1,8,0:0:0:0:
368,255,75710,1,8,0:0:0:0:
368,255,75869,1,0,0:0:0:0:
368,255,76029,1,8,0:0:0:0:
368,255,76348,1,8,0:0:0:0:
368,255,76508,1,8,0:0:0:0:
368,255,76587,1,8,0:0:0:0:
368,255,76667,1,0,0:0:0:0:
368,255,76827,1,8,0:0:0:0:
368,255,76986,1,0,0:0:0:0:
368,255,77066,1,0,0:0:0:0:
368,255,77146,1,8,0:0:0:0:
368,255,77306,1,0,0:0:0:0:
368,255,77465,1,8,0:0:0:0:
368,255,77625,1,8,0:0:0:0:
368,255,77784,1,4,0:0:0:0:
226,169,82571,1,8,0:0:0:0:
226,169,82651,1,8,0:0:0:0:
226,169,82731,1,8,0:0:0:0:
368,255,82891,1,4,0:0:0:0:
368,255,83210,1,8,0:0:0:0:
252,173,83529,1,8,0:0:0:0:
368,255,83689,1,0,0:0:0:0:
368,255,83848,1,8,0:0:0:0:
274,119,84008,1,0,0:0:0:0:
368,255,84087,1,8,0:0:0:0:
368,255,84167,1,0,0:0:0:0:
368,255,84327,1,0,0:0:0:0:
368,255,84486,1,8,0:0:0:0:
368,255,84646,1,0,0:0:0:0:
368,255,84965,1,0,0:0:0:0:
368,255,85125,1,8,0:0:0:0:
368,255,85284,1,8,0:0:0:0:
368,255,85364,1,8,0:0:0:0:
368,255,85444,1,0,0:0:0:0:
368,255,85603,1,0,0:0:0:0:
368,255,85763,1,8,0:0:0:0:
368,255,85923,1,0,0:0:0:0:
368,255,86242,1,0,0:0:0:0:
368,255,86401,1,8,0:0:0:0:
368,255,86561,1,8,0:0:0:0:
368,255,86720,1,0,0:0:0:0:
368,255,87040,1,8,0:0:0:0:
368,255,87199,1,0,0:0:0:0:
274,119,87279,1,0,0:0:0:0:
274,119,87359,1,0,0:0:0:0:
368,255,87518,1,0,0:0:0:0:
368,255,87678,1,8,0:0:0:0:
368,255,87837,1,8,0:0:0:0:
368,255,87997,1,4,0:0:0:0:
301,203,88316,1,8,0:0:0:0:
301,203,88476,1,0,0:0:0:0:
301,203,88635,1,8,0:0:0:0:
301,203,88954,1,8,0:0:0:0:
301,203,89114,1,0,0:0:0:0:
301,203,89433,1,8,0:0:0:0:
301,203,89752,1,0,0:0:0:0:
301,203,89912,1,8,0:0:0:0:
301,203,90231,1,8,0:0:0:0:
301,203,90391,1,8,0:0:0:0:
301,203,90550,1,0,0:0:0:0:
301,203,90710,1,0,0:0:0:0:
301,203,91029,1,8,0:0:0:0:
301,203,91348,1,0,0:0:0:0:
301,203,91508,1,8,0:0:0:0:
301,203,91667,1,0,0:0:0:0:
301,203,91827,1,0,0:0:0:0:
301,203,91986,1,8,0:0:0:0:
301,203,92306,1,0,0:0:0:0:
301,203,92465,1,8,0:0:0:0:
301,203,92625,1,0,0:0:0:0:
301,203,92784,1,8,0:0:0:0:
301,203,92864,1,8,0:0:0:0:
301,203,92944,1,8,0:0:0:0:
368,255,93103,1,4,0:0:0:0:
368,255,93423,1,8,0:0:0:0:
368,255,93742,1,8,0:0:0:0:
368,255,93901,1,0,0:0:0:0:
368,255,94061,1,8,0:0:0:0:
368,255,94220,1,8,0:0:0:0:
368,255,94300,1,8,0:0:0:0:
368,255,94380,1,0,0:0:0:0:
368,255,94540,1,0,0:0:0:0:
368,255,94699,1,8,0:0:0:0:
368,255,94859,1,0,0:0:0:0:
368,255,95178,1,0,0:0:0:0:
368,255,95337,1,8,0:0:0:0:
368,255,95497,1,8,0:0:0:0:
368,255,95577,1,8,0:0:0:0:
368,255,95657,1,8,0:0:0:0:
368,255,95816,1,0,0:0:0:0:
368,255,95976,1,8,0:0:0:0:
332,229,96135,1,0,0:0:0:0:
368,255,96454,1,0,0:0:0:0:
368,255,96614,1,8,0:0:0:0:
366,266,96774,1,0,0:0:0:0:
368,255,96933,1,0,0:0:0:0:
366,266,97093,1,8,0:0:0:0:
368,255,97252,1,8,0:0:0:0:
368,255,97412,1,0,0:0:0:0:
366,266,97492,1,0,0:0:0:0:
366,266,97571,1,8,0:0:0:0:
368,255,97731,1,0,0:0:0:0:
368,255,97891,1,8,0:0:0:0:
368,255,98210,1,4,0:0:0:0:
368,255,98369,1,0,0:0:0:0:
368,255,98689,1,0,0:0:0:0:
368,255,98848,1,8,0:0:0:0:
368,255,99167,1,0,0:0:0:0:
368,255,99327,1,0,0:0:0:0:
368,255,99646,1,8,0:0:0:0:
368,255,99806,1,0,0:0:0:0:
368,255,100125,1,8,0:0:0:0:
368,255,100763,1,0,0:0:0:0:
368,255,100923,1,0,0:0:0:0:
368,255,101242,1,0,0:0:0:0:
368,255,101401,1,8,0:0:0:0:
368,255,101720,1,0,0:0:0:0:
250,209,101880,1,8,0:0:0:0:
368,255,102199,1,8,0:0:0:0:
368,255,102359,1,0,0:0:0:0:
368,255,102678,1,8,0:0:0:0:
368,255,102837,1,0,0:0:0:0:
368,255,102997,1,8,0:0:0:0:
368,255,103157,1,8,0:0:0:0:
368,255,103316,1,4,0:0:0:0:
368,255,103476,1,0,0:0:0:0:
368,255,103795,1,0,0:0:0:0:
368,255,103954,1,8,0:0:0:0:
368,255,104274,1,0,0:0:0:0:
368,255,104433,1,0,0:0:0:0:
368,255,104752,1,8,0:0:0:0:
368,255,104912,1,0,0:0:0:0:
368,255,105231,1,8,0:0:0:0:
368,255,105391,1,0,0:0:0:0:
368,255,105550,1,8,0:0:0:0:
368,255,105710,1,8,0:0:0:0:
368,255,105869,1,0,0:0:0:0:
368,255,106189,1,8,0:0:0:0:
368,255,106508,1,0,0:0:0:0:
368,255,106667,1,0,0:0:0:0:
368,255,106827,1,8,0:0:0:0:
368,255,106986,1,0,0:0:0:0:
360,236,107146,1,8,0:0:0:0:
368,255,107465,1,8,0:0:0:0:
368,255,107625,1,0,0:0:0:0:
368,255,108423,1,4,0:0:0:0:
382,253,108582,1,0,0:0:0:0:
382,253,108742,1,8,0:0:0:0:
382,253,108901,1,0,0:0:0:0:
382,253,109061,1,8,0:0:0:0:
382,253,109220,1,8,0:0:0:0:
382,253,109300,1,8,0:0:0:0:
382,253,109380,1,0,0:0:0:0:
382,253,109540,1,8,0:0:0:0:
268,195,109859,1,8,0:0:0:0:
382,253,110018,1,8,0:0:0:0:
382,253,110178,1,0,0:0:0:0:
382,253,110258,1,0,0:0:0:0:
382,253,110337,1,8,0:0:0:0:
382,253,110497,1,0,0:0:0:0:
382,253,110657,1,12,0:0:0:0:
382,253,111135,1,0,0:0:0:0:
382,253,111295,1,8,0:0:0:0:
382,253,111614,1,0,0:0:0:0:
382,253,111774,1,0,0:0:0:0:
382,253,111933,1,8,0:0:0:0:
382,253,112252,1,0,0:0:0:0:
382,253,112571,1,8,0:0:0:0:
382,253,112731,1,0,0:0:0:0:
382,253,113050,1,0,0:0:0:0:
382,253,113210,1,8,0:0:0:0:
382,253,113290,1,8,0:0:0:0:
382,253,113369,1,8,0:0:0:0:
382,253,113529,1,4,0:0:0:0:
382,253,113848,1,8,0:0:0:0:
382,253,114167,1,8,0:0:0:0:
382,253,114327,1,0,0:0:0:0:
382,253,114486,1,8,0:0:0:0:
382,253,114646,1,8,0:0:0:0:
382,253,114726,1,8,0:0:0:0:
382,253,114806,1,0,0:0:0:0:
382,253,114965,1,0,0:0:0:0:
268,195,115125,1,8,0:0:0:0:
382,253,115444,1,0,0:0:0:0:
382,253,115603,1,0,0:0:0:0:
382,253,115763,1,8,0:0:0:0:
382,253,115923,1,8,0:0:0:0:
382,253,116082,1,0,0:0:0:0:
360,236,116401,1,8,0:0:0:0:
360,236,116561,1,0,0:0:0:0:
360,236,116880,1,0,0:0:0:0:
360,236,117040,1,8,0:0:0:0:
360,236,117359,1,0,0:0:0:0:
360,236,117518,1,0,0:0:0:0:
360,236,117678,1,12,0:0:0:0:
360,236,117837,1,0,0:0:0:0:
360,236,117917,1,0,0:0:0:0:
360,236,117997,1,0,0:0:0:0:
360,236,118157,1,0,0:0:0:0:
360,236,118316,1,12,0:0:0:0:
368,255,118635,1,8,0:0:0:0:
382,253,118795,1,0,0:0:0:0:
382,253,118954,1,8,0:0:0:0:
360,236,119034,1,0,0:0:0:0:
382,253,119114,1,8,0:0:0:0:
382,253,119274,1,0,0:0:0:0:
382,253,119433,1,8,0:0:0:0:
369,246,119593,1,8,0:0:0:0:
369,246,119752,1,0,0:0:0:0:
383,270,119832,1,0,0:0:0:0:
385,245,119912,1,8,0:0:0:0:
383,270,120071,1,0,0:0:0:0:
382,253,120231,1,8,0:0:0:0:
382,253,120391,1,0,0:0:0:0:
369,246,120550,1,8,0:0:0:0:
369,246,120630,1,8,0:0:0:0:
382,253,120710,1,0,0:0:0:0:
382,253,120869,1,12,0:0:0:0:
382,253,121348,1,0,0:0:0:0:
382,253,121508,1,8,0:0:0:0:
382,253,121827,1,0,0:0:0:0:
382,253,121986,1,0,0:0:0:0:
382,253,122146,1,8,0:0:0:0:
382,253,122465,1,0,0:0:0:0:
382,253,122784,1,8,0:0:0:0:
382,253,122944,1,0,0:0:0:0:
382,253,123263,1,0,0:0:0:0:
382,253,123423,1,8,0:0:0:0:
382,253,123502,1,8,0:0:0:0:
382,253,123582,1,8,0:0:0:0:
382,253,123742,1,4,0:0:0:0:
382,253,124061,1,0,0:0:0:0:
382,253,124220,1,0,0:0:0:0:
382,253,124380,1,8,0:0:0:0:
382,253,124859,1,8,0:0:0:0:
382,253,125018,1,0,0:0:0:0:
382,253,125337,1,0,0:0:0:0:
382,253,125497,1,0,0:0:0:0:
382,253,125657,1,8,0:0:0:0:
382,253,125976,1,8,0:0:0:0:
382,253,126135,1,8,0:0:0:0:
382,253,126215,1,8,0:0:0:0:
382,253,126295,1,0,0:0:0:0:
382,253,126454,1,8,0:0:0:0:
382,253,126614,1,0,0:0:0:0:
382,253,126774,1,0,0:0:0:0:
382,253,126933,1,8,0:0:0:0:
382,253,127412,1,8,0:0:0:0:
382,253,127571,1,0,0:0:0:0:
382,253,127731,1,8,0:0:0:0:
382,253,127811,1,8,0:0:0:0:
382,253,127891,1,8,0:0:0:0:
382,253,128050,1,0,0:0:0:0:
382,253,128210,1,8,0:0:0:0:
382,253,128369,1,0,0:0:0:0:
382,253,128529,1,8,0:0:0:0:
382,253,128848,1,8,0:0:0:0:
382,253,129008,1,0,0:0:0:0:
382,253,129167,1,8,0:0:0:0:
382,253,129327,1,8,0:0:0:0:
382,253,129407,1,8,0:0:0:0:
382,253,129486,1,0,0:0:0:0:
382,253,129646,1,0,0:0:0:0:
382,253,129806,1,8,0:0:0:0:
382,253,130125,1,4,0:0:0:0:
382,253,130284,1,4,0:0:0:0:
382,253,130444,1,12,0:0:0:0:
382,253,130603,1,4,0:0:0:0:
389,255,130923,1,0,0:0:0:0:
389,255,131002,1,0,0:0:0:0:
389,255,131082,1,8,0:0:0:0:
383,270,131401,1,0,0:0:0:0:
383,270,131561,1,0,0:0:0:0:
383,270,131720,1,8,0:0:0:0:
383,270,131880,1,0,0:0:0:0:
383,270,131960,1,8,0:0:0:0:
383,270,132040,1,0,0:0:0:0:
383,270,132199,1,0,0:0:0:0:
383,270,132359,1,8,0:0:0:0:
383,270,132518,1,0,0:0:0:0:
383,270,132678,1,8,0:0:0:0:
305,240,132837,1,8,0:0:0:0:
383,270,133157,1,0,0:0:0:0:
383,270,133316,1,8,0:0:0:0:
383,270,133476,1,0,0:0:0:0:
383,270,133556,1,0,0:0:0:0:
383,270,133635,1,8,0:0:0:0:
383,270,133795,1,0,0:0:0:0:
383,270,133954,1,8,0:0:0:0:
383,270,134274,1,8,0:0:0:0:
383,270,134433,1,0,0:0:0:0:
383,270,134593,1,8,0:0:0:0:
383,270,134752,1,8,0:0:0:0:
383,270,134832,1,8,0:0:0:0:
383,270,134912,1,0,0:0:0:0:
383,270,134992,1,0,0:0:0:0:
383,270,135071,1,8,0:0:0:0:
383,270,135231,1,8,0:0:0:0:
383,270,135391,1,0,0:0:0:0:
383,270,135470,1,0,0:0:0:0:
383,270,135550,1,8,0:0:0:0:
383,270,135710,1,0,0:0:0:0:
383,270,135869,1,8,0:0:0:0:
383,270,136189,1,8,0:0:0:0:
383,270,136348,1,8,0:0:0:0:
383,270,136428,1,8,0:0:0:0:
383,270,136508,1,0,0:0:0:0:
383,270,136667,1,0,0:0:0:0:
383,270,136827,1,8,0:0:0:0:
385,260,136986,1,0,0:0:0:0:
383,270,137306,1,8,0:0:0:0:
383,270,137385,1,8,0:0:0:0:
383,270,137465,1,8,0:0:0:0:
383,270,137545,1,8,0:0:0:0:
383,270,137625,1,0,0:0:0:0:
383,270,137784,1,0,0:0:0:0:
383,270,137864,1,8,0:0:0:0:
383,270,137944,1,0,0:0:0:0:
383,270,138103,1,8,0:0:0:0:
383,270,138263,1,0,0:0:0:0:
383,270,138423,1,8,0:0:0:0:
383,270,138582,1,8,0:0:0:0:
383,270,138662,1,0,0:0:0:0:
383,270,138742,1,8,0:0:0:0:
381,245,138901,1,0,0:0:0:0:
381,245,139061,1,8,0:0:0:0:
365,229,139380,1,8,0:0:0:0:
365,229,139540,1,0,0:0:0:0:
365,229,139699,1,8,0:0:0:0:
365,229,139779,1,0,0:0:0:0:
365,229,139939,1,0,0:0:0:0:
365,229,140018,1,8,0:0:0:0:
365,229,140178,1,8,0:0:0:0:
365,229,140337,1,0,0:0:0:0:
365,229,140497,1,0,0:0:0:0:
365,229,140657,1,8,0:0:0:0:
365,229,140816,1,0,0:0:0:0:
365,229,141135,1,0,0:0:0:0:
365,229,141295,1,8,0:0:0:0:
365,229,141375,1,8,0:0:0:0:
365,229,141454,1,8,0:0:0:0:
365,229,141614,1,4,0:0:0:0:
365,229,141933,1,8,0:0:0:0:
365,229,142093,1,0,0:0:0:0:
365,229,142412,1,0,0:0:0:0:
365,229,142571,1,8,0:0:0:0:
355,251,142731,1,0,0:0:0:0:
304,224,142811,1,8,0:0:0:0:
365,229,142891,1,0,0:0:0:0:
365,229,143050,1,0,0:0:0:0:
357,248,143210,1,8,0:0:0:0:
332,207,143290,1,8,0:0:0:0:
357,248,143369,1,0,0:0:0:0:
331,233,143529,6,0,L|117:142,1,210
304,224,144167,1,0,0:0:0:0:
332,207,144486,1,8,0:0:0:0:
304,224,144806,1,0,0:0:0:0:
332,207,144965,1,0,0:0:0:0:
304,224,145125,1,8,0:0:0:0:
332,207,145284,1,0,0:0:0:0:
287,206,145364,1,0,0:0:0:0:
332,207,145444,1,8,0:0:0:0:
317,216,145603,1,0,0:0:0:0:
317,216,145763,1,8,0:0:0:0:
332,207,145923,1,0,0:0:0:0:
317,216,146242,1,0,0:0:0:0:
334,218,146401,1,8,0:0:0:0:
334,218,146561,1,0,0:0:0:0:
334,218,146720,1,8,0:0:0:0:
334,218,146800,1,0,0:0:0:0:
334,218,146880,1,0,0:0:0:0:
317,216,146960,1,0,0:0:0:0:
334,218,147040,1,8,0:0:0:0:
334,218,147199,1,8,0:0:0:0:
334,218,147279,1,8,0:0:0:0:
334,218,147359,1,0,0:0:0:0:
334,218,147518,1,0,0:0:0:0:
334,218,147678,1,8,0:0:0:0:
334,218,147837,1,0,0:0:0:0:
317,216,147997,1,8,0:0:0:0:
317,216,148077,1,8,0:0:0:0:
317,216,148157,1,0,0:0:0:0:
317,216,148236,1,0,0:0:0:0:
317,216,148316,1,8,0:0:0:0:
317,216,148476,1,8,0:0:0:0:
317,216,148556,1,8,0:0:0:0:
317,216,148635,1,0,0:0:0:0:
317,216,148795,1,0,0:0:0:0:
317,216,148954,1,8,0:0:0:0:
317,216,149034,1,0,0:0:0:0:
317,216,149114,1,8,0:0:0:0:
317,216,149274,1,0,0:0:0:0:
317,216,149433,1,0,0:0:0:0:
317,216,149513,1,0,0:0:0:0:
317,216,149593,1,8,0:0:0:0:
317,216,149752,1,0,0:0:0:0:
317,216,150071,1,0,0:0:0:0:
317,216,150231,1,8,0:0:0:0:
317,216,150391,1,8,0:0:0:0:
317,216,150470,1,8,0:0:0:0:
317,216,150550,1,0,0:0:0:0:
317,216,150710,1,0,0:0:0:0:
317,216,150869,1,8,0:0:0:0:
317,216,151029,1,8,0:0:0:0:
317,216,151109,1,8,0:0:0:0:
317,216,151189,1,0,0:0:0:0:
317,216,151268,1,0,0:0:0:0:
317,216,151348,1,8,0:0:0:0:
317,216,151428,1,0,0:0:0:0:
317,216,151508,1,8,0:0:0:0:
317,216,151827,1,4,0:0:0:0:
296,242,152146,1,8,0:0:0:0:
296,242,152625,1,8,0:0:0:0:
296,242,153103,1,8,0:0:0:0:
296,242,153263,1,0,0:0:0:0:
296,242,153582,1,8,0:0:0:0:
296,242,154061,1,8,0:0:0:0:
296,242,154380,1,0,0:0:0:0:
296,242,154699,1,8,0:0:0:0:
296,242,155018,1,0,0:0:0:0:
296,242,155178,1,8,0:0:0:0:
296,242,155657,1,8,0:0:0:0:
296,242,155976,1,0,0:0:0:0:
296,242,156135,1,8,0:0:0:0:
296,242,156614,1,8,0:0:0:0:
296,242,156933,1,0,0:0:0:0:
296,242,157252,1,8,0:0:0:0:
296,242,157731,1,8,0:0:0:0:
296,242,158210,1,8,0:0:0:0:
296,242,158369,1,0,0:0:0:0:
305,240,158689,1,8,0:0:0:0:
305,240,159167,1,8,0:0:0:0:
305,240,159486,1,0,0:0:0:0:
305,240,159806,1,8,0:0:0:0:
305,240,160125,1,0,0:0:0:0:
305,240,160284,1,8,0:0:0:0:
305,240,160603,1,0,0:0:0:0:
305,240,160763,1,8,0:0:0:0:
305,240,161082,1,8,0:0:0:0:
305,240,161401,1,8,0:0:0:0:
305,240,161561,1,0,0:0:0:0:
305,240,161720,1,8,0:0:0:0:
305,240,162040,1,4,0:0:0:0:
305,240,162359,1,0,0:0:0:0:
305,240,162518,1,0,0:0:0:0:
305,240,162678,1,8,0:0:0:0:
305,240,162837,1,0,0:0:0:0:
305,240,163157,1,0,0:0:0:0:
305,240,163316,1,8,0:0:0:0:
305,240,163476,1,0,0:0:0:0:
305,240,163795,1,0,0:0:0:0:
305,240,163954,1,8,0:0:0:0:
305,240,164274,1,8,0:0:0:0:
305,240,164433,1,8,0:0:0:0:
305,240,164593,1,0,0:0:0:0:
305,240,164912,1,8,0:0:0:0:
305,240,165071,1,0,0:0:0:0:
305,240,165231,1,8,0:0:0:0:
305,240,165391,1,0,0:0:0:0:
305,240,165710,1,0,0:0:0:0:
305,240,165869,1,8,0:0:0:0:
295,245,166029,5,0,0:0:0:0:
305,240,166348,1,8,0:0:0:0:
305,240,166508,1,8,0:0:0:0:
294,229,166667,1,0,0:0:0:0:
305,240,166827,1,0,0:0:0:0:
294,229,167146,1,4,0:0:0:0:
294,229,167465,1,8,0:0:0:0:
295,256,167625,1,0,0:0:0:0:
294,229,167784,1,8,0:0:0:0:
294,229,167944,1,0,0:0:0:0:
295,256,168263,1,0,0:0:0:0:
295,256,168423,1,8,0:0:0:0:
295,256,168582,1,8,0:0:0:0:
295,256,168742,1,0,0:0:0:0:
295,256,168901,1,0,0:0:0:0:
295,256,169061,1,8,0:0:0:0:
295,256,169380,1,0,0:0:0:0:
295,256,169540,1,0,0:0:0:0:
295,256,169699,1,8,0:0:0:0:
295,256,169859,1,0,0:0:0:0:
295,256,170178,1,0,0:0:0:0:
295,256,170337,1,8,0:0:0:0:
302,273,170497,1,0,0:0:0:0:
303,281,170816,1,0,0:0:0:0:
303,281,170976,1,8,0:0:0:0:
303,281,171135,1,8,0:0:0:0:
303,281,171295,1,0,0:0:0:0:
303,281,171454,1,0,0:0:0:0:
303,281,171614,1,8,0:0:0:0:
303,281,171774,1,0,0:0:0:0:
303,281,171933,1,8,0:0:0:0:
303,281,172252,1,4,0:0:0:0:
289,250,177359,5,12,0:0:0:0:
289,250,179593,1,12,0:0:0:0:
289,250,182146,1,8,0:0:0:0:
289,250,182226,1,8,0:0:0:0:
289,250,182306,1,8,0:0:0:0:
289,250,182465,1,4,0:0:0:0:
382,253,182784,1,8,0:0:0:0:
382,253,183103,1,8,0:0:0:0:
382,253,183263,1,0,0:0:0:0:
382,253,183423,1,8,0:0:0:0:
295,247,183502,1,0,0:0:0:0:
382,253,183582,1,8,0:0:0:0:
382,253,183662,1,8,0:0:0:0:
382,253,183742,1,0,0:0:0:0:
382,253,183901,1,0,0:0:0:0:
382,253,184061,1,8,0:0:0:0:
382,253,184380,1,0,0:0:0:0:
382,253,184540,1,0,0:0:0:0:
382,253,184699,1,8,0:0:0:0:
382,253,184859,1,8,0:0:0:0:
382,253,185018,1,0,0:0:0:0:
360,236,185337,1,8,0:0:0:0:
360,236,185497,1,0,0:0:0:0:
314,169,185577,1,0,0:0:0:0:
314,169,185657,1,0,0:0:0:0:
360,236,185816,1,0,0:0:0:0:
360,236,185976,1,8,0:0:0:0:
360,236,186295,1,0,0:0:0:0:
360,236,186454,1,0,0:0:0:0:
360,236,186614,1,12,0:0:0:0:
360,236,186774,1,0,0:0:0:0:
360,236,186853,1,0,0:0:0:0:
360,236,186933,1,0,0:0:0:0:
360,236,187093,1,0,0:0:0:0:
360,236,187252,1,12,0:0:0:0:
368,255,187571,1,12,0:0:0:0:
382,253,187731,1,0,0:0:0:0:
382,253,187891,1,8,0:0:0:0:
382,253,188050,1,8,0:0:0:0:
360,236,188130,1,8,0:0:0:0:
382,253,188210,1,0,0:0:0:0:
360,236,188290,1,0,0:0:0:0:
382,253,188369,1,8,0:0:0:0:
369,246,188529,1,8,0:0:0:0:
369,246,188689,1,0,0:0:0:0:
383,270,189008,1,0,0:0:0:0:
382,253,189167,1,8,0:0:0:0:
382,253,189327,1,0,0:0:0:0:
369,246,189486,1,8,0:0:0:0:
369,246,189566,1,8,0:0:0:0:
382,253,189646,1,0,0:0:0:0:
382,253,189806,1,12,0:0:0:0:
382,253,190284,1,0,0:0:0:0:
382,253,190444,1,8,0:0:0:0:
382,253,190763,1,0,0:0:0:0:
382,253,190923,1,0,0:0:0:0:
382,253,191082,1,8,0:0:0:0:
382,253,191401,1,0,0:0:0:0:
355,223,191561,1,0,0:0:0:0:
382,253,191720,1,8,0:0:0:0:
382,253,191880,1,0,0:0:0:0:
382,253,192199,1,0,0:0:0:0:
382,253,192359,1,8,0:0:0:0:
382,253,192439,1,8,0:0:0:0:
382,253,192518,1,8,0:0:0:0:
382,253,192678,1,4,0:0:0:0:
382,253,192997,1,0,0:0:0:0:
382,253,193157,1,0,0:0:0:0:
382,253,193316,1,8,0:0:0:0:
382,253,193795,1,8,0:0:0:0:
382,253,193954,1,0,0:0:0:0:
382,253,194274,1,0,0:0:0:0:
382,253,194433,1,0,0:0:0:0:
382,253,194593,1,8,0:0:0:0:
382,253,194912,1,8,0:0:0:0:
355,223,195071,1,0,0:0:0:0:
355,223,195151,1,0,0:0:0:0:
382,253,195231,1,8,0:0:0:0:
382,253,195391,1,0,0:0:0:0:
382,253,195550,1,8,0:0:0:0:
382,253,195710,1,8,0:0:0:0:
368,246,195790,1,8,0:0:0:0:
382,253,195869,1,0,0:0:0:0:
370,253,196029,1,0,0:0:0:0:
370,253,196189,1,8,0:0:0:0:
382,253,196508,1,8,0:0:0:0:
382,253,196667,1,0,0:0:0:0:
382,253,196827,1,8,0:0:0:0:
382,253,196986,1,0,0:0:0:0:
372,244,197066,1,0,0:0:0:0:
382,253,197146,1,8,0:0:0:0:
382,253,197306,1,0,0:0:0:0:
382,253,197465,1,8,0:0:0:0:
372,244,197545,1,8,0:0:0:0:
372,244,197625,1,8,0:0:0:0:
368,255,197784,1,4,0:0:0:0:
382,253,197944,1,0,0:0:0:0:
382,253,198103,1,8,0:0:0:0:
382,253,198263,1,0,0:0:0:0:
382,253,198423,1,8,0:0:0:0:
382,253,198502,1,0,0:0:0:0:
382,253,198582,1,8,0:0:0:0:
388,246,198662,1,8,0:0:0:0:
382,253,198742,1,0,0:0:0:0:
382,253,198901,1,8,0:0:0:0:
382,253,199220,1,0,0:0:0:0:
382,253,199380,1,8,0:0:0:0:
382,253,199540,1,0,0:0:0:0:
382,253,199619,1,0,0:0:0:0:
382,253,199699,1,8,0:0:0:0:
382,253,199859,1,0,0:0:0:0:
382,253,200018,1,12,0:0:0:0:
382,253,200497,1,0,0:0:0:0:
382,253,200657,1,8,0:0:0:0:
382,253,200976,1,0,0:0:0:0:
382,253,201135,1,0,0:0:0:0:
382,253,201295,1,8,0:0:0:0:
382,253,201614,1,0,0:0:0:0:
379,222,201774,1,0,0:0:0:0:
382,253,201933,1,8,0:0:0:0:
382,253,202093,1,0,0:0:0:0:
382,253,202412,1,0,0:0:0:0:
382,253,202571,1,8,0:0:0:0:
382,253,202651,1,8,0:0:0:0:
382,253,202731,1,8,0:0:0:0:
382,253,202891,1,4,0:0:0:0:
382,253,203210,1,8,0:0:0:0:
382,253,203529,1,8,0:0:0:0:
382,253,203689,1,0,0:0:0:0:
382,253,203768,1,0,0:0:0:0:
382,253,203848,1,8,0:0:0:0:
388,246,204008,1,8,0:0:0:0:
388,246,204087,1,8,0:0:0:0:
382,253,204167,1,0,0:0:0:0:
382,253,204327,1,0,0:0:0:0:
382,253,204486,1,8,0:0:0:0:
382,253,204806,1,0,0:0:0:0:
382,253,204965,1,0,0:0:0:0:
382,253,205125,1,8,0:0:0:0:
382,253,205284,1,8,0:0:0:0:
382,253,205444,1,0,0:0:0:0:
379,222,205524,1,0,0:0:0:0:
379,222,205603,1,0,0:0:0:0:
360,236,205763,1,8,0:0:0:0:
360,236,205923,1,0,0:0:0:0:
360,236,206242,1,0,0:0:0:0:
360,236,206401,1,8,0:0:0:0:
360,236,206720,1,0,0:0:0:0:
360,236,206880,1,0,0:0:0:0:
360,236,207040,1,12,0:0:0:0:
360,236,207199,1,0,0:0:0:0:
360,236,207279,1,0,0:0:0:0:
360,236,207359,1,0,0:0:0:0:
360,236,207518,1,0,0:0:0:0:
360,236,207678,1,12,0:0:0:0:
368,255,207997,1,12,0:0:0:0:
382,253,208157,1,0,0:0:0:0:
382,253,208316,1,8,0:0:0:0:
382,253,208476,1,0,0:0:0:0:
360,236,208556,1,8,0:0:0:0:
382,253,208635,1,0,0:0:0:0:
379,222,208715,1,0,0:0:0:0:
382,253,208795,1,8,0:0:0:0:
369,246,208954,1,8,0:0:0:0:
369,246,209114,1,0,0:0:0:0:
394,248,209194,1,8,0:0:0:0:
394,248,209274,1,0,0:0:0:0:
382,253,209433,1,0,0:0:0:0:
382,253,209593,1,8,0:0:0:0:
382,253,209752,1,0,0:0:0:0:
369,246,209912,1,8,0:0:0:0:
369,246,209992,1,8,0:0:0:0:
382,253,210071,1,0,0:0:0:0:
382,253,210231,1,12,0:0:0:0:
382,253,210710,1,0,0:0:0:0:
382,253,210869,1,8,0:0:0:0:
382,253,211189,1,0,0:0:0:0:
382,253,211348,1,0,0:0:0:0:
382,253,211508,1,8,0:0:0:0:
382,253,211827,1,0,0:0:0:0:
363,228,211986,1,0,0:0:0:0:
382,253,212146,1,8,0:0:0:0:
382,253,212306,1,0,0:0:0:0:
382,253,212625,1,0,0:0:0:0:
382,253,212784,1,8,0:0:0:0:
382,253,212864,1,8,0:0:0:0:
382,253,212944,1,8,0:0:0:0:
382,253,213103,1,0,0:0:0:0:
382,253,213423,1,0,0:0:0:0:
382,253,213582,1,0,0:0:0:0:
382,253,213742,1,8,0:0:0:0:
382,253,214220,1,8,0:0:0:0:
382,253,214380,1,0,0:0:0:0:
382,253,214699,1,0,0:0:0:0:
382,253,214859,1,0,0:0:0:0:
382,253,215018,1,8,0:0:0:0:
382,253,215337,1,8,0:0:0:0:
382,253,215497,1,8,0:0:0:0:
382,253,215577,1,8,0:0:0:0:
382,253,215657,1,0,0:0:0:0:
382,253,215816,1,8,0:0:0:0:
382,253,215976,1,0,0:0:0:0:
382,253,216135,1,0,0:0:0:0:
382,253,216295,1,8,0:0:0:0:
382,253,216774,1,8,0:0:0:0:
382,253,216933,1,0,0:0:0:0:
382,253,217093,1,8,0:0:0:0:
382,253,217173,1,8,0:0:0:0:
382,253,217252,1,8,0:0:0:0:
382,253,217412,1,0,0:0:0:0:
382,253,217571,1,8,0:0:0:0:
382,253,217731,1,0,0:0:0:0:
363,228,217811,1,0,0:0:0:0:
382,253,217891,1,8,0:0:0:0:
382,253,218210,1,8,0:0:0:0:
382,253,218369,1,0,0:0:0:0:
382,253,218529,1,8,0:0:0:0:
363,228,218609,1,0,0:0:0:0:
382,253,218689,1,8,0:0:0:0:
382,253,218768,1,8,0:0:0:0:
382,253,218848,1,0,0:0:0:0:
382,253,219008,1,0,0:0:0:0:
382,253,219167,1,8,0:0:0:0:
382,253,219486,1,4,0:0:0:0:
382,253,219646,1,4,0:0:0:0:
382,253,219806,1,12,0:0:0:0:
382,253,219965,1,4,0:0:0:0:
389,255,220284,1,0,0:0:0:0:
389,255,220364,1,0,0:0:0:0:
389,255,220444,1,8,0:0:0:0:
346,132,220763,1,4,0:0:0:0:
346,132,221082,1,8,0:0:0:0:
346,132,221242,1,0,0:0:0:0:
346,132,221561,1,0,0:0:0:0:
346,132,221720,1,8,0:0:0:0:
346,132,221880,1,0,0:0:0:0:
346,132,221960,1,0,0:0:0:0:
346,132,222040,1,8,0:0:0:0:
346,132,222199,1,0,0:0:0:0:
346,132,222359,1,8,0:0:0:0:
346,132,222678,1,0,0:0:0:0:
346,132,222837,1,0,0:0:0:0:
346,132,222997,1,8,0:0:0:0:
363,228,223157,1,8,0:0:0:0:
346,132,223316,1,0,0:0:0:0:
346,132,223635,1,8,0:0:0:0:
368,255,223795,1,0,0:0:0:0:
346,132,223954,1,0,0:0:0:0:
346,132,224114,1,8,0:0:0:0:
335,225,224433,1,8,0:0:0:0:
335,225,224593,1,8,0:0:0:0:
335,225,224673,1,8,0:0:0:0:
335,225,224752,1,0,0:0:0:0:
363,228,224832,1,0,0:0:0:0:
335,225,224912,1,8,0:0:0:0:
335,225,225071,1,0,0:0:0:0:
349,244,225151,1,8,0:0:0:0:
349,244,225231,1,0,0:0:0:0:
349,244,225391,1,0,0:0:0:0:
349,244,225550,1,8,0:0:0:0:
349,244,225869,1,0,0:0:0:0:
368,255,226189,1,8,0:0:0:0:
368,255,226348,1,0,0:0:0:0:
368,255,226667,1,0,0:0:0:0:
368,255,226827,1,8,0:0:0:0:
368,255,226986,1,8,0:0:0:0:
368,255,227066,1,8,0:0:0:0:
368,255,227146,1,0,0:0:0:0:
368,255,227306,1,0,0:0:0:0:
368,255,227465,1,8,0:0:0:0:
368,255,227784,1,8,0:0:0:0:
368,255,227944,1,0,0:0:0:0:
368,255,228103,1,8,0:0:0:0:
368,255,228423,1,0,0:0:0:0:
368,255,228742,1,8,0:0:0:0:
368,255,228901,1,8,0:0:0:0:
368,255,229061,1,0,0:0:0:0:
368,255,229220,1,8,0:0:0:0:
368,255,229540,1,8,0:0:0:0:
368,255,229699,1,8,0:0:0:0:
368,255,229779,1,8,0:0:0:0:
368,255,229859,1,0,0:0:0:0:
299,193,229939,1,0,0:0:0:0:
368,255,230018,1,8,0:0:0:0:
368,255,230178,1,0,0:0:0:0:
368,255,230258,1,0,0:0:0:0:
368,255,230337,1,8,0:0:0:0:
368,255,230497,1,0,0:0:0:0:
368,255,230657,1,8,0:0:0:0:
368,255,230816,1,8,0:0:0:0:
368,255,230976,1,4,0:0:0:0:
256,192,231135,12,0,236082,0:0:0:0:
