osu file format v14

[General]
AudioFilename: audio.mp3
AudioLeadIn: 0
PreviewTime: 49056
Countdown: 0
SampleSet: Soft
StackLeniency: 0.6
Mode: 0
LetterboxInBreaks: 0
WidescreenStoryboard: 1

[Editor]
Bookmarks: 3456,14428,22656,25399,33628,36371,50085,70656,74771,85742,91914
DistanceSpacing: 0.5
BeatDivisor: 4
GridSize: 8
TimelineZoom: 1

[Metadata]
Title:Mizuiro Stage
TitleUnicode:水色ステージ
Artist:Marika
ArtistUnicode:真里歌
Creator:Log Off Now
Version:Swimming Club
Source:すぷらっしゅ!
Tags:Atelier Kaguya AiCherry Splash! opening eroge visual novel short version momochikun proezreal
BeatmapID:1257946
BeatmapSetID:594772

[Difficulty]
HPDrainRate:6
CircleSize:4
OverallDifficulty:8.2
ApproachRate:9
SliderMultiplier:1.6
SliderTickRate:1

[Events]
//Background and Video events
0,0,"splash.png",0,0
//Break Periods
//Storyboard Layer 0 (Background)
//Storyboard Layer 1 (Fail)
//Storyboard Layer 2 (Pass)
//Storyboard Layer 3 (Foreground)
//Storyboard Sound Samples

[TimingPoints]
714,342.857142857143,4,2,1,40,1,0
3456,-90.9090909090909,4,2,1,50,0,0
14428,-111.111111111111,4,2,1,45,0,0
22656,-90.9090909090909,4,2,1,45,0,0
25399,-111.111111111111,4,2,1,45,0,0
33628,-90.9090909090909,4,2,1,45,0,0
36371,-100,4,2,1,50,0,0
50085,-83.3333333333333,4,2,1,60,0,1
74771,-90.9090909090909,4,2,1,50,0,0
87114,-90.9090909090909,4,2,1,40,0,0
88485,-90.9090909090909,4,2,1,30,0,0
89171,-100,4,2,1,25,0,0
89856,-100,4,2,1,20,0,0
90542,-100,4,2,1,15,0,0
91228,-100,4,2,1,10,0,0
91914,-100,4,2,1,5,0,0

[Colours]
Combo1 : 250,216,97
Combo2 : 126,248,109
Combo3 : 133,156,250
Combo4 : 247,100,122

[HitObjects]
128,192,713,5,2,0:3:0:0:
132,207,1056,5,2,0:3:0:0:
136,222,1399,5,12,0:0:0:0:
154,345,1571,1,0,0:0:0:0:
240,224,1742,1,8,0:0:0:0:
240,224,1828,1,8,0:0:0:0:
240,224,1914,6,0,L|232:64,1,160,4|8,0:2|0:0,0:0:0:0:
315,168,2428,1,8,0:3:0:0:
158,104,2599,2,0,P|77:79|-1:122,1,160,4|8,0:2|0:0,0:0:0:0:
93,241,3114,1,8,0:0:0:0:
90,213,3199,1,8,0:0:0:0:
88,185,3285,1,8,0:3:0:0:
21,313,3456,6,0,P|91:343|179:295,1,176.000005371094,6|8,0:2|0:0,0:0:0:0:
245,175,3971,1,2,0:0:0:0:
319,299,4142,2,0,L|313:386,1,88.000002685547,2|0,0:2|0:2,0:0:0:0:
233,249,4485,2,0,L|227:161,1,88.000002685547,10|0,0:0|0:0,0:0:0:0:
293,45,4828,6,0,P|369:34|433:112,1,176.000005371094,2|8,0:0|0:0,0:0:0:0:
363,278,5342,2,0,B|325:241|325:241|344:119,1,176.000005371094,2|0,0:0|0:0,0:0:0:0:
449,237,5856,2,0,P|457:289|440:336,1,88.000002685547,10|0,0:0|0:0,0:0:0:0:
371,376,6114,1,8,0:0:0:0:
371,376,6199,6,0,B|282:399|282:337|193:370,1,176.000005371094,2|8,0:0|0:0,0:0:0:0:
64,384,6714,1,2,0:0:0:0:
123,240,6885,2,0,L|129:344,1,88.000002685547,2|0,0:0|0:0,0:0:0:0:
41,231,7228,2,0,L|47:127,1,88.000002685547,10|0,0:0|0:0,0:0:0:0:
187,6,7571,6,0,L|198:205,1,176.000005371094,2|8,0:0|0:0,0:0:0:0:
299,249,8085,2,0,L|312:58,1,176.000005371094,2|0,0:0|0:0,0:0:0:0:
196,181,8599,1,10,0:0:0:0:
315,274,8771,1,0,0:2:0:0:
315,274,8856,1,8,0:0:0:0:
315,274,8942,6,0,L|323:169,1,88.000002685547,6|0,0:0|0:0,0:0:0:0:
332,55,9285,1,8,0:0:0:0:
165,136,9456,2,0,P|203:164|247:176,1,88.000002685547,2|0,0:0|0:2,0:0:0:0:
256,51,9799,1,0,0:2:0:0:
110,66,9971,2,0,B|84:100|84:100|96:270,1,176.000005371094,10|0,0:0|0:0,0:0:0:0:
109,373,10485,5,0,0:0:0:0:
180,278,10656,1,8,0:0:0:0:
282,349,10828,1,0,0:0:0:0:
279,164,10999,2,0,L|275:71,1,88.000002685547,2|0,0:0|0:0,0:0:0:0:
157,159,11342,2,0,L|160:249,1,88.000002685547,10|0,0:0|0:0,0:0:0:0:
168,352,11599,1,8,0:0:0:0:
168,352,11685,6,0,B|248:328|248:391|342:367,2,176.000005371094,6|8|0,0:0|0:0|0:0,0:0:0:0:
260,243,12542,1,0,0:0:0:0:
369,295,12714,1,8,0:0:0:0:
366,322,12799,1,8,0:0:0:0:
363,350,12885,1,4,0:3:0:0:
419,193,13056,5,6,0:0:0:0:
279,318,13228,1,8,0:0:0:0:
450,371,13399,1,8,0:3:0:0:
339,218,13571,6,0,B|330:174|330:174|341:122,1,88.000002685547,4|0,0:0|0:0,0:0:0:0:
409,29,13914,1,8,0:0:0:0:
499,160,14085,1,8,0:0:0:0:
495,195,14171,1,8,0:0:0:0:
492,231,14256,1,8,0:3:0:0:
398,350,14428,6,0,L|394:262,1,71.9999978027344,4|0,0:0|0:0,0:0:0:0:
384,161,14771,1,8,0:0:0:0:
304,267,14942,1,0,0:0:0:0:
244,166,15114,1,0,0:0:0:0:
390,257,15285,2,0,P|430:264|473:252,1,71.9999978027344,0|8,0:0|0:0,0:0:0:0:
384,161,15628,6,0,B|316:141|316:196|243:166,1,143.999995605469
142,77,16142,2,0,P|182:70|229:81,1,71.9999978027344,8|0,0:0|0:0,0:0:0:0:
157,179,16485,2,0,P|125:182|82:172,1,71.9999978027344
42,87,16828,2,0,L|38:12,1,71.9999978027344,8|0,0:0|0:0,0:0:0:0:
156,95,17171,6,0,B|172:141|172:141|157:240,1,143.999995605469,2|8,0:0|0:0,0:0:0:0:
138,351,17685,1,0,0:0:0:0:
263,275,17856,2,0,L|257:203,1,71.9999978027344,0|0,0:0|0:0,0:0:0:0:
144,323,18199,1,8,0:0:0:0:
161,214,18371,1,0,0:0:0:0:
230,356,18542,6,0,P|281:362|348:293,1,143.999995605469,0|8,0:0|0:0,0:0:0:0:
363,163,19056,1,0,0:0:0:0:
428,283,19228,1,0,0:0:0:0:
295,228,19399,2,0,P|256:226|224:232,1,71.9999978027344,2|8,0:3|0:0,0:0:0:0:
118,311,19742,1,0,0:0:0:0:
118,311,19828,1,0,0:0:0:0:
118,311,19914,6,0,L|121:239,1,71.9999978027344,2|0,0:0|0:0,0:0:0:0:
124,118,20256,1,8,0:0:0:0:
11,223,20428,1,0,0:0:0:0:
14,119,20599,1,0,0:0:0:0:
126,207,20771,2,0,P|161:211|197:206,1,71.9999978027344,0|8,0:0|0:0,0:0:0:0:
288,135,21114,6,0,P|311:187|290:275,1,143.999995605469
183,351,21628,2,0,L|176:278,1,71.9999978027344,8|0,0:0|0:0,0:0:0:0:
97,212,21971,2,0,L|90:285,1,71.9999978027344,0|0,0:0|0:0,0:0:0:0:
189,197,22314,2,0,L|182:124,1,71.9999978027344,8|0,0:0|0:0,0:0:0:0:
168,7,22656,5,2,0:0:0:0:
262,111,22828,1,2,0:0:0:0:
70,80,22999,2,0,L|84:227,1,132.00000402832,12|0,0:0|0:0,0:0:0:0:
86,233,23342,5,2,0:0:0:0:
182,125,23514,1,2,0:0:0:0:
215,286,23685,2,0,P|258:310|315:231,1,132.00000402832,12|0,0:0|0:0,0:0:0:0:
325,245,24028,5,0,0:0:0:0:
196,152,24199,1,8,0:0:0:0:
325,79,24371,1,8,0:0:0:0:
262,206,24542,1,8,0:0:0:0:
262,206,24628,1,8,0:0:0:0:
262,206,24714,1,8,0:0:0:0:
175,70,24885,5,8,0:0:0:0:
309,62,25056,1,8,0:0:0:0:
339,67,25142,1,8,0:0:0:0:
369,72,25228,1,4,0:3:0:0:
196,152,25399,6,0,L|106:137,1,71.9999978027344,6|0,0:0|0:0,0:0:0:0:
30,63,25742,2,0,L|120:48,1,71.9999978027344,8|0,0:0|0:0,0:0:0:0:
208,35,26085,1,0,0:0:0:0:
217,157,26256,2,0,P|213:198|222:243,1,71.9999978027344,0|8,0:0|0:0,0:0:0:0:
323,297,26599,6,0,B|345:225|296:225|320:157,1,143.999995605469
380,61,27114,2,0,P|429:54|467:69,1,71.9999978027344,8|0,0:0|0:0,0:0:0:0:
415,159,27456,2,0,P|379:165|344:157,1,71.9999978027344,0|0,0:0|0:0,0:0:0:0:
256,103,27799,2,0,P|207:96|169:111,1,71.9999978027344,8|0,0:0|0:0,0:0:0:0:
92,176,28142,6,0,B|76:222|76:222|91:321,1,143.999995605469,2|8,0:0|0:0,0:0:0:0:
186,234,28656,1,0,0:0:0:0:
81,150,28828,2,0,P|35:144|-13:156,1,71.9999978027344
102,227,29171,1,8,0:0:0:0:
153,99,29342,1,0,0:0:0:0:
278,150,29514,6,0,B|300:222|251:222|275:290,1,143.999995605469,0|8,0:0|0:0,0:0:0:0:
364,383,30028,1,0,0:0:0:0:
236,369,30199,1,0,0:0:0:0:
357,296,30371,2,0,L|443:302,1,71.9999978027344,2|8,0:3|0:0,0:0:0:0:
354,201,30714,1,0,0:0:0:0:
354,201,30799,1,8,0:0:0:0:
354,201,30885,6,0,L|276:207,1,71.9999978027344,2|0,0:0|0:0,0:0:0:0:
208,306,31228,2,0,L|294:312,1,71.9999978027344,8|0,0:0|0:0,0:0:0:0:
404,321,31571,1,0,0:0:0:0:
354,201,31742,2,0,P|348:165|353:129,1,71.9999978027344,0|8,0:0|0:0,0:0:0:0:
421,24,32085,6,0,P|361:5|268:41,1,143.999995605469,0|0,0:0|0:0,0:0:0:0:
214,139,32599,2,0,L|221:234,1,71.9999978027344,8|0,0:0|0:0,0:0:0:0:
344,243,32942,2,0,L|351:148,1,71.9999978027344
285,47,33285,1,8,0:0:0:0:
227,175,33456,1,0,0:0:0:0:
227,175,33542,1,8,0:0:0:0:
227,175,33628,5,2,0:0:0:0:
353,143,33799,1,2,0:0:0:0:
199,57,33971,2,0,L|52:71,1,132.00000402832,12|8,0:0|0:0,0:0:0:0:
43,74,34314,5,2,0:0:0:0:
124,196,34485,1,2,0:0:0:0:
276,92,34656,2,0,P|345:92|360:137,1,88.000002685547,12|0,0:0|0:0,0:0:0:0:
359,126,34914,1,8,0:0:0:0:
364,156,34999,5,4,0:0:0:0:
160,257,35171,1,8,0:0:0:0:
189,119,35342,1,8,0:0:0:0:
290,279,35514,1,8,0:0:0:0:
290,279,35599,1,8,0:0:0:0:
290,279,35685,1,8,0:0:0:0:
364,156,35856,5,8,0:0:0:0:
189,119,36028,1,12,0:0:0:0:
159,124,36114,1,8,0:0:0:0:
129,129,36199,1,4,0:3:0:0:
24,230,36371,6,0,L|160:248,1,120,4|0,0:0|0:0,0:0:0:0:
171,250,36714,2,0,B|192:305|155:340,1,80,8|0,0:0|0:0,0:0:0:0:
153,346,36971,1,8,0:0:0:0:
134,360,37056,1,0,0:0:0:0:
277,299,37228,2,0,L|272:214,1,80
383,83,37571,6,0,L|372:267,1,160,8|0,0:0|0:0,0:0:0:0:
286,121,38085,2,0,L|281:36,1,80,8|0,0:0|0:0,0:0:0:0:
403,111,38428,2,0,L|400:172,2,40,0|8|0,0:0|0:0|0:0,0:0:0:0:
261,116,38771,2,0,B|216:101|181:118,1,80,8|0,0:0|0:0,0:0:0:0:
161,127,39028,1,8,0:0:0:0:
140,139,39114,6,0,P|95:153|58:80,1,120,4|0,0:0|0:0,0:0:0:0:
33,125,39456,2,0,L|37:204,1,80,8|0,0:0|0:0,0:0:0:0:
39,229,39714,1,8,0:0:0:0:
40,252,39799,1,0,0:0:0:0:
151,351,39971,2,0,L|155:272,1,80,0|0,0:0|0:0,0:0:0:0:
278,158,40314,6,0,L|289:342,1,160,8|0,0:0|0:0,0:0:0:0:
364,209,40828,1,8,0:0:0:0:
199,157,40999,1,0,0:0:0:0:
366,105,41171,1,0,0:3:0:0:
396,110,41256,1,8,0:0:0:0:
426,115,41342,1,0,0:0:0:0:
283,25,41514,1,8,0:0:0:0:
253,30,41600,1,8,0:0:0:0:
223,35,41685,1,8,0:3:0:0:
278,232,41856,6,0,L|287:80,1,120,4|0,0:0|0:0,0:0:0:0:
305,124,42199,2,0,B|343:149|390:123,1,80,8|0,0:0|0:0,0:0:0:0:
402,116,42456,1,8,0:0:0:0:
411,94,42541,1,0,0:0:0:0:
468,212,42714,2,0,L|462:301,1,80,0|0,0:0|0:0,0:0:0:0:
307,381,43056,6,0,L|296:197,1,160,8|0,0:0|0:0,0:0:0:0:
176,120,43571,2,0,L|170:209,1,80,8|0,0:0|0:0,0:0:0:0:
163,352,43914,1,0,0:0:0:0:
163,352,43999,1,8,0:0:0:0:
163,352,44085,1,0,0:0:0:0:
40,255,44256,1,8,0:0:0:0:
194,205,44428,1,0,0:3:0:0:
224,210,44514,1,8,0:0:0:0:
251,214,44599,6,0,B|325:232|325:185|408:209,1,160,4|8,0:0|0:0,0:0:0:0:
370,331,45114,1,0,0:0:0:0:
370,331,45199,1,8,0:0:0:0:
370,331,45285,1,0,0:0:0:0:
251,214,45456,2,0,L|245:303,1,80
131,108,45799,6,0,L|140:267,1,160,8|0,0:0|0:0,0:0:0:0:
216,132,46314,1,8,0:0:0:0:
50,203,46485,1,0,0:0:0:0:
238,215,46656,1,8,0:0:0:0:
268,220,46741,1,8,0:0:0:0:
298,225,46827,1,8,0:0:0:0:
138,112,46999,1,8,0:0:0:0:
108,117,47085,1,8,0:0:0:0:
78,122,47170,1,8,0:3:0:0:
211,12,47341,6,0,L|217:164,1,120,4|0,0:0|0:0,0:0:0:0:
218,164,47684,1,8,0:0:0:0:
296,55,47856,1,0,0:0:0:0:
296,55,47941,1,8,0:0:0:0:
296,55,48027,1,0,0:0:0:0:
138,112,48200,1,0,0:0:0:0:
296,180,48370,1,8,0:0:0:0:
118,104,48542,1,0,0:0:0:0:
180,309,48714,5,12,0:0:0:0:
319,153,48885,1,12,0:0:0:0:
217,199,49056,1,0,0:0:0:0:
415,298,49228,1,12,0:0:0:0:
369,222,49399,1,0,0:0:0:0:
271,370,49570,1,12,0:0:0:0:
442,177,49743,5,8,0:0:0:0:
440,141,49828,1,8,0:0:0:0:
438,105,49914,1,8,0:0:0:0:
437,69,50000,1,8,0:0:0:0:
435,33,50085,6,0,P|369:19|315:41,1,95.9999970703126,4|0,0:0|0:0,0:0:0:0:
217,115,50428,2,0,P|264:121|309:107,1,95.9999970703126,10|0,0:0|0:0,0:0:0:0:
131,14,50771,2,0,L|141:116,1,95.9999970703126,2|0,0:0|0:0,0:0:0:0:
155,260,51114,1,10,0:0:0:0:
272,170,51285,6,0,P|336:145|430:220,1,191.999994140625,2|0,0:0|0:0,0:0:0:0:
328,336,51799,2,0,L|337:241,1,95.9999970703126,8|0,0:0|0:0,0:0:0:0:
416,111,52142,2,0,P|354:144|296:128,1,95.9999970703126,2|0,0:0|0:0,0:0:0:0:
304,136,52399,1,0,0:0:0:0:
286,124,52485,1,8,0:0:0:0:
213,265,52656,1,0,0:0:0:0:
166,117,52828,6,0,P|92:84|23:120,1,143.999995605469,2|0,0:0|0:0,0:0:0:0:
11,129,53171,1,10,0:0:0:0:
105,269,53342,2,0,L|96:174,1,95.9999970703126,2|0,0:0|0:0,0:0:0:0:
20,33,53685,2,0,L|11:128,1,95.9999970703126,2|8,0:0|0:0,0:0:0:0:
24,276,54028,6,0,P|121:291|204:211,1,191.999994140625,2|0,0:0|0:0,0:0:0:0:
287,123,54542,2,0,L|278:218,1,95.9999970703126,10|0,0:0|0:0,0:0:0:0:
188,106,54885,1,2,0:0:0:0:
188,106,54971,1,8,0:0:0:0:
188,106,55056,1,0,0:0:0:0:
304,21,55228,2,0,P|350:12|407:26,1,95.9999970703126,10|2,0:0|0:0,0:0:0:0:
474,105,55485,1,8,0:0:0:0:
474,105,55571,6,0,B|499:198|426:198|463:298,1,191.999994140625,4|8,0:0|0:0,0:0:0:0:
340,262,56085,1,0,0:0:0:0:
379,143,56256,2,0,P|317:115|264:146,1,95.9999970703126,2|0,0:0|0:0,0:0:0:0:
267,135,56514,1,0,0:0:0:0:
267,167,56599,1,8,0:0:0:0:
302,352,56771,1,0,0:0:0:0:
408,242,56942,6,0,B|315:217|315:290|215:253,1,191.999994140625,2|8,0:0|0:0,0:0:0:0:
74,208,57456,2,0,L|82:308,1,95.9999970703126
85,334,57714,1,0,0:0:0:0:
88,360,57799,1,0,0:0:0:0:
141,152,57971,1,10,0:0:0:0:
0,269,58142,1,2,0:0:0:0:
191,234,58314,6,0,P|229:191|222:101,1,143.999995605469,2|0,0:0|0:0,0:0:0:0:
198,89,58656,1,10,0:0:0:0:
92,210,58828,2,0,L|99:308,1,95.9999970703126,2|0,0:0|0:0,0:0:0:0:
220,219,59171,2,0,P|272:197|332:209,1,95.9999970703126,2|8,0:0|0:0,0:0:0:0:
431,333,59514,6,0,B|464:294|464:294|451:168,1,143.999995605469,6|0,0:0|0:0,0:0:0:0:
451,169,59856,1,8,0:0:0:0:
354,337,60028,1,10,0:0:0:0:
306,238,60199,1,0,0:0:0:0:
464,294,60371,1,10,0:0:0:0:
341,353,60542,1,0,0:0:0:0:
357,164,60714,1,14,0:0:0:0:
359,125,60800,1,8,0:0:0:0:
362,87,60885,1,8,0:3:0:0:
428,248,61056,6,0,P|354:276|275:236,1,143.999995605469,4|0,0:0|0:0,0:0:0:0:
268,239,61399,1,8,0:0:0:0:
102,272,61571,1,0,0:0:0:0:
175,111,61742,2,0,L|184:227,1,95.9999970703126,2|0,0:0|0:0,0:0:0:0:
196,364,62085,1,10,0:0:0:0:
301,233,62256,6,0,B|385:196|394:271|487:246,1,191.999994140625,2|0,0:0|0:0,0:0:0:0:
343,319,62771,2,0,P|284:327|245:311,1,95.9999970703126,8|0,0:0|0:0,0:0:0:0:
163,206,63114,2,0,P|208:192|255:201,1,95.9999970703126,2|0,0:0|0:0,0:0:0:0:
281,213,63371,1,0,0:0:0:0:
301,233,63456,1,10,0:0:0:0:
133,223,63628,1,0,0:0:0:0:
240,32,63799,6,0,P|295:12|371:49,1,143.999995605469,2|0,0:0|0:0,0:0:0:0:
384,76,64142,1,10,0:0:0:0:
300,199,64314,2,0,P|241:214|194:198,1,95.9999970703126,2|0,0:0|0:0,0:0:0:0:
79,94,64656,2,0,L|84:191,1,95.9999970703126,2|8,0:0|0:0,0:0:0:0:
183,293,64999,2,0,L|188:196,1,95.9999970703126,2|0,0:0|0:0,0:0:0:0:
191,65,65342,5,0,0:0:0:0:
289,184,65514,2,0,P|336:195|381:177,1,95.9999970703126,10|0,0:0|0:0,0:0:0:0:
480,66,65856,1,2,0:0:0:0:
325,18,66028,2,0,L|330:113,1,95.9999970703126,2|8,0:0|0:0,0:0:0:0:
347,283,66370,1,2,0:0:0:0:
347,283,66456,1,8,0:0:0:0:
347,283,66542,6,0,P|295:261|197:282,1,143.999995605469,4|0,0:0|0:0,0:0:0:0:
183,292,66885,2,0,L|187:196,1,95.9999970703126,10|0,0:0|0:0,0:0:0:0:
189,53,67228,1,2,0:0:0:0:
113,166,67399,1,2,0:0:0:0:
275,119,67571,1,8,0:0:0:0:
90,176,67742,6,0,P|56:255|118:334,1,191.999994140625,6|0,0:0|0:0,0:0:0:0:
240,231,68256,2,0,L|235:135,1,95.9999970703126,8|0,0:0|0:0,0:0:0:0:
228,8,68599,1,0,0:0:0:0:
314,111,68771,1,0,0:0:0:0:
169,74,68942,2,0,P|118:69|62:82,1,95.9999970703126,10|0,0:0|0:0,0:0:0:0:
14,162,69199,1,8,0:0:0:0:
14,162,69285,6,0,P|36:214|21:314,1,143.999995605469,6|0,0:0|0:0,0:0:0:0:
14,330,69628,1,10,0:0:0:0:
149,259,69799,1,2,0:0:0:0:
149,259,69885,1,8,0:0:0:0:
149,259,69970,1,0,0:0:0:0:
114,374,70142,1,2,0:0:0:0:
64,237,70313,1,8,0:0:0:0:
66,198,70399,1,8,0:0:0:0:
69,160,70485,1,8,0:3:0:0:
84,17,70656,5,12,0:0:0:0:
261,342,70999,1,12,0:0:0:0:
261,342,71342,5,10,0:0:0:0:
368,214,71514,1,0,0:0:0:0:
198,265,71685,1,10,0:0:0:0:
160,277,71771,1,8,0:0:0:0:
124,287,71857,1,8,0:3:0:0:
261,342,72028,6,0,P|294:290|237:173,1,191.999994140625,6|8,0:0|0:0,0:0:0:0:
111,119,72542,1,2,0:0:0:0:
111,119,72628,1,8,0:0:0:0:
111,119,72714,1,0,0:0:0:0:
244,67,72885,1,0,0:0:0:0:
154,199,73056,1,8,0:0:0:0:
133,232,73142,1,8,0:0:0:0:
112,263,73228,1,8,0:0:0:0:
188,129,73399,5,12,0:0:0:0:
167,320,73571,1,0,0:0:0:0:
271,147,73742,5,8,0:0:0:0:
282,320,73913,1,0,0:0:0:0:
352,149,74085,5,8,0:0:0:0:
388,298,74256,1,0,0:0:0:0:
430,138,74427,5,8,0:0:0:0:
483,260,74599,1,0,0:0:0:0:
331,129,74771,6,0,P|284:106|166:135,1,176.000005371094,6|8,0:0|0:0,0:0:0:0:
98,257,75285,1,2,0:0:0:0:
58,126,75456,2,0,L|66:25,1,88.000002685547,2|0,0:0|0:0,0:0:0:0:
172,161,75799,2,0,L|178:248,1,88.000002685547,10|0,0:0|0:0,0:0:0:0:
272,359,76142,6,0,P|332:381|429:299,1,176.000005371094,2|8,0:0|0:0,0:0:0:0:
351,119,76656,2,0,B|313:156|313:156|332:278,1,176.000005371094,2|0,0:0|0:0,0:0:0:0:
443,155,77171,2,0,P|449:108|433:63,1,88.000002685547,10|0,0:0|0:0,0:0:0:0:
356,31,77428,1,8,0:0:0:0:
356,31,77514,6,0,B|267:8|267:70|178:37,1,176.000005371094,2|8,0:0|0:0,0:0:0:0:
34,12,78028,1,2,0:0:0:0:
138,130,78199,1,2,0:0:0:0:
86,70,78371,1,0,0:0:0:0:
25,181,78542,2,0,L|33:280,1,88.000002685547,10|0,0:0|0:0,0:0:0:0:
149,380,78885,6,0,L|162:204,1,176.000005371094,2|8,0:0|0:0,0:0:0:0:
259,103,79399,2,0,L|272:278,1,176.000005371094,2|0,0:0|0:0,0:0:0:0:
366,379,79914,1,10,0:0:0:0:
399,246,80085,1,0,0:0:0:0:
399,246,80170,1,8,0:0:0:0:
399,246,80256,6,0,L|392:154,1,88.000002685547,6|0,0:0|0:0,0:0:0:0:
381,29,80599,1,8,0:0:0:0:
281,111,80771,2,0,P|234:129|175:112,1,88.000002685547,2|0,0:0|0:0,0:0:0:0:
108,40,81114,1,0,0:0:0:0:
53,156,81285,2,0,L|56:243,1,88.000002685547,10|0,0:0|0:0,0:0:0:0:
63,376,81628,5,0,0:0:0:0:
133,263,81799,1,0,0:0:0:0:
12,312,81971,1,8,0:0:0:0:
139,346,82142,1,0,0:0:0:0:
214,242,82314,2,0,L|210:154,1,88.000002685547,2|0,0:0|0:0,0:0:0:0:
83,88,82656,2,0,L|86:175,1,88.000002685547,10|0,0:0|0:0,0:0:0:0:
123,286,82914,1,8,0:0:0:0:
123,286,82999,6,0,P|182:340|281:323,1,176.000005371094,6|8,0:0|0:0,0:0:0:0:
388,245,83514,1,0,0:0:0:0:
346,377,83685,1,0,0:0:0:0:
298,244,83856,1,0,0:0:0:0:
414,321,84028,1,8,0:0:0:0:
447,330,84114,1,8,0:0:0:0:
482,325,84199,1,8,0:3:0:0:
498,147,84371,5,6,0:0:0:0:
375,257,84542,1,8,0:0:0:0:
420,82,84714,1,8,0:0:0:0:
488,236,84885,2,0,L|480:339,1,88.000002685547,4|0,0:0|0:0,0:0:0:0:
327,366,85228,1,8,0:0:0:0:
416,186,85399,5,8,0:0:0:0:
412,225,85484,1,8,0:0:0:0:
409,264,85570,1,4,0:3:0:0:
406,304,85656,1,4,0:3:0:0:
403,343,85741,1,4,0:0:0:0:
256,192,85828,12,0,91914,0:0:0:0:
