osu file format v14

[General]
AudioFilename: audio.mp3
AudioLeadIn: 0
PreviewTime: 49056
Countdown: 0
SampleSet: Soft
StackLeniency: 0.3
Mode: 0
LetterboxInBreaks: 0
WidescreenStoryboard: 0

[Editor]
Bookmarks: 3456,14428,22656,25399,33628,36371,50085,70656,74771,85742,91914
DistanceSpacing: 1.2
BeatDivisor: 4
GridSize: 16
TimelineZoom: 1

[Metadata]
Title:Mizuiro Stage
TitleUnicode:水色ステージ
Artist:Marika
ArtistUnicode:真里歌
Creator:Log Off Now
Version:Mochi's Hard
Source:すぷらっしゅ!
Tags:Atelier Kaguya AiCherry Splash! opening eroge visual novel short version momochikun proezreal
BeatmapID:1267609
BeatmapSetID:594772

[Difficulty]
HPDrainRate:5.5
CircleSize:4
OverallDifficulty:6
ApproachRate:7.2
SliderMultiplier:1.4
SliderTickRate:1

[Events]
//Background and Video events
0,0,"splash.png",0,0
//Break Periods
//Storyboard Layer 0 (Background)
//Storyboard Layer 1 (Fail)
//Storyboard Layer 2 (Pass)
//Storyboard Layer 3 (Foreground)
//Storyboard Sound Samples

[TimingPoints]
714,342.857142857143,4,2,1,40,1,0
3456,-100,4,2,1,50,0,1
3542,-100,4,2,1,50,0,0
14428,-100,4,2,1,45,0,0
22656,-100,4,2,1,45,0,0
25399,-100,4,2,1,45,0,0
33628,-100,4,2,1,45,0,0
36371,-100,4,2,1,50,0,0
49399,-100,4,2,1,45,0,0
50085,-100,4,2,1,55,0,1
59856,-100,4,2,1,50,0,1
60885,-100,4,2,1,50,0,0
61056,-100,4,2,1,55,0,1
74599,-100,4,2,1,50,0,0
74771,-100,4,2,1,50,0,1
74856,-100,4,2,1,50,0,0
87114,-100,4,2,1,40,0,0
88485,-100,4,2,1,30,0,0
89171,-100,4,2,1,25,0,0
89856,-100,4,2,1,20,0,0
90542,-100,4,2,1,15,0,0
91228,-100,4,2,1,10,0,0
91914,-100,4,2,1,5,0,0

[Colours]
Combo1 : 250,216,97
Combo2 : 126,248,109
Combo3 : 133,156,250
Combo4 : 247,100,122

[HitObjects]
256,304,713,5,2,0:0:0:0:
256,304,1056,1,2,0:0:0:0:
256,304,1399,1,4,0:0:0:0:
324,229,1571,1,8,0:0:0:0:
209,178,1742,5,8,0:0:0:0:
209,178,1828,1,8,0:0:0:0:
209,178,1914,2,0,P|140:202|60:218,1,140,4|8,0:0|0:0,0:0:0:0:
12,147,2428,1,8,0:0:0:0:
81,64,2599,2,0,B|138:39|166:86|227:57,1,140,4|8,0:0|0:0,0:0:0:0:
309,43,3114,2,0,P|321:6|330:-18,2,35,8|8|8,0:0|0:0|0:3,0:0:0:0:
366,148,3456,6,0,B|417:184|470:163|470:163|509:196,1,140,4|8,0:2|0:0,0:0:0:0:
465,266,3971,2,0,P|429:274|394:284,1,70,2|0,0:0|0:0,0:0:0:0:
331,334,4314,1,0,0:0:0:0:
249,315,4485,2,0,P|234:281|238:243,1,70,10|0,0:0|0:0,0:0:0:0:
256,167,4828,6,0,P|193:159|122:199,1,140,2|8,0:0|0:0,0:0:0:0:
115,276,5342,2,0,L|125:345,1,70,2|0,0:0|0:0,0:0:0:0:
28,288,5685,1,0,0:0:0:0:
41,191,5856,2,0,L|54:109,1,70,10|0,0:0|0:0,0:0:0:0:
73,99,6114,5,8,0:0:0:0:
73,99,6199,2,0,P|145:89|222:67,1,140,2|8,0:0|0:0,0:0:0:0:
302,41,6714,2,0,P|321:71|322:110,1,70,2|0,0:0|0:2,0:0:0:0:
250,231,7056,1,0,0:2:0:0:
250,231,7228,2,0,P|231:201|230:162,1,70,10|0,0:0|0:2,0:0:0:0:
323,104,7571,6,0,P|392:93|462:137,1,140,2|8,0:0|0:0,0:0:0:0:
510,234,8085,2,0,P|447:218|370:191,1,140,2|0,0:0|0:0,0:0:0:0:
293,208,8599,1,10,0:0:0:0:
256,80,8771,5,0,0:0:0:0:
256,80,8856,1,8,0:0:0:0:
256,80,8942,2,0,P|184:63|115:99,1,140,4|8,0:0|0:0,0:0:0:0:
85,162,9456,2,0,P|72:203|81:245,1,70,2|0,0:0|0:2,0:0:0:0:
109,313,9799,1,0,0:2:0:0:
200,369,9971,6,0,P|254:326|259:255,1,140,10|0,0:0|0:0,0:0:0:0:
316,188,10485,1,0,0:2:0:0:
316,188,10656,2,0,P|363:174|395:166,1,70,8|0,0:0|0:0,0:0:0:0:
454,98,10999,2,0,P|420:89|386:78,1,70,2|0,0:0|0:0,0:0:0:0:
313,37,11342,1,10,0:0:0:0:
240,128,11514,5,0,0:0:0:0:
240,128,11599,1,8,0:0:0:0:
240,128,11685,2,0,B|199:143|199:143|170:133|170:133|130:153|97:144,2,140,4|8|0,0:0|0:0|0:0,0:0:0:0:
315,174,12542,1,0,0:0:0:0:
361,100,12714,2,0,L|371:56,2,35,8|8|4,0:0|0:0|0:3,0:0:0:0:
450,157,13056,5,4,0:0:0:0:
506,219,13228,1,8,0:0:0:0:
462,292,13399,1,8,0:0:0:0:
367,258,13571,2,0,P|305:226|215:242,1,140,4|8,0:0|0:0,0:0:0:0:
165,290,14085,1,8,0:0:0:0:
165,290,14171,1,8,0:0:0:0:
165,290,14256,1,8,0:3:0:0:
93,196,14428,5,4,0:0:0:0:
93,196,14771,2,0,P|77:159|71:116,1,70,8|0,0:0|0:0,0:0:0:0:
153,33,15114,2,0,P|169:70|175:113,1,70
218,178,15456,1,8,0:0:0:0:
292,137,15628,6,0,P|356:102|421:120,1,140
348,248,16142,2,0,P|352:203|368:179,1,70,8|0,0:0|0:0,0:0:0:0:
473,246,16485,2,0,P|469:291|453:315,1,70
381,350,16828,1,8,0:0:0:0:
250,242,17171,6,0,B|197:273|165:228|116:269,1,140,0|8,0:0|0:0,0:0:0:0:
54,344,17685,1,0,0:0:0:0:
54,344,17856,2,0,P|31:312|27:277,1,70
63,206,18199,1,8,0:0:0:0:
40,124,18371,1,0,0:0:0:0:
152,179,18542,6,0,P|189:186|238:198,1,70
163,92,18885,2,0,P|129:86|95:78,1,70,8|0,0:0|0:0,0:0:0:0:
246,121,19228,2,0,P|290:90|286:8,1,140,0|8,0:0|0:0,0:0:0:0:
386,25,19742,1,0,0:0:0:0:
452,87,19914,6,0,L|437:158,1,70
324,186,20256,2,0,L|339:257,1,70,8|0,0:0|0:0,0:0:0:0:
390,321,20599,1,0,0:0:0:0:
323,372,20771,1,0,0:0:0:0:
323,372,20942,1,8,0:0:0:0:
240,363,21114,6,0,P|181:314|187:235,1,140
234,192,21628,1,8,0:0:0:0:
117,64,21971,2,0,L|38:85,1,70
21,182,22314,2,0,L|92:164,1,70,8|0,0:0|0:0,0:0:0:0:
191,108,22656,6,0,P|208:137|204:190,1,70
152,234,22999,2,0,P|224:200|294:213,1,140,12|0,0:0|0:0,0:0:0:0:
340,269,23514,1,0,0:0:0:0:
403,183,23685,2,0,P|394:145|382:106,1,70,12|0,0:0|0:0,0:0:0:0:
312,30,24028,5,4,0:0:0:0:
245,86,24199,1,8,0:0:0:0:
204,12,24371,1,8,0:0:0:0:
312,30,24542,2,0,L|362:17,2,35,8|8|8,0:0|0:0|0:0,0:0:0:0:
245,86,24885,1,8,0:0:0:0:
260,172,25056,1,8,0:0:0:0:
260,172,25142,1,8,0:0:0:0:
260,172,25228,1,8,0:3:0:0:
224,251,25399,6,0,P|162:288|83:273,2,140,4|8|0,0:0|0:0|0:0,0:0:0:0:
299,297,26256,2,0,P|341:285|376:276,1,70,0|8,0:0|0:0,0:0:0:0:
448,247,26599,6,0,B|452:188|422:162|422:162|417:128|433:101,1,140
465,38,27114,1,8,0:0:0:0:
299,66,27456,2,0,P|258:79|231:85,1,70
149,109,27799,6,0,B|110:125|71:108|71:108|46:138|4:146,2,140,8|0|8,0:0|0:0|0:0,0:0:0:0:
215,184,28656,1,0,0:0:0:0:
215,184,28828,2,0,P|228:221|225:264,1,70
123,340,29171,2,0,P|132:303|141:264,1,70,8|0,0:0|0:0,0:0:0:0:
215,184,29514,6,0,B|264:197|264:197|302:184|302:184|374:200,1,140,0|8,0:0|0:0,0:0:0:0:
415,141,30028,1,0,0:0:0:0:
480,192,30199,2,0,L|465:267,1,70,0|2,0:0|0:3,0:0:0:0:
444,342,30542,1,8,0:0:0:0:
352,298,30714,5,0,0:0:0:0:
352,298,30799,1,8,0:0:0:0:
352,298,30885,2,0,P|286:287|218:319,1,140,0|8,0:0|0:0,0:0:0:0:
57,356,31571,2,0,P|74:321|80:280,1,70
42,216,31914,1,8,0:0:0:0:
117,179,32085,6,0,P|183:191|255:151,1,140
329,141,32599,2,0,P|346:178|344:216,2,70,8|0|0,0:0|0:0|0:0,0:0:0:0:
333,56,33114,1,0,0:0:0:0:
256,22,33285,1,8,0:0:0:0:
189,87,33456,5,0,0:0:0:0:
189,87,33542,1,8,0:0:0:0:
189,87,33628,2,0,P|147:90|110:115,1,70
46,168,33971,2,0,P|46:202|66:230,1,70,12|0,0:0|0:0,0:0:0:0:
111,325,34314,2,0,L|178:307,1,70
260,228,34656,2,0,P|222:229|190:211,1,70,12|0,0:0|0:0,0:0:0:0:
99,116,34999,6,0,P|86:149|78:183,1,70,4|8,0:0|0:0,0:0:0:0:
20,256,35342,1,8,0:0:0:0:
109,327,35514,2,0,P|165:295|178:211,1,140,8|8,0:0|0:0,0:0:0:0:
157,137,36028,2,0,L|172:88,3,35,12|8|4|0,0:0|0:0|0:3|0:0,0:0:0:0:
183,64,36371,6,0,B|228:41|287:52|287:52|333:23,1,140,4|8,0:0|0:0,0:0:0:0:
392,68,36885,2,0,L|445:53,2,35,0|8|0,0:0|0:0|0:0,0:0:0:0:
355,145,37228,2,0,P|345:183|354:229,1,70
343,299,37571,6,0,P|280:311|207:279,1,140,8|0,0:0|0:0,0:0:0:0:
132,302,38085,2,0,P|115:266|117:232,1,70,8|0,0:0|0:0,0:0:0:0:
188,139,38428,2,0,P|152:147|119:155,1,70,0|2,0:0|0:3,0:0:0:0:
40,125,38771,1,8,0:0:0:0:
120,60,38942,5,8,0:0:0:0:
120,60,39028,1,8,0:0:0:0:
120,60,39114,2,0,P|184:88|257:114,1,140,4|8,0:0|0:0,0:0:0:0:
338,141,39628,2,0,L|376:129,2,35,0|8|0,0:0|0:0|0:0,0:0:0:0:
299,215,39971,2,0,L|232:237,1,70
148,220,40314,6,0,P|94:210|21:259,1,140,8|0,0:0|0:0,0:0:0:0:
72,335,40828,2,0,P|118:347|148:358,1,70,8|0,0:0|0:0,0:0:0:0:
224,318,41171,2,0,P|258:310|292:299,1,70
367,337,41514,1,8,0:0:0:0:
306,186,41856,6,0,B|403:159|403:159|463:187,1,140,4|8,0:0|0:0,0:0:0:0:
493,106,42371,2,0,L|480:49,2,35,0|8|0,0:0|0:0|0:0,0:0:0:0:
405,84,42714,2,0,P|395:47|388:9,1,70
292,46,43056,6,0,P|225:33|154:69,1,140,8|0,0:0|0:0,0:0:0:0:
91,117,43571,2,0,P|86:148|75:194,1,70,8|0,0:0|0:0,0:0:0:0:
167,263,43914,1,0,0:0:0:0:
167,263,43999,1,8,0:0:0:0:
167,263,44085,2,0,P|174:225|182:193,1,70,0|8,0:0|0:0,0:0:0:0:
280,148,44428,5,8,0:0:0:0:
280,148,44514,1,8,0:0:0:0:
280,148,44599,2,0,B|324:157|366:127|366:127|399:143|412:168,1,140,4|8,0:0|0:0,0:0:0:0:
459,248,45114,2,0,L|485:200,2,35,0|8|0,0:0|0:0|0:0,0:0:0:0:
397,304,45456,2,0,P|360:315|319:312,1,70,8|0,0:0|0:0,0:0:0:0:
239,281,45799,6,0,B|179:266|163:318|84:295,1,140,8|0,0:0|0:0,0:0:0:0:
28,347,46314,1,8,0:0:0:0:
7,172,46656,1,0,0:0:0:0:
7,172,46742,1,8,0:0:0:0:
7,172,46828,1,8,0:0:0:0:
89,195,46999,2,0,P|121:186|166:175,1,70,8|0,0:0|0:0,0:0:0:0:
263,203,47342,6,0,P|326:195|371:134,1,140,4|8,0:0|0:0,0:0:0:0:
308,75,47856,1,0,0:0:0:0:
308,75,47942,1,8,0:0:0:0:
308,75,48028,1,0,0:0:0:0:
221,104,48199,1,0,0:0:0:0:
132,82,48371,2,0,P|138:42|141:5,1,70,8|0,0:0|0:0,0:0:0:0:
47,122,48714,5,12,0:0:0:0:
27,209,48885,2,0,P|13:250|19:286,1,70,12|0,0:0|0:0,0:0:0:0:
57,367,49228,1,12,0:0:0:0:
178,351,49399,2,0,L|231:338,3,35,0|0|0|0,1:0|1:0|1:0|1:0,0:0:0:0:
252,322,49742,2,0,L|288:331,3,35,0|0|0|0,1:0|1:0|1:0|1:0,0:0:0:0:
329,346,50085,6,0,P|386:304|378:217,1,140,4|8,0:0|0:0,0:0:0:0:
185,96,50771,2,0,L|211:169,1,70,2|0,0:0|0:0,0:0:0:0:
161,237,51114,1,8,0:0:0:0:
82,273,51285,6,0,P|131:316|211:305,1,140,2|0,0:0|0:0,0:0:0:0:
288,185,51799,2,0,P|263:214|254:255,1,70,8|0,0:0|0:0,0:0:0:0:
335,374,52142,2,0,L|316:307,1,70,2|0,0:0|0:0,0:0:0:0:
316,307,52399,1,0,0:0:0:0:
316,307,52485,1,8,0:0:0:0:
385,236,52656,5,0,0:0:0:0:
385,236,52828,2,0,P|380:149|335:113,1,140,2|10,0:0|0:0,0:0:0:0:
269,14,53342,2,0,P|308:31|355:38,1,70,2|0,0:0|0:0,0:0:0:0:
414,68,53685,1,2,0:0:0:0:
479,15,53856,1,8,0:0:0:0:
509,130,54028,6,0,P|488:200|468:273,1,140,2|0,0:0|0:0,0:0:0:0:
406,357,54542,2,0,P|392:309|376:273,1,70,8|0,0:0|0:0,0:0:0:0:
404,187,54885,1,2,0:0:0:0:
404,187,55056,1,0,0:0:0:0:
320,230,55228,2,0,P|279:239|240:251,1,70,8|0,0:0|0:0,0:0:0:0:
222,240,55485,5,8,0:0:0:0:
222,240,55571,2,0,B|194:243|171:233|171:233|128:266|82:251,1,140,4|8,0:0|0:0,0:0:0:0:
206,136,56256,2,0,P|240:97|242:36,1,105,2|2,0:0|0:0,0:0:0:0:
259,20,56599,2,0,L|174:50,1,70,8|0,0:0|0:0,0:0:0:0:
89,27,56942,6,0,P|41:69|19:158,1,140,2|8,0:0|0:0,0:0:0:0:
97,173,57456,1,0,0:0:0:0:
97,173,57628,2,0,L|114:244,1,70,2|0,0:0|0:0,0:0:0:0:
39,357,57971,2,0,L|22:289,1,70,8|0,0:0|0:0,0:0:0:0:
114,242,58314,6,0,P|147:236|184:226,1,70,2|0,0:0|0:0,0:0:0:0:
260,196,58656,1,8,0:0:0:0:
336,284,58828,2,2,B|404:319|477:297,1,140
508,222,59342,1,8,0:0:0:0:
409,163,59514,6,2,B|341:128|268:150,1,140,4|8,0:0|0:0,0:0:0:0:
192,189,60028,2,0,P|180:234|182:263,1,70,8|0,0:0|0:0,0:0:0:0:
320,356,60371,2,0,P|332:311|330:282,1,70,8|0,0:0|0:0,0:0:0:0:
280,195,60714,1,12,0:0:0:0:
174,294,60885,5,8,0:3:0:0:
174,294,60971,1,8,0:3:0:0:
174,294,61056,2,0,B|127:321|127:321|71:314|67:231,1,140,4|8,0:0|0:0,0:0:0:0:
196,80,61742,2,0,P|231:90|267:89,1,70,2|0,0:0|0:0,0:0:0:0:
332,41,62085,1,8,0:0:0:0:
412,62,62256,6,0,P|442:123|433:199,1,140,2|0,0:0|0:0,0:0:0:0:
354,217,62771,2,0,P|319:239|295:280,1,70,8|0,0:0|0:0,0:0:0:0:
290,349,63114,1,2,0:0:0:0:
194,319,63285,1,0,0:0:0:0:
194,319,63371,1,0,0:0:0:0:
194,319,63456,2,0,L|219:232,1,70,8|0,0:0|0:0,0:0:0:0:
272,188,63799,6,0,P|206:216|124:204,1,140,2|10,0:0|0:0,0:0:0:0:
77,151,64314,2,0,L|88:81,1,70,2|0,0:0|0:0,0:0:0:0:
169,103,64656,1,2,0:0:0:0:
250,80,64828,1,8,0:0:0:0:
315,132,64999,6,0,P|373:89|374:3,1,140,2|0,0:0|0:0,0:0:0:0:
296,65,65514,2,0,P|309:134|327:208,1,140,10|2,0:0|0:0,0:0:0:0:
352,281,66028,1,2,0:0:0:0:
393,353,66199,1,8,0:0:0:0:
286,340,66371,5,2,0:0:0:0:
286,340,66456,1,8,0:0:0:0:
286,340,66542,2,0,P|223:353|153:315,2,140,4|8|2,0:0|0:0|0:0,0:0:0:0:
352,281,67399,2,0,P|344:242|359:199,1,70,2|8,0:0|0:0,0:0:0:0:
413,122,67742,6,0,B|347:97|342:152|266:117,1,140,4|0,0:0|0:0,0:0:0:0:
192,81,68256,1,8,0:0:0:0:
104,140,68428,2,0,P|167:191|235:177,1,140,2|0,0:0|0:0,0:0:0:0:
327,161,68942,1,10,0:0:0:0:
281,252,69114,5,0,0:0:0:0:
281,252,69199,1,8,0:0:0:0:
281,252,69285,2,0,P|253:282|239:319,1,70,4|0,0:0|0:0,0:0:0:0:
174,359,69628,1,10,0:0:0:0:
132,272,69799,2,0,P|67:239|-16:234,1,140,2|2,0:0|0:0,0:0:0:0:
26,140,70314,1,8,0:0:0:0:
26,140,70399,1,8,0:0:0:0:
26,140,70485,1,8,0:3:0:0:
136,42,70656,6,0,P|128:77|120:110,1,70,12|0,0:0|0:0,0:0:0:0:
230,85,70999,2,0,P|301:62|387:70,1,140,12|10,0:0|0:0,0:0:0:0:
489,185,71685,2,0,L|512:146,2,35,10|8|8,0:0|0:0|0:3,0:0:0:0:
405,208,72028,6,0,P|357:257|362:348,1,140,4|8,0:0|0:0,0:0:0:0:
246,362,72542,1,0,0:0:0:0:
246,362,72714,2,0,P|263:315|271:291,1,70
215,228,73056,2,0,L|144:253,1,70,8|8,0:0|0:0,0:0:0:0:
163,160,73399,6,0,P|268:188|320:198,1,140,12|8,0:0|0:0,0:0:0:0:
360,136,73914,1,0,0:0:0:0:
265,94,74085,2,0,P|196:75|125:59,1,140,8|8,0:0|0:0,0:0:0:0:
19,154,74599,5,8,0:3:0:0:
19,154,74685,1,4,0:3:0:0:
19,154,74771,2,0,P|27:109|38:80,1,70,4|0,0:0|0:0,0:0:0:0:
71,4,75114,1,8,0:0:0:0:
164,53,75285,2,0,B|184:94|168:133|168:133|166:170|193:200,1,140,2|0,0:0|0:0,0:0:0:0:
238,258,75799,1,10,0:0:0:0:
238,258,76142,6,0,P|163:214|90:225,1,140,2|8,0:0|0:0,0:0:0:0:
155,307,76656,2,0,P|230:351|303:340,1,140,2|0,0:0|0:0,0:0:0:0:
365,334,77171,1,10,0:0:0:0:
434,258,77342,5,0,0:0:0:0:
434,258,77428,1,8,0:0:0:0:
434,258,77514,2,0,P|446:218|454:184,1,70,4|0,0:0|0:0,0:0:0:0:
502,123,77856,1,8,0:0:0:0:
421,75,78028,2,0,P|359:84|289:50,1,140,2|0,0:0|0:0,0:0:0:0:
217,10,78542,1,10,0:0:0:0:
95,137,78885,6,0,P|157:146|227:112,1,140,2|8,0:0|0:0,0:0:0:0:
291,52,79399,2,0,P|307:86|322:120,1,70,2|0,0:0|0:0,0:0:0:0:
377,177,79742,1,0,0:0:0:0:
330,247,79914,1,8,0:0:0:0:
252,286,80085,5,0,0:0:0:0:
252,286,80171,1,8,0:0:0:0:
252,286,80256,2,0,P|199:250|186:160,1,140,4|8,0:0|0:0,0:0:0:0:
176,94,80771,2,0,P|160:160|105:200,1,140,2|0,0:0|0:0,0:0:0:0:
99,60,81285,6,0,P|144:22|229:30,1,140,10|0,0:0|0:0,0:0:0:0:
262,97,81799,1,0,0:0:0:0:
340,127,81971,2,0,P|331:165|322:201,1,70,8|0,0:0|0:0,0:0:0:0:
211,299,82314,2,0,P|221:264|233:230,1,70,2|0,0:0|0:0,0:0:0:0:
324,196,82656,1,10,0:0:0:0:
390,274,82828,5,0,0:0:0:0:
390,274,82914,1,8,0:0:0:0:
390,274,82999,2,0,B|438:288|483:255|483:255|516:275|508:312,2,140,4|8|0,0:0|0:0|0:0,0:0:0:0:
310,244,83856,1,0,0:0:0:0:
310,244,84028,2,0,L|244:266,1,70,8|8,0:0|0:3,0:0:0:0:
148,184,84371,6,0,L|218:162,1,70,4|8,0:0|0:0,0:0:0:0:
293,115,84714,1,8,0:0:0:0:
161,86,84885,2,0,L|27:128,1,140,4|8,0:0|0:0,0:0:0:0:
42,221,85399,2,0,L|28:260,2,35,8|4|4,0:0|0:3|0:3,0:0:0:0:
148,184,85742,1,4,0:0:0:0:
256,192,85828,12,0,91914,0:0:0:0:
