osu file format v14

[General]
AudioFilename: audio.mp3
AudioLeadIn: 0
PreviewTime: 49056
Countdown: 0
SampleSet: Soft
StackLeniency: 0.6
Mode: 0
LetterboxInBreaks: 0
WidescreenStoryboard: 0

[Editor]
Bookmarks: 3456,14428,22656,25399,33628,36371,50085,70656,74771,85742,91914
DistanceSpacing: 1.1
BeatDivisor: 6
GridSize: 4
TimelineZoom: 1

[Metadata]
Title:Mizuiro Stage
TitleUnicode:水色ステージ
Artist:Marika
ArtistUnicode:真里歌
Creator:Log Off Now
Version:Easy
Source:すぷらっしゅ!
Tags:Atelier Kaguya AiCherry Splash! opening eroge visual novel short version momochikun proezreal
BeatmapID:1260401
BeatmapSetID:594772

[Difficulty]
HPDrainRate:3
CircleSize:3
OverallDifficulty:3
ApproachRate:3
SliderMultiplier:0.8
SliderTickRate:1

[Events]
//Background and Video events
0,0,"splash.png",0,0
//Break Periods
//Storyboard Layer 0 (Background)
//Storyboard Layer 1 (Fail)
//Storyboard Layer 2 (Pass)
//Storyboard Layer 3 (Foreground)
//Storyboard Sound Samples

[TimingPoints]
714,342.857142857143,4,2,1,40,1,0
3456,-100,4,2,1,50,0,0
14428,-100,4,2,1,45,0,0
36371,-100,4,2,1,50,0,0
50085,-100,4,2,1,60,0,1
74771,-100,4,2,1,50,0,0
87114,-100,4,2,1,40,0,0
88485,-100,4,2,1,30,0,0
89171,-100,4,2,1,25,0,0
89856,-100,4,2,1,20,0,0
90542,-100,4,2,1,15,0,0
91228,-100,4,2,1,10,0,0
91914,-100,4,2,1,5,0,0

[Colours]
Combo1 : 250,216,97
Combo2 : 126,248,109
Combo3 : 133,156,250
Combo4 : 247,100,122

[HitObjects]
72,112,713,5,2,0:3:0:0:
152,80,1056,1,2,0:3:0:0:
208,144,1399,2,0,L|200:272,1,120,12|4,0:0|0:2,0:0:0:0:
284,240,2256,1,8,0:0:0:0:
368,216,2599,2,0,P|440:216|472:256,1,120,4|8,0:2|0:0,0:0:0:0:
436,332,3456,6,0,B|380:356|380:356|276:340,1,160,6|2,0:2|0:2,0:0:0:0:
196,324,4485,1,10,0:0:0:0:
256,260,4828,2,0,B|276:184|276:184|256:140,2,120,2|2|10,0:0|0:0|0:0,0:0:0:0:
172,240,6199,6,0,B|96:220|96:220|52:240,2,120,2|2|10,0:0|0:0|0:0,0:0:0:0:
196,324,7571,2,0,B|233:341|233:341|309:321,2,120,2|2|10,0:0|0:0|0:0,0:0:0:0:
172,240,8942,6,0,P|164:184|180:108,1,120,6|2,0:0|0:0,0:0:0:0:
284,48,9971,1,10,0:0:0:0:
340,116,10314,2,0,L|336:200,1,80,0|8,0:0|0:0,0:0:0:0:
332,284,10999,1,2,0:0:0:0:
408,328,11342,1,10,0:0:0:0:
464,260,11685,6,0,B|492:176|432:176|460:88,1,160,6|0,0:0|0:0,0:0:0:0:
496,24,12714,1,8,0:0:0:0:
408,32,13056,2,0,L|272:48,1,120,6|4,0:0|0:0,0:0:0:0:
156,60,14085,1,8,0:0:0:0:
184,144,14428,6,0,P|192:196|184:232,1,80,4|8,0:0|0:0,0:0:0:0:
128,288,15114,2,0,B|84:300|84:300|4:280,2,120,0|0|8,0:0|0:0|0:0,0:0:0:0:
213,309,16485,2,0,P|252:301|291:307,1,80,0|8,0:0|0:0,0:0:0:0:
373,343,17171,6,0,B|396:259|338:259|365:187,1,160
237,65,18542,2,0,B|264:136|206:136|229:220,1,160
405,209,19914,6,0,L|401:118,1,80,0|8,0:0|0:0,0:0:0:0:
354,56,20599,2,0,B|309:71|309:71|221:63,2,120,0|0|8,0:0|0:0|0:0,0:0:0:0:
432,15,21971,2,0,P|463:10|516:22,1,80,0|8,0:0|0:0,0:0:0:0:
504,107,22656,5,0,0:0:0:0:
458,182,22999,1,12,0:0:0:0:
292,126,23685,1,12,0:0:0:0:
228,187,24028,2,0,L|233:323,2,120,4|8|8,0:0|0:0|0:0,0:0:0:0:
163,127,25399,6,0,P|119:121|77:134,1,80,4|8,0:0|0:0,0:0:0:0:
18,188,26085,2,0,B|6:232|6:232|26:312,2,120,0|0|8,0:0|0:0|0:0,0:0:0:0:
0,101,27456,2,0,P|-8:59|0:16,1,80,0|8,0:0|0:0,0:0:0:0:
79,59,28142,6,0,B|158:86|158:33|242:67,1,160
327,215,29514,2,0,B|249:246|249:193|170:220,1,160
295,96,30885,6,0,L|379:103,1,80,0|8,0:0|0:0,0:0:0:0:
461,116,31571,2,0,B|476:71|476:71|468:-17,2,120,0|0|8,0:0|0:0|0:0,0:0:0:0:
405,184,32942,2,0,P|399:222|410:271,1,80,0|8,0:0|0:0,0:0:0:0:
453,337,33628,5,0,0:0:0:0:
376,380,33971,1,12,0:0:0:0:
224,290,34656,1,12,0:0:0:0:
281,223,34999,2,0,L|276:103,2,120,4|8|12,0:0|0:0|0:0,0:0:0:0:
353,273,36371,5,4,0:0:0:0:
329,357,36714,1,8,0:0:0:0:
244,333,37056,2,0,P|191:324|113:333,2,120,0|8|8,0:0|0:0|0:0,0:0:0:0:
268,248,38428,2,0,L|257:152,1,80,0|8,0:0|0:0,0:0:0:0:
243,81,39114,5,4,0:0:0:0:
175,137,39456,1,8,0:0:0:0:
88,128,39799,2,0,P|97:75|88:-3,2,120,0|8|8,0:0|0:0|0:0,0:0:0:0:
38,200,41171,2,0,L|47:279,1,80,0|8,0:0|0:0,0:0:0:0:
55,367,41856,5,4,0:0:0:0:
124,312,42199,2,0,P|173:291|243:299,1,120,8|0,0:0|0:0,0:0:0:0:
319,331,43056,2,0,B|330:295|330:295|321:205,1,120,8|8,0:0|0:0,0:0:0:0:
240,176,43914,2,0,L|250:80,1,80,0|8,0:0|0:0,0:0:0:0:
260,9,44599,5,4,0:0:0:0:
336,56,44942,2,0,P|385:77|455:69,1,120,8|0,0:0|0:0,0:0:0:0:
504,140,45799,2,0,L|492:264,1,120,8|8,0:0|0:0,0:0:0:0:
416,304,46656,2,0,P|374:314|328:304,1,80,8|8,0:0|0:0,0:0:0:0:
268,252,47342,5,4,0:0:0:0:
192,294,47685,2,0,L|197:383,2,80,8|0|8,0:0|0:0|0:0,0:0:0:0:
146,218,48714,2,0,B|128:181|128:181|135:88,2,120,12|12|8,0:0|0:0|0:0,0:0:0:0:
233,213,50085,6,0,P|276:204|312:212,1,80,4|10,0:0|0:0,0:0:0:0:
385,257,50771,2,0,L|378:392,2,120,2|2|8,0:0|0:0|0:0,0:0:0:0:
444,192,52142,2,0,L|440:112,1,80,2|8,0:0|0:0,0:0:0:0:
377,49,52828,6,0,P|317:37|250:55,1,120,2|2,0:0|0:0,0:0:0:0:
190,103,53685,1,2,0:0:0:0:
114,57,54028,2,0,B|99:97|99:97|119:180,1,120,2|10,0:0|0:0,0:0:0:0:
138,257,54885,2,0,P|147:304|137:350,1,80,2|10,0:0|0:0,0:0:0:0:
64,377,55571,5,4,0:0:0:0:
232,326,56256,2,0,P|270:318|310:322,1,80,2|8,0:0|0:0,0:0:0:0:
389,360,56942,2,0,B|416:287|362:287|390:194,1,160,2|0,0:0|0:0,0:0:0:0:
420,121,57971,1,10,0:0:0:0:
344,76,58314,6,0,P|283:94|220:79,1,120,2|2,0:0|0:0,0:0:0:0:
152,39,59171,1,2,0:0:0:0:
70,71,59514,1,6,0:0:0:0:
132,187,60028,2,0,P|137:226|125:277,1,80,10|10,0:0|0:0,0:0:0:0:
67,328,60714,1,14,0:0:0:0:
140,375,61056,6,0,L|225:370,1,80,4|10,0:0|0:0,0:0:0:0:
294,323,61742,2,0,P|348:332|412:318,2,120,2|2|8,0:0|0:0|0:0,0:0:0:0:
233,259,63114,2,0,L|228:179,1,80,2|8,0:0|0:0,0:0:0:0:
252,94,63799,6,0,P|292:69|365:83,1,120,2|2,0:0|0:0,0:0:0:0:
431,133,64656,1,2,0:0:0:0:
390,211,64999,1,2,0:0:0:0:
261,181,65514,1,10,0:0:0:0:
187,228,65856,2,0,L|194:352,1,120,2|2,0:0|0:0,0:0:0:0:
321,380,66885,5,10,0:0:0:0:
395,333,67228,2,0,L|388:209,1,120,2|6,0:0|0:0,0:0:0:0:
380,81,68256,2,0,P|417:89|472:81,2,80,8|0|10,0:0|0:0|0:0,0:0:0:0:
301,41,69285,6,0,B|256:24|256:24|174:37,2,120,6|2|8,0:0|0:0|0:0,0:0:0:0:
308,128,70656,1,12,0:0:0:0:
244,188,70999,1,12,0:0:0:0:
297,258,71342,2,0,L|382:245,1,80,10|10,0:0|0:0,0:0:0:0:
439,184,72028,6,0,B|430:136|430:136|449:52,2,120,6|2|8,0:0|0:0|0:0,0:0:0:0:
471,265,73399,1,12,0:0:0:0:
429,342,73742,1,8,0:0:0:0:
349,304,74085,1,8,0:0:0:0:
276,353,74428,1,8,0:0:0:0:
201,305,74771,6,0,B|185:258|185:258|197:144,1,160,6|2,0:0|0:0,0:0:0:0:
204,60,75799,1,10,0:0:0:0:
287,32,76142,2,0,B|328:22|328:22|408:35,2,120,2|2|10,0:0|0:0|0:0,0:0:0:0:
268,118,77514,6,0,B|278:159|278:159|265:239,2,120,2|2|10,0:0|0:0|0:0,0:0:0:0:
180,124,78885,2,0,B|170:83|170:83|183:3,2,120,2|2|10,0:0|0:0|0:0,0:0:0:0:
206,207,80256,6,0,P|214:264|196:328,1,120,6|2,0:0|0:0,0:0:0:0:
74,366,81285,1,10,0:0:0:0:
37,285,81628,2,0,L|40:199,1,80,0|8,0:0|0:0,0:0:0:0:
43,116,82314,1,2,0:0:0:0:
118,160,82656,1,10,0:0:0:0:
193,114,82999,6,0,B|277:86|277:146|365:118,1,160,6|0,0:0|0:0,0:0:0:0:
419,68,84028,1,8,0:0:0:0:
485,125,84371,2,0,L|476:259,2,120,6|4|8,0:0|0:0|0:0,0:0:0:0:
496,37,85742,1,4,0:0:0:0:
256,192,85914,12,0,91914,0:0:0:0:
