osu file format v14

[General]
AudioFilename: audio.mp3
AudioLeadIn: 0
PreviewTime: 185551
Countdown: 0
SampleSet: Soft
StackLeniency: 0.4
Mode: 0
LetterboxInBreaks: 0
WidescreenStoryboard: 0

[Editor]
DistanceSpacing: 1.2
BeatDivisor: 4
GridSize: 32
TimelineZoom: 1.5

[Metadata]
Title:Knowing
TitleUnicode:Knowing
Artist:Marika
ArtistUnicode:真里歌
Creator:Shurelia
Version:Loving
Source:俺の彼女のウラオモテ
Tags:Ore no Kanojo no Uraomote Nonoura ののうら eroge visual novel Aries meis clauson angel note japanese video games vn j-pop pop opening theme song shizuku- kazato asa shikibe mayu
BeatmapID:3639031
BeatmapSetID:1776972

[Difficulty]
HPDrainRate:6.5
CircleSize:4
OverallDifficulty:7.5
ApproachRate:8.2
SliderMultiplier:1.5
SliderTickRate:1

[Events]
//Background and Video events
0,0,"nazuki4.jpg",0,0
//Break Periods
2,186179,192117
//Storyboard Layer 0 (Background)
//Storyboard Layer 1 (Fail)
//Storyboard Layer 2 (Pass)
//Storyboard Layer 3 (Foreground)
//Storyboard Layer 4 (Overlay)
//Storyboard Sound Samples

[TimingPoints]
837,428.571428571429,4,2,1,41,1,0
14551,-100,4,2,1,47,0,0
21301,-100,4,2,1,5,0,0
21408,-100,4,2,1,47,0,0
27729,-100,4,2,1,5,0,0
27837,-100,4,2,1,57,0,0
28265,-90.9090909090909,4,2,1,57,0,0
41979,-111.111111111111,4,2,1,51,0,0
48837,-90.9090909090909,4,2,1,57,0,0
55694,-76.9230769230769,4,2,1,67,0,1
69301,-76.9230769230769,4,2,1,41,0,0
69408,-76.9230769230769,4,2,1,57,0,1
83122,-100,4,2,1,57,0,0
89337,-66.6666666666667,4,2,1,57,0,0
89551,-200,4,2,1,57,0,0
89979,-90.9090909090909,4,2,1,57,0,0
131122,-76.9230769230769,4,2,1,67,0,1
144408,-76.9230769230769,4,2,1,67,0,0
144837,-76.9230769230769,4,2,1,67,0,1
158444,-76.9230769230769,4,2,1,67,0,0
158551,-76.9230769230769,4,2,1,67,0,1
172265,-76.9230769230769,4,2,1,51,0,0
179122,-100,4,2,1,57,0,0
192837,-76.9230769230769,4,2,1,71,0,1
213301,-76.9230769230769,4,2,1,71,0,0
213408,-76.9230769230769,4,2,1,71,0,1
227015,-76.9230769230769,4,2,1,71,0,0
227122,-76.9230769230769,4,2,1,71,0,1
240837,-100,4,2,1,41,0,0
248551,-100,4,2,1,35,0,0
251122,-100,4,2,1,31,0,0

[Colours]
Combo1 : 250,180,240
Combo2 : 120,200,230
Combo3 : 255,230,130
Combo4 : 160,230,150

[HitObjects]
67,343,837,5,2,0:0:0:0:
143,295,1051,2,0,P|142:257|132:221,1,75
68,158,1479,1,2,0:0:0:0:
107,76,1694,2,0,P|182:65|252:40,1,150,2|0,0:3|0:0,0:0:0:0:
318,108,2337,1,0,0:0:0:0:
318,108,2551,2,0,P|323:71|337:36,1,75,2|0,0:0|0:0,0:0:0:0:
429,27,2979,1,2,0:0:0:0:
429,27,3194,1,2,0:0:0:0:
459,111,3408,2,0,P|459:186|465:261,1,150,2|0,0:3|0:0,0:0:0:0:
367,266,4051,1,2,0:0:0:0:
367,266,4158,1,2,0:0:0:0:
367,266,4265,6,0,P|329:267|293:278,1,75,2|0,0:0|0:0,0:0:0:0:
218,328,4694,1,0,0:0:0:0:
180,240,4908,1,2,0:0:0:0:
261,185,5122,2,0,P|334:173|376:114,1,150,2|0,0:3|0:0,0:0:0:0:
292,10,5765,1,0,0:0:0:0:
292,9,5979,2,0,P|284:45|283:83,1,75,2|0,0:0|0:0,0:0:0:0:
193,94,6408,1,2,0:0:0:0:
111,55,6622,1,2,0:0:0:0:
29,15,6837,2,0,P|38:89|46:163,1,150,2|0,0:3|0:0,0:0:0:0:
47,361,7479,1,2,0:0:0:0:
47,361,7587,1,2,0:0:0:0:
46,361,7694,6,0,P|73:334|107:318,1,75,2|0,0:0|0:0,0:0:0:0:
190,347,8122,1,0,0:0:0:0:
278,363,8337,1,2,0:0:0:0:
366,349,8551,2,0,P|368:274|379:200,1,150,2|0,0:3|0:0,0:0:0:0:
438,135,9194,1,0,0:0:0:0:
438,135,9301,1,0,0:0:0:0:
438,135,9408,2,0,P|426:98|408:66,1,75,2|0,0:0|0:0,0:0:0:0:
303,19,9837,1,2,0:0:0:0:
313,137,10051,1,2,0:0:0:0:
210,12,10265,2,0,P|202:67|196:123,1,112.5,2|2,0:0|0:0,0:0:0:0:
209,381,10908,1,2,0:0:0:0:
114,327,11122,6,0,P|79:311|44:299,1,75,2|0,0:0|0:0,0:0:0:0:
30,209,11551,1,0,0:0:0:0:
19,119,11765,1,2,0:0:0:0:
70,45,11979,2,0,P|144:56|218:63,1,150,2|0,0:3|0:0,0:0:0:0:
315,62,12622,1,0,0:0:0:0:
315,62,12729,1,0,0:0:0:0:
315,62,12837,2,0,P|338:92|352:127,1,75,2|0,0:0|0:0,0:0:0:0:
340,215,13265,1,2,0:0:0:0:
267,161,13479,1,2,0:0:0:0:
194,215,13694,2,0,P|127:249|56:274,1,150,2|0,0:3|0:0,0:0:0:0:
60,183,14337,1,2,0:0:0:0:
233,297,14551,6,0,P|308:302|382:316,1,150,2|0,0:0|0:0,0:0:0:0:
417,186,15194,2,0,P|465:244|507:306,1,150,2|0,0:0|0:0,0:0:0:0:
512,159,15837,1,0,0:0:0:0:
480,74,16051,1,0,0:0:0:0:
391,97,16265,2,0,P|317:82|245:62,1,150,2|2,0:0|0:0,0:0:0:0:
181,162,16908,2,0,P|138:99|101:34,1,150,2|0,0:0|0:0,0:0:0:0:
70,191,17551,1,2,0:0:0:0:
78,211,17658,1,2,0:0:0:0:
90,229,17765,1,2,0:0:0:0:
107,243,17872,1,2,0:0:0:0:
122,259,17979,6,0,P|167:200|237:175,1,150,2|0,0:0|0:0,0:0:0:0:
373,247,18622,2,0,P|298:254|224:264,1,150,2|0,0:0|0:0,0:0:0:0:
165,332,19265,1,0,0:0:0:0:
123,260,19479,1,0,0:0:0:0:
55,319,19694,2,0,P|46:283|39:246,1,75,2|0,0:0|0:0,0:0:0:0:
2,131,20122,1,2,0:0:0:0:
228,6,20551,1,2,0:3:0:0:
228,6,20979,2,0,P|281:23|336:36,1,112.5
335,36,21408,6,0,P|307:104|311:179,1,150,2|0,0:0|0:0,0:0:0:0:
509,212,22051,2,0,P|440:243|380:288,1,150,2|0,0:0|0:0,0:0:0:0:
251,374,22694,1,0,0:0:0:0:
343,384,22908,1,0,0:0:0:0:
284,286,23122,2,0,P|216:254|156:209,1,150,2|2,0:0|0:0,0:0:0:0:
91,138,23765,1,2,0:0:0:0:
91,138,23979,1,2,0:3:0:0:
90,137,24408,2,0,P|69:107|63:71,1,75,0|2,0:0|0:0,0:0:0:0:
171,68,24837,6,0,P|244:55|319:47,1,150,2|0,0:0|0:0,0:0:0:0:
411,165,25479,2,0,P|337:151|262:143,1,150,2|0,0:0|0:0,0:0:0:0:
205,236,26122,1,0,0:0:0:0:
205,236,26337,1,0,0:0:0:0:
288,302,26551,2,0,P|362:318|430:349,1,150,2|2,0:0|0:0,0:0:0:0:
430,349,27194,1,2,0:0:0:0:
470,255,27408,2,0,P|474:199|484:144,1,112.5,2|0,0:3|0:0,0:0:0:0:
512,64,27837,5,14,0:3:0:0:
203,30,28265,6,0,P|162:20|121:20,1,82.5000025177003,6|0,3:2|0:0,0:0:0:0:
44,96,28694,1,10,0:0:0:0:
129,190,28908,2,0,P|134:149|147:110,1,82.5000025177003,2|0,0:0|0:0,0:0:0:0:
299,90,29337,1,0,3:0:0:0:
235,191,29551,1,10,0:0:0:0:
215,24,29765,1,2,0:0:0:0:
362,8,29979,2,0,P|399:25|439:34,1,82.5000025177003,2|0,3:2|0:0,0:0:0:0:
299,90,30408,1,8,0:0:0:0:
396,161,30622,2,0,P|436:148|477:142,1,82.5000025177003,2|0,0:0|3:0,0:0:0:0:
337,267,31051,1,0,3:0:0:0:
479,257,31265,1,8,0:0:0:0:
279,375,31479,1,2,0:0:0:0:
279,375,31587,1,2,0:0:0:0:
279,375,31694,6,0,P|198:355|116:346,1,165.000005035401,2|10,3:2|0:0,0:0:0:0:
9,294,32337,2,0,P|-1:254|7:214,1,82.5000025177003,2|0,0:0|0:0,0:0:0:0:
90,263,32765,1,0,3:0:0:0:
118,90,32979,1,8,0:0:0:0:
95,246,33194,1,0,3:0:0:0:
171,174,33408,2,0,P|211:182|251:190,1,82.5000025177003,0|0,3:0|0:0,0:0:0:0:
197,329,33837,2,0,P|156:337|116:345,1,82.5000025177003,8|0,0:0|0:0,0:0:0:0:
298,286,34265,1,0,3:0:0:0:
395,340,34479,1,2,3:2:0:0:
512,360,34694,2,0,P|495:300|486:239,1,123.75000377655,10|0,3:2|0:0,0:0:0:0:
499,199,35122,6,0,P|493:158|484:117,1,82.5000025177003,6|0,3:2|0:0,0:0:0:0:
387,8,35551,1,10,0:0:0:0:
335,131,35765,2,0,P|372:147|413:155,1,82.5000025177003,2|0,0:0|0:0,0:0:0:0:
276,30,36194,1,0,3:0:0:0:
237,187,36408,1,10,0:0:0:0:
183,91,36622,1,2,0:0:0:0:
183,91,36837,6,0,P|144:81|103:76,1,82.5000025177003,2|0,3:2|0:0,0:0:0:0:
15,171,37266,1,8,0:0:0:0:
120,249,37480,2,0,P|119:208|111:168,1,82.5000025177003,2|0,0:0|3:0,0:0:0:0:
110,167,37909,1,0,3:0:0:0:
23,282,38123,1,8,0:0:0:0:
122,379,38337,1,2,0:0:0:0:
122,379,38444,1,2,0:0:0:0:
122,379,38551,6,0,P|162:367|203:360,1,82.5000025177003,2|0,3:2|0:0,0:0:0:0:
371,384,38980,1,10,0:0:0:0:
294,306,39194,2,0,P|285:265|274:225,1,82.5000025177003,2|0,0:0|0:0,0:0:0:0:
265,201,39623,1,0,3:0:0:0:
425,243,39837,1,8,0:0:0:0:
396,384,40051,1,0,3:0:0:0:
294,306,40265,2,0,P|253:298|214:285,2,82.5000025177003,0|0|8,3:0|0:0|0:0,0:0:0:0:
431,169,40908,1,0,0:0:0:0:
432,144,41015,1,8,0:0:0:0:
434,119,41122,1,0,3:0:0:0:
456,0,41337,1,10,3:3:0:0:
330,77,41551,1,12,3:3:0:0:
221,27,41765,1,4,3:0:0:0:
198,36,41872,1,4,3:0:0:0:
171,45,41979,6,0,P|160:112|145:178,1,134.999995880127,4|2,3:2|0:0,0:0:0:0:
69,256,42622,2,0,P|50:191|37:124,1,134.999995880127,0|0,3:0|0:0,0:0:0:0:
76,0,43265,1,8,0:0:0:0:
76,0,43479,1,0,0:0:0:0:
169,44,43694,2,0,P|235:61|302:57,1,134.999995880127,0|2,3:0|0:0,0:0:0:0:
393,141,44337,2,0,P|404:74|419:8,1,134.999995880127,0|0,3:0|0:0,0:0:0:0:
512,169,44979,1,14,0:3:0:0:
300,315,45408,6,0,P|292:247|278:181,1,134.999995880127,4|2,3:2|0:0,0:0:0:0:
200,72,46051,2,0,P|185:137|174:204,1,134.999995880127,0|0,3:0|0:0,0:0:0:0:
241,367,46694,1,8,0:0:0:0:
241,367,46908,1,0,0:0:0:0:
129,320,47122,2,0,P|62:323|13:367,1,134.999995880127,0|2,3:0|0:0,0:0:0:0:
240,367,47765,2,0,P|273:359|307:353,1,67.4999979400635,0|0,3:0|0:0,0:0:0:0:
451,371,48194,1,4,3:0:0:0:
236,254,48408,1,12,0:0:0:0:
261,21,48837,6,0,P|220:26|178:29,1,82.5000025177003,4|0,3:2|0:0,0:0:0:0:
0,19,49265,1,10,0:0:0:0:
78,107,49479,2,0,P|157:118|209:180,1,165.000005035401,2|0,0:0|3:0,0:0:0:0:
172,323,50122,1,10,0:0:0:0:
87,290,50337,2,0,P|95:249|107:210,1,82.5000025177003,2|0,0:0|3:0,0:0:0:0:
106,210,50765,1,2,0:0:0:0:
274,301,50979,2,0,P|311:281|349:267,1,82.5000025177003,8|0,0:0|0:0,0:0:0:0:
499,269,51408,1,0,3:0:0:0:
421,182,51622,1,0,3:0:0:0:
422,362,51837,1,12,0:0:0:0:
493,77,52265,6,0,P|452:81|410:82,1,82.5000025177003,4|0,3:2|0:0,0:0:0:0:
297,112,52693,1,10,0:0:0:0:
220,21,52907,2,0,P|140:41|55:55,1,165.000005035401,2|0,0:0|3:0,0:0:0:0:
58,54,53550,1,10,0:0:0:0:
158,205,53765,2,0,P|160:163|159:122,1,82.5000025177003,2|0,0:0|3:0,0:0:0:0:
53,172,54193,1,2,0:0:0:0:
257,319,54408,2,0,P|252:269|259:219,1,82.5000025177003,8|0,0:0|0:0,0:0:0:0:
277,84,54836,1,8,3:0:0:0:
298,50,54944,1,8,0:0:0:0:
331,29,55050,1,4,3:3:0:0:
370,30,55158,1,4,0:3:0:0:
403,53,55265,1,8,0:0:0:0:
403,53,55694,6,0,P|401:101|406:150,1,97.4999955368044,4|2,3:2|0:0,0:0:0:0:
512,365,56122,1,8,0:0:0:0:
378,289,56337,2,0,P|335:312|287:316,1,97.4999955368044,2|0,0:0|3:0,0:0:0:0:
198,158,56765,1,2,3:2:0:0:
6,234,56979,2,0,P|53:242|92:270,1,97.4999955368044,8|2,0:0|0:0,0:0:0:0:
162,384,57408,1,0,3:0:0:0:
2,344,57622,1,2,3:2:0:0:
212,255,57837,1,8,0:0:0:0:
86,176,58051,2,0,P|132:163|181:162,1,97.4999955368044,2|0,0:0|3:0,0:0:0:0:
429,244,58479,1,0,3:0:0:0:
429,244,58587,1,0,3:0:0:0:
429,244,58694,2,0,P|381:191|368:120,1,146.249993305207,10|0,0:0|0:0,0:0:0:0:
368,120,59122,6,0,P|320:123|272:112,1,97.4999955368044,4|2,3:2|0:0,0:0:0:0:
208,9,59550,1,8,0:0:0:0:
44,22,59765,2,0,P|83:49|103:93,1,97.4999955368044,2|0,0:0|3:0,0:0:0:0:
163,308,60194,1,2,3:2:0:0:
18,193,60408,2,0,P|62:212|110:211,1,97.4999955368044,8|2,0:0|0:0,0:0:0:0:
305,185,60836,1,2,3:2:0:0:
197,128,61051,1,2,3:2:0:0:
297,305,61265,1,8,0:0:0:0:
466,254,61479,2,0,P|464:206|457:158,1,97.4999955368044,2|2,0:0|3:2,0:0:0:0:
261,49,61908,1,2,3:2:0:0:
261,49,62015,1,0,3:0:0:0:
261,49,62122,2,0,P|188:43|115:40,1,146.249993305207,10|2,0:0|0:0,0:0:0:0:
115,40,62551,6,0,P|153:68|172:113,1,97.4999955368044,4|2,3:2|0:0,0:0:0:0:
152,239,62979,1,8,0:0:0:0:
41,223,63194,2,0,P|39:174|61:132,1,97.4999955368044,2|0,0:0|3:0,0:0:0:0:
241,179,63622,1,2,3:2:0:0:
298,278,63837,1,8,0:0:0:0:
197,341,64051,2,0,P|148:348|102:363,1,97.4999955368044,2|0,0:0|3:0,0:0:0:0:
298,278,64479,1,2,3:2:0:0:
152,239,64694,1,8,0:0:0:0:
328,384,64908,2,0,P|376:376|422:361,1,97.4999955368044,2|0,0:0|3:0,0:0:0:0:
380,205,65336,1,0,3:0:0:0:
467,104,65551,2,0,P|463:55|472:7,1,97.4999955368044,10|2,0:0|0:0,0:0:0:0:
447,11,65872,1,2,0:0:0:0:
417,18,65979,6,0,B|360:12|298:57|225:32,2,194.999991073609,4|8|0,3:2|0:0|3:0,0:0:0:0:
271,117,67051,1,2,3:2:0:0:
379,204,67265,2,0,P|425:217|467:243,1,97.4999955368044,10|2,0:0|0:0,0:0:0:0:
280,322,67694,1,2,3:2:0:0:
280,322,67908,1,0,3:0:0:0:
165,211,68122,2,0,P|119:220|77:197,1,97.4999955368044,8|2,0:0|0:0,0:0:0:0:
51,174,68408,2,0,P|35:177|21:183,2,32.4999985122681,8|8|8,0:0|0:0|3:0,0:0:0:0:
254,37,68765,6,0,L|250:4,2,32.4999985122681,8|8|8,3:0|0:0|0:0,0:0:0:0:
256,58,68979,5,2,0:0:0:0:
258,93,69087,1,8,0:3:0:0:
261,127,69194,1,4,0:3:0:0:
262,162,69301,1,4,0:3:0:0:
263,197,69408,6,0,P|263:245|266:294,1,97.4999955368044,4|2,3:2|0:0,0:0:0:0:
411,384,69836,1,8,0:0:0:0:
507,258,70051,2,0,P|465:235|417:231,1,97.4999955368044,2|0,0:0|3:0,0:0:0:0:
297,384,70479,1,2,3:2:0:0:
114,308,70693,2,0,P|70:329|24:347,1,97.4999955368044,8|2,0:0|0:0,0:0:0:0:
180,384,71122,1,0,3:0:0:0:
9,232,71336,1,2,3:2:0:0:
188,186,71551,1,8,0:0:0:0:
378,244,71765,2,0,P|426:243|475:237,1,97.4999955368044,2|0,0:0|3:0,0:0:0:0:
287,79,72194,1,0,3:0:0:0:
287,79,72301,1,0,3:0:0:0:
287,78,72408,2,0,P|214:79|152:41,1,146.249993305207,10|0,0:0|0:0,0:0:0:0:
152,42,72836,6,0,P|195:63|208:109,1,97.4999955368044,4|2,3:2|0:0,0:0:0:0:
131,237,73264,1,8,0:0:0:0:
28,137,73479,2,0,P|76:136|121:119,1,97.4999955368044,2|0,0:0|3:0,0:0:0:0:
12,0,73908,1,2,3:2:0:0:
208,108,74122,1,8,0:0:0:0:
8,311,74336,2,0,P|56:311|102:325,1,97.4999955368044,2|2,0:0|3:2,0:0:0:0:
322,292,74765,1,2,3:2:0:0:
221,384,74979,1,8,0:0:0:0:
490,361,75193,2,0,P|486:313|478:265,1,97.4999955368044,2|2,0:0|3:2,0:0:0:0:
362,31,75622,1,2,3:2:0:0:
362,31,75729,1,0,3:0:0:0:
362,31,75836,2,0,P|367:103|378:176,1,146.249993305207,10|2,0:0|0:0,0:0:0:0:
378,175,76265,6,0,P|286:159|258:70,1,194.999991073609,4|8,3:2|0:0,0:0:0:0:
452,28,76908,1,2,0:0:0:0:
512,166,77122,1,0,3:0:0:0:
512,166,77336,1,2,3:2:0:0:
443,318,77551,1,8,0:0:0:0:
296,290,77765,2,0,P|256:319|221:352,1,97.4999955368044,2|0,0:0|3:0,0:0:0:0:
30,349,78193,1,2,3:2:0:0:
132,293,78408,1,8,0:0:0:0:
15,185,78623,2,0,P|63:177|110:164,1,97.4999955368044,2|0,0:0|3:0,0:0:0:0:
228,46,79051,1,0,3:0:0:0:
429,135,79265,2,0,P|400:97|368:60,1,97.4999955368044,10|2,0:0|0:0,0:0:0:0:
392,47,79586,1,2,0:0:0:0:
419,37,79693,6,0,P|329:63|309:154,2,194.999991073609,4|8|0,3:2|0:0|3:0,0:0:0:0:
512,239,80765,1,2,3:2:0:0:
407,131,80979,2,0,P|403:179|401:228,1,97.4999955368044,10|2,0:0|0:0,0:0:0:0:
251,353,81408,1,2,3:2:0:0:
251,353,81622,1,0,3:0:0:0:
114,257,81837,2,0,P|113:208|100:161,1,97.4999955368044,8|2,0:0|0:0,0:0:0:0:
74,133,82122,2,0,P|59:131|44:138,2,32.4999985122681,8|8|8,0:0|0:0|3:0,0:0:0:0:
202,275,82479,1,8,0:3:0:0:
233,83,82694,2,0,P|299:107|323:174,1,146.249993305207,2|4,0:0|0:3,0:0:0:0:
305,306,83122,5,6,3:2:0:0:
387,253,83336,2,0,P|422:264|455:282,1,75
469,183,83764,1,2,0:0:0:0:
398,99,83979,2,0,P|329:130|256:146,1,150,2|0,0:3|0:0,0:0:0:0:
172,126,84622,1,0,0:0:0:0:
172,126,84836,2,0,P|164:89|158:52,1,75,2|0,0:0|0:0,0:0:0:0:
77,92,85264,1,2,0:0:0:0:
54,180,85479,1,2,0:0:0:0:
131,223,85693,2,0,P|206:221|281:216,1,150,2|0,0:3|0:0,0:0:0:0:
378,210,86336,1,2,0:0:0:0:
378,210,86443,1,2,0:0:0:0:
379,208,86550,6,0,P|377:171|364:136,1,75,2|0,0:0|0:0,0:0:0:0:
349,11,86979,1,0,0:0:0:0:
270,141,87193,1,2,0:0:0:0:
251,40,87407,2,0,P|176:30|103:13,1,150,2|0,0:3|0:0,0:0:0:0:
41,79,88050,1,0,0:0:0:0:
41,79,88264,2,0,P|42:116|39:153,1,75,2|0,0:0|0:0,0:0:0:0:
6,304,88693,1,2,0:0:0:0:
97,247,88907,1,2,0:0:0:0:
135,356,89122,1,2,0:3:0:0:
227,295,89337,2,0,P|254:291|282:290,1,56.2500021457673,8|0,0:0|0:0,0:0:0:0:
363,352,89551,2,0,L|430:362,1,56.25,8|0,0:0|0:0,0:0:0:0:
447,364,89979,6,0,P|450:323|445:283,1,82.5000025177003,6|0,3:2|0:0,0:0:0:0:
302,144,90408,1,10,0:0:0:0:
396,88,90622,2,0,P|405:128|407:169,1,82.5000025177003,2|0,0:0|0:0,0:0:0:0:
214,218,91051,1,0,3:0:0:0:
302,144,91265,1,10,0:0:0:0:
250,45,91479,1,2,0:0:0:0:
171,118,91693,2,0,P|130:111|92:96,1,82.5000025177003,2|0,3:2|0:0,0:0:0:0:
46,11,92122,1,8,0:0:0:0:
113,206,92336,2,0,P|74:217|33:221,1,82.5000025177003,2|0,0:0|3:0,0:0:0:0:
259,163,92765,1,0,3:0:0:0:
292,262,92979,1,8,0:0:0:0:
345,112,93193,1,2,0:0:0:0:
345,112,93301,1,2,0:0:0:0:
344,112,93408,6,0,P|424:119|465:187,1,165.000005035401,2|10,3:2|0:0,0:0:0:0:
386,342,94051,2,0,P|380:280|375:218,1,123.75000377655,2|0,0:0|0:0,0:0:0:0:
373,195,94479,1,0,3:0:0:0:
294,345,94693,1,8,0:0:0:0:
479,323,94908,1,0,3:0:0:0:
267,241,95122,2,0,P|227:244|195:269,1,82.5000025177003,0|0,3:0|0:0,0:0:0:0:
35,366,95551,2,0,P|75:365|110:344,1,82.5000025177003,8|0,0:0|0:0,0:0:0:0:
164,173,95979,1,0,3:0:0:0:
79,239,96193,1,2,3:2:0:0:
81,86,96408,2,0,P|139:63|200:61,1,123.75000377655,10|0,3:2|0:0,0:0:0:0:
199,60,96836,6,0,P|171:31|133:16,1,82.5000025177003,6|0,3:2|0:0,0:0:0:0:
132,15,97265,1,10,0:0:0:0:
279,126,97479,2,0,P|320:125|360:115,1,82.5000025177003,2|0,0:0|0:0,0:0:0:0:
360,114,97908,1,0,3:0:0:0:
512,163,98122,1,10,0:0:0:0:
462,45,98336,1,2,0:0:0:0:
412,217,98551,6,0,P|400:256|395:297,1,82.5000025177003,2|0,3:2|0:0,0:0:0:0:
303,250,98980,1,8,0:0:0:0:
218,358,99194,2,0,P|214:317|202:278,1,82.5000025177003,2|0,0:0|3:0,0:0:0:0:
120,191,99623,1,0,3:0:0:0:
106,346,99837,1,8,0:0:0:0:
25,261,100051,1,2,0:0:0:0:
25,261,100158,1,2,0:0:0:0:
25,261,100265,6,0,P|17:220|19:179,1,82.5000025177003,2|0,3:2|0:0,0:0:0:0:
139,0,100694,1,10,0:0:0:0:
7,66,100908,2,0,P|47:74|86:86,1,82.5000025177003,2|0,0:0|0:0,0:0:0:0:
245,153,101337,1,0,3:0:0:0:
132,187,101551,1,8,0:0:0:0:
192,59,101765,1,0,3:0:0:0:
356,134,101979,2,0,P|398:132|438:126,2,82.5000025177003,0|0|8,3:0|0:0|0:0,0:0:0:0:
350,314,102622,1,0,0:0:0:0:
351,339,102729,1,8,0:0:0:0:
353,364,102836,1,0,3:0:0:0:
232,255,103051,1,10,3:3:0:0:
125,377,103265,1,12,3:3:0:0:
25,267,103479,1,4,3:0:0:0:
28,242,103586,1,4,3:0:0:0:
33,216,103694,6,0,P|33:175|27:135,1,82.5000025177003,6|0,3:2|0:0,0:0:0:0:
0,21,104123,1,10,0:0:0:0:
131,104,104337,2,0,P|169:118|210:125,1,82.5000025177003,2|0,0:0|0:0,0:0:0:0:
378,166,104766,1,0,3:0:0:0:
318,54,104980,1,10,0:0:0:0:
277,240,105194,1,2,0:0:0:0:
443,287,105408,2,0,P|453:248|460:207,1,82.5000025177003,2|0,3:2|0:0,0:0:0:0:
499,19,105837,1,8,0:0:0:0:
399,70,106051,2,0,P|358:64|318:54,1,82.5000025177003,2|0,0:0|3:0,0:0:0:0:
215,5,106480,1,0,3:0:0:0:
151,140,106694,1,8,0:0:0:0:
60,35,106908,1,2,0:0:0:0:
60,35,107016,1,2,0:0:0:0:
60,35,107123,6,0,P|40:115|31:197,1,165.000005035401,2|10,3:2|0:0,0:0:0:0:
192,296,107766,2,0,P|172:238|112:218,1,123.75000377655,2|0,0:0|0:0,0:0:0:0:
108,236,108194,1,0,3:0:0:0:
286,381,108408,1,8,0:0:0:0:
101,325,108623,1,0,3:0:0:0:
226,174,108837,2,0,P|232:133|241:93,1,82.5000025177003,0|0,3:0|0:0,0:0:0:0:
370,269,109266,2,0,P|329:277|289:285,1,82.5000025177003,8|0,0:0|0:0,0:0:0:0:
482,382,109694,1,0,3:0:0:0:
376,380,109908,1,2,3:2:0:0:
492,225,110123,2,0,P|475:165|466:104,1,123.75000377655,10|0,3:2|0:0,0:0:0:0:
457,69,110551,6,0,P|416:79|375:82,1,82.5000025177003,6|0,3:2|0:0,0:0:0:0:
244,47,110980,1,10,0:0:0:0:
303,175,111194,2,0,P|343:182|383:191,1,82.5000025177003,2|0,0:0|0:0,0:0:0:0:
283,268,111623,1,0,3:0:0:0:
377,342,111837,1,10,0:0:0:0:
265,382,112051,1,2,0:0:0:0:
183,306,112266,6,0,P|143:295|102:289,1,82.5000025177003,2|0,3:2|0:0,0:0:0:0:
19,151,112695,1,8,0:0:0:0:
129,118,112909,2,0,P|123:158|116:199,1,82.5000025177003,2|0,0:0|3:0,0:0:0:0:
38,25,113338,1,0,3:0:0:0:
181,0,113552,1,8,0:0:0:0:
233,149,113765,1,2,0:0:0:0:
234,149,113872,1,2,0:0:0:0:
234,149,113980,6,0,P|276:145|316:140,1,82.5000025177003,2|0,3:2|0:0,0:0:0:0:
433,11,114409,1,10,0:0:0:0:
409,113,114623,2,0,P|419:152|426:193,1,82.5000025177003,2|0,0:0|0:0,0:0:0:0:
317,232,115052,1,0,3:0:0:0:
512,148,115266,1,8,0:0:0:0:
403,319,115480,1,0,3:0:0:0:
201,261,115694,2,0,P|172:231|148:197,1,82.5000025177003,0|0,3:0|0:0,0:0:0:0:
97,47,116122,1,8,0:0:0:0:
42,198,116337,1,0,0:0:0:0:
44,223,116444,1,8,0:0:0:0:
45,248,116551,1,0,3:0:0:0:
100,357,116766,1,10,3:3:0:0:
271,332,116980,1,12,3:3:0:0:
271,332,117408,6,0,P|311:337|352:342,1,82.5000025177003,4|0,3:2|0:0,0:0:0:0:
229,243,117837,2,0,P|269:250|311:254,1,82.5000025177003,0|0,3:0|0:0,0:0:0:0:
187,156,118265,2,0,P|227:162|268:167,1,82.5000025177003,0|0,3:0|0:0,0:0:0:0:
172,74,118694,2,0,P|192:75|212:79,1,41.2500012588501,0|0,3:0|0:0,0:0:0:0:
381,79,118908,2,0,P|341:85|300:89,1,82.5000025177003,12|0,0:0|3:2,0:0:0:0:
438,151,119337,2,0,P|397:156|356:160,1,82.5000025177003,0|0,0:0|3:0,0:0:0:0:
464,236,119765,1,8,0:3:0:0:
482,322,119979,1,0,3:0:0:0:
332,243,120194,1,4,0:3:0:0:
314,329,120408,1,0,3:0:0:0:
178,254,120622,1,4,0:3:0:0:
172,278,120729,1,4,0:3:0:0:
167,302,120837,6,0,P|126:308|85:311,1,82.5000025177003,4|0,3:2|0:0,0:0:0:0:
27,194,121265,2,0,P|67:199|108:204,1,82.5000025177003,0|0,3:0|0:0,0:0:0:0:
170,96,121694,2,0,P|129:101|88:105,1,82.5000025177003,0|0,3:0|0:0,0:0:0:0:
263,183,122123,2,0,P|244:188|223:192,1,41.2500012588501,0|0,3:0|0:0,0:0:0:0:
167,302,122337,2,0,P|207:308|248:313,1,82.5000025177003,12|0,0:0|3:2,0:0:0:0:
490,334,122766,2,0,P|492:314|492:293,1,41.2500012588501
493,161,122979,1,8,3:2:0:0:
493,161,123194,1,8,3:2:0:0:
444,150,123301,1,8,0:0:0:0:
395,143,123408,1,0,3:0:0:0:
264,49,123622,2,0,P|244:55|223:54,1,41.2500012588501,0|0,3:0|0:0,0:0:0:0:
29,26,123837,1,4,3:2:0:0:
29,26,124266,5,4,3:2:0:0:
107,114,124479,1,0,0:0:0:0:
42,252,124694,2,0,P|79:235|119:224,1,82.5000025177003,10|2,0:0|0:0,0:0:0:0:
278,271,125122,1,0,3:0:0:0:
174,319,125337,1,0,3:0:0:0:
222,185,125551,2,0,P|232:146|246:107,1,82.5000025177003,10|2,0:0|0:0,0:0:0:0:
382,42,125979,1,0,3:0:0:0:
512,191,126194,1,2,0:0:0:0:
436,243,126408,2,0,P|396:253|357:268,1,82.5000025177003,8|0,0:0|0:0,0:0:0:0:
169,384,126837,1,0,3:0:0:0:
232,234,127051,1,0,3:0:0:0:
303,384,127265,1,12,0:0:0:0:
134,293,127479,1,0,0:0:0:0:
134,293,127587,1,0,0:0:0:0:
134,293,127694,5,4,3:2:0:0:
141,172,127908,1,0,0:0:0:0:
0,213,128122,1,10,0:0:0:0:
59,118,128337,2,0,P|77:80|81:39,1,82.5000025177003,2|0,0:0|3:0,0:0:0:0:
229,0,128765,1,0,3:0:0:0:
257,124,128979,1,10,0:0:0:0:
437,85,129194,1,2,0:0:0:0:
412,80,129301,1,0,0:0:0:0:
387,75,129408,1,4,3:2:0:0:
466,183,129622,2,0,P|489:176|510:167,1,41.2500012588501,2|0,0:0|0:0,0:0:0:0:
383,257,129837,2,0,P|364:247|344:241,1,41.2500012588501,8|0,0:0|0:0,0:0:0:0:
236,265,130051,1,0,0:0:0:0:
414,352,130265,6,0,P|372:351|331:346,1,82.5000025177003,8|4,3:0|3:3,0:0:0:0:
285,348,130587,1,4,0:3:0:0:
235,353,130694,1,8,0:0:0:0:
187,340,130801,1,8,0:0:0:0:
148,308,130908,1,8,0:3:0:0:
138,259,131015,1,8,0:3:0:0:
148,201,131122,5,4,3:2:0:0:
0,129,131337,1,0,0:0:0:0:
13,295,131551,1,8,0:0:0:0:
111,98,131765,1,0,0:0:0:0:
130,76,131872,1,0,3:0:0:0:
152,56,131979,2,0,P|200:51|249:48,1,97.4999955368044,0|0,3:0|3:0,0:0:0:0:
475,98,132408,1,8,0:0:0:0:
476,116,132622,1,0,0:0:0:0:
262,163,132837,1,0,3:0:0:0:
482,201,133051,1,0,3:0:0:0:
267,240,133265,1,8,0:0:0:0:
479,284,133479,2,0,P|431:289|384:301,1,97.4999955368044,2|0,0:0|3:0,0:0:0:0:
142,384,133908,1,0,3:0:0:0:
189,225,134122,2,0,P|184:176|188:127,1,97.4999955368044,10|0,0:0|0:0,0:0:0:0:
374,3,134551,5,4,3:2:0:0:
188,1,134765,1,0,0:0:0:0:
368,119,134979,1,8,0:0:0:0:
171,116,135194,1,0,0:0:0:0:
144,104,135301,1,0,3:0:0:0:
115,93,135408,2,0,P|67:99|19:102,1,97.4999955368044,0|0,3:0|3:0,0:0:0:0:
199,232,135837,1,8,0:0:0:0:
60,221,136051,1,0,0:0:0:0:
131,343,136266,1,0,3:0:0:0:
296,332,136480,1,0,3:0:0:0:
423,196,136694,1,8,0:0:0:0:
292,22,136908,2,0,P|243:18|194:17,1,97.4999955368044,2|2,0:0|3:2,0:0:0:0:
0,9,137337,1,0,3:0:0:0:
89,83,137551,2,0,P|88:132|86:181,1,97.4999955368044,10|2,0:0|0:0,0:0:0:0:
0,384,137979,5,4,3:2:0:0:
135,324,138194,1,0,0:0:0:0:
0,254,138408,1,8,0:0:0:0:
167,156,138622,1,0,0:0:0:0:
167,156,138729,1,0,3:0:0:0:
167,156,138836,2,0,P|215:160|259:179,1,97.4999955368044,0|0,3:0|3:0,0:0:0:0:
410,318,139265,1,8,0:0:0:0:
418,176,139479,1,0,0:0:0:0:
259,335,139694,1,0,3:0:0:0:
262,185,139908,1,0,3:0:0:0:
424,328,140122,1,8,0:0:0:0:
440,163,140336,2,0,P|440:114|443:65,1,97.4999955368044,2|0,0:0|3:0,0:0:0:0:
250,26,140765,1,0,3:0:0:0:
262,185,140979,2,0,P|267:233|270:282,1,97.4999955368044,10|2,0:0|0:0,0:0:0:0:
82,243,141408,5,4,3:2:0:0:
142,383,141623,1,0,0:0:0:0:
8,378,141837,1,8,0:0:0:0:
174,275,142051,1,0,0:0:0:0:
176,245,142158,1,0,3:0:0:0:
178,214,142265,2,0,P|174:166|164:118,1,97.4999955368044,0|0,3:0|3:0,0:0:0:0:
66,63,142694,1,8,0:0:0:0:
253,55,142908,1,0,0:0:0:0:
156,1,143123,1,0,3:0:0:0:
356,3,143337,1,0,3:0:0:0:
257,145,143551,1,8,0:0:0:0:
452,168,143765,2,0,P|455:119|452:70,1,97.4999955368044,2|4,0:0|3:2,0:0:0:0:
342,241,144194,1,0,3:0:0:0:
512,323,144408,2,0,L|513:347,1,24.3749988842011,10|0,0:0|0:0,0:0:0:0:
175,328,144837,5,4,3:2:0:0:
311,379,145052,1,0,0:0:0:0:
196,234,145266,1,8,0:0:0:0:
45,346,145480,1,0,0:0:0:0:
45,346,145587,1,0,3:0:0:0:
45,344,145694,2,0,P|45:296|36:248,1,97.4999955368044,0|0,3:0|3:0,0:0:0:0:
134,82,146123,1,8,0:0:0:0:
2,119,146337,1,0,0:0:0:0:
173,192,146552,1,0,3:0:0:0:
304,136,146766,1,0,3:0:0:0:
169,320,146980,1,8,0:0:0:0:
310,367,147194,2,0,P|358:375|407:382,1,97.4999955368044,2|0,0:0|3:0,0:0:0:0:
275,228,147623,1,0,3:0:0:0:
402,162,147837,2,0,P|398:114|389:66,1,97.4999955368044,10|0,0:0|0:0,0:0:0:0:
173,38,148265,5,4,3:2:0:0:
304,136,148480,1,0,0:0:0:0:
304,5,148694,1,8,0:0:0:0:
130,145,148908,1,0,0:0:0:0:
130,145,149015,1,0,3:0:0:0:
129,145,149122,2,0,P|82:133|35:119,1,97.4999955368044,0|0,3:0|3:0,0:0:0:0:
150,245,149551,1,8,0:0:0:0:
25,371,149765,2,0,P|118:339|213:321,1,194.999991073609,0|0,0:0|3:0,0:0:0:0:
449,372,150408,1,8,0:0:0:0:
417,243,150622,2,0,P|372:260|343:299,1,97.4999955368044,2|2,0:0|3:2,0:0:0:0:
195,193,151051,1,0,3:0:0:0:
317,161,151265,2,0,P|361:144|390:105,1,97.4999955368044,10|2,0:0|0:0,0:0:0:0:
114,6,151694,5,4,3:2:0:0:
236,101,151909,1,0,0:0:0:0:
0,94,152123,1,8,0:0:0:0:
126,254,152337,1,0,0:0:0:0:
126,254,152444,1,0,3:0:0:0:
125,254,152551,2,0,P|116:301|91:343,1,97.4999955368044,0|0,3:0|3:0,0:0:0:0:
0,231,152980,1,8,0:0:0:0:
116,115,153194,1,0,0:0:0:0:
198,306,153409,1,0,3:0:0:0:
279,176,153623,1,0,3:0:0:0:
335,371,153837,1,8,0:0:0:0:
404,288,154051,2,0,P|356:284|309:272,1,97.4999955368044,2|0,0:0|3:0,0:0:0:0:
129,366,154480,1,0,3:0:0:0:
32,344,154694,2,0,P|38:295|38:246,1,97.4999955368044,10|2,0:0|0:0,0:0:0:0:
226,133,155122,5,4,3:2:0:0:
17,22,155337,1,0,0:0:0:0:
134,231,155551,1,8,0:0:0:0:
162,22,155765,1,0,0:0:0:0:
162,22,155872,1,0,3:0:0:0:
162,22,155979,2,0,P|210:30|258:33,1,97.4999955368044,0|0,3:0|3:0,0:0:0:0:
512,25,156408,1,8,0:0:0:0:
307,158,156622,1,0,0:0:0:0:
389,0,156837,1,0,3:0:0:0:
477,159,157051,1,0,3:0:0:0:
266,284,157265,1,8,0:0:0:0:
202,110,157479,1,2,0:0:0:0:
35,292,157694,5,8,3:0:0:0:
36,322,157801,1,8,0:0:0:0:
36,351,157908,2,0,P|60:351|84:346,1,48.7499977684022,8|8,0:0|0:3,0:0:0:0:
266,284,158122,5,2,0:0:0:0:
288,265,158229,1,8,0:3:0:0:
304,240,158337,1,4,0:3:0:0:
308,211,158444,1,4,0:3:0:0:
310,181,158551,6,0,P|358:172|406:161,1,97.4999955368044,4|2,3:2|0:0,0:0:0:0:
284,10,158979,1,8,0:0:0:0:
160,142,159194,2,0,P|96:108|27:84,1,146.249993305207,2|0,0:0|0:0,0:0:0:0:
51,174,159622,2,0,P|67:191|89:201,1,48.7499977684022,2|0,3:2|0:0,0:0:0:0:
177,223,159837,2,0,P|200:217|221:205,1,48.7499977684022,8|0,0:0|0:0,0:0:0:0:
262,93,160051,2,0,P|328:118|342:187,1,146.249993305207,2|0,0:0|0:0,0:0:0:0:
328,219,160479,2,0,P|364:155|405:95,1,146.249993305207,2|0,3:2|0:0,0:0:0:0:
429,68,160908,2,0,P|428:165|408:260,1,194.999991073609,2|0,0:0|3:0,0:0:0:0:
291,378,161551,2,0,P|289:354|282:331,1,48.7499977684022,10|0,0:0|0:0,0:0:0:0:
228,199,161765,6,0,P|157:211|100:255,1,146.249993305207,2|0,0:0|0:0,0:0:0:0:
64,303,162194,2,0,P|60:231|42:160,1,146.249993305207,2|0,0:0|0:0,0:0:0:0:
24,122,162622,2,0,P|96:122|162:93,1,146.249993305207,2|0,0:0|0:0,0:0:0:0:
202,63,163051,1,2,3:2:0:0:
250,56,163158,1,0,0:0:0:0:
298,60,163265,1,8,0:0:0:0:
409,118,163479,1,2,0:0:0:0:
448,228,163694,1,2,3:2:0:0:
310,375,163908,1,2,3:2:0:0:
275,263,164122,1,8,0:0:0:0:
223,155,164337,2,0,P|151:154|81:176,1,146.249993305207,2|0,0:0|0:0,0:0:0:0:
46,208,164765,1,2,3:2:0:0:
46,384,164979,1,10,0:0:0:0:
192,342,165194,6,0,P|264:353|337:357,1,146.249993305207,2|0,0:0|0:0,0:0:0:0:
363,333,165622,2,0,P|385:343|408:351,1,48.7499977684022,2|0,0:0|0:0,0:0:0:0:
458,271,165837,2,0,P|480:263|502:252,1,48.7499977684022,8|0,0:0|0:0,0:0:0:0:
412,192,166051,2,0,P|436:124|446:52,1,146.249993305207,2|0,0:0|0:0,0:0:0:0:
428,0,166479,1,2,3:2:0:0:
251,0,166694,1,8,0:0:0:0:
343,140,166908,2,0,P|270:148|199:133,1,146.249993305207,2|0,0:0|0:0,0:0:0:0:
163,106,167337,2,0,P|105:71|54:115,1,146.249993305207,2|0,3:2|0:0,0:0:0:0:
44,158,167765,2,0,P|74:220|69:151,1,194.999991073609,2|0,0:0|3:0,0:0:0:0:
13,384,168408,1,10,0:0:0:0:
266,360,168622,6,0,P|255:288|253:215,1,146.249993305207,2|0,0:0|0:0,0:0:0:0:
256,173,169051,2,0,P|327:184|385:227,1,146.249993305207,2|0,0:0|0:0,0:0:0:0:
397,263,169479,2,0,P|324:259|252:251,1,146.249993305207,2|0,0:0|0:0,0:0:0:0:
214,247,169908,1,2,3:2:0:0:
347,83,170122,1,10,0:0:0:0:
255,22,170337,2,0,P|181:21|108:21,1,146.249993305207,2|0,0:0|0:0,0:0:0:0:
67,23,170765,2,0,P|94:90|108:162,1,146.249993305207,0|0,3:0|0:0,0:0:0:0:
105,196,171194,1,0,0:0:0:0:
81,236,171301,1,8,0:0:0:0:
35,245,171408,1,8,0:0:0:0:
240,353,171729,5,8,0:0:0:0:
240,353,171837,1,8,0:0:0:0:
360,329,172051,1,8,0:3:0:0:
512,365,172265,5,4,3:2:0:0:
512,365,172694,1,0,3:0:0:0:
512,365,173122,1,0,3:0:0:0:
512,365,173551,1,0,3:0:0:0:
450,287,173979,5,0,3:0:0:0:
450,287,174408,1,2,3:2:0:0:
450,287,174837,1,0,3:0:0:0:
450,287,175266,1,2,3:2:0:0:
412,63,175694,5,0,3:0:0:0:
412,63,176123,1,0,3:0:0:0:
412,63,176551,1,2,3:2:0:0:
412,63,176980,1,0,3:0:0:0:
309,146,177408,5,0,3:0:0:0:
309,146,177837,1,0,3:0:0:0:
309,146,178265,1,0,3:0:0:0:
309,146,178694,1,0,3:0:0:0:
208,84,178908,1,8,0:0:0:0:
200,37,179015,1,8,0:0:0:0:
188,2,179122,6,0,P|179:46|171:88,1,75,0|2,3:0|0:0,0:0:0:0:
44,266,179551,1,8,3:2:0:0:
146,283,179765,2,0,P|136:209|96:146,1,150,2|2,0:0|0:0,0:0:0:0:
44,300,180408,1,0,3:0:0:0:
209,365,180622,2,0,P|246:365|282:357,1,75,10|0,0:0|3:0,0:0:0:0:
429,307,181051,1,2,0:0:0:0:
335,193,181265,2,0,P|372:192|408:202,1,75,8|0,3:2|0:0,0:0:0:0:
433,211,181587,1,0,3:0:0:0:
453,221,181694,1,0,3:0:0:0:
469,60,181908,2,0,P|440:84|406:100,1,75,8|0,0:0|3:0,0:0:0:0:
125,45,182337,1,8,0:0:0:0:
136,88,182444,1,8,0:0:0:0:
151,130,182551,6,0,P|186:140|220:157,1,75,0|2,3:0|0:0,0:0:0:0:
273,339,182979,2,0,P|246:290|203:254,1,112.5,8|0,3:2|0:0,0:0:0:0:
175,279,183408,1,8,0:0:0:0:
155,309,183515,1,8,0:0:0:0:
159,344,183622,1,8,0:3:0:0:
20,309,183837,5,8,3:3:0:0:
18,274,183944,1,8,3:3:0:0:
27,240,184051,1,4,0:3:0:0:
43,208,184158,1,4,0:3:0:0:
71,185,184265,1,4,3:2:0:0:
256,192,184372,12,0,185979,0:0:0:0:
457,354,192837,6,0,P|441:308|406:274,1,97.4999955368044,4|2,3:2|0:0,0:0:0:0:
214,218,193265,1,8,0:0:0:0:
352,110,193480,2,0,P|321:147|315:195,1,97.4999955368044,2|0,0:0|3:0,0:0:0:0:
370,355,193908,1,2,3:2:0:0:
176,351,194123,2,0,P|128:343|82:329,1,97.4999955368044,8|2,0:0|0:0,0:0:0:0:
0,106,194551,1,0,3:0:0:0:
76,187,194765,1,2,3:2:0:0:
187,18,194980,2,0,P|179:67|164:113,1,97.4999955368044,8|2,0:0|0:0,0:0:0:0:
82,329,195408,1,0,3:0:0:0:
77,164,195622,1,0,3:0:0:0:
288,247,195837,2,0,P|321:211|345:169,1,97.4999955368044,10|2,0:0|0:0,0:0:0:0:
386,83,196158,1,0,0:0:0:0:
386,83,196265,6,0,P|372:166|454:152,2,194.999991073609,4|8|0,3:2|0:0|3:0,0:0:0:0:
508,294,197337,1,2,3:2:0:0:
298,258,197551,2,0,P|342:276|371:315,1,97.4999955368044,8|2,0:0|0:0,0:0:0:0:
167,259,197980,1,2,3:2:0:0:
239,372,198194,1,2,3:2:0:0:
42,202,198408,2,0,P|40:154|30:106,1,97.4999955368044,8|2,0:0|0:0,0:0:0:0:
22,74,198729,1,0,0:0:0:0:
22,74,198837,1,2,3:2:0:0:
212,14,199051,1,2,3:2:0:0:
133,89,199265,1,10,0:0:0:0:
304,63,199480,1,2,0:0:0:0:
340,55,199587,1,2,0:0:0:0:
373,49,199694,6,0,P|373:97|377:146,1,97.4999955368044,4|2,3:2|0:0,0:0:0:0:
315,317,200122,1,8,0:0:0:0:
210,193,200337,2,0,P|258:190|303:207,1,97.4999955368044,2|0,0:0|3:0,0:0:0:0:
401,370,200765,1,2,3:2:0:0:
501,360,200979,2,0,P|486:314|476:267,1,97.4999955368044,8|2,0:0|0:0,0:0:0:0:
320,99,201408,1,0,3:0:0:0:
505,146,201622,1,2,3:2:0:0:
423,3,201837,1,8,0:0:0:0:
232,35,202051,2,0,P|184:26|135:23,1,97.4999955368044,2|0,0:0|3:0,0:0:0:0:
108,215,202480,1,0,3:0:0:0:
108,215,202587,1,0,3:0:0:0:
108,215,202694,2,0,P|99:146|158:109,1,146.249993305207,10|2,0:0|0:0,0:0:0:0:
157,109,203122,6,0,P|109:119|60:119,1,97.4999955368044,4|2,3:2|0:0,0:0:0:0:
254,201,203550,1,8,0:0:0:0:
169,289,203765,2,0,P|127:312|79:313,1,97.4999955368044,2|0,0:0|3:0,0:0:0:0:
279,352,204194,1,2,3:2:0:0:
95,229,204408,1,10,0:0:0:0:
359,135,204622,2,0,P|407:135|454:149,1,97.4999955368044,2|2,0:0|3:2,0:0:0:0:
391,384,205051,1,0,3:0:0:0:
512,289,205265,1,8,0:0:0:0:
264,270,205479,2,0,P|240:227|222:181,1,97.4999955368044,0|8,0:0|0:0,0:0:0:0:
96,30,205908,1,8,3:0:0:0:
96,30,206015,1,0,3:2:0:0:
96,30,206122,2,0,P|165:48|235:30,1,146.249993305207,8|0,0:0|0:0,0:0:0:0:
260,15,206551,6,0,P|256:108|338:153,1,194.999991073609,4|8,3:2|0:0,0:0:0:0:
493,12,207194,1,2,0:0:0:0:
357,55,207408,1,0,3:0:0:0:
512,157,207622,1,2,3:2:0:0:
437,337,207837,2,0,P|415:293|380:259,1,97.4999955368044,8|2,0:0|0:0,0:0:0:0:
200,197,208265,1,0,3:0:0:0:
249,312,208479,1,2,3:2:0:0:
79,142,208694,2,0,P|74:190|86:237,1,97.4999955368044,8|2,0:0|0:0,0:0:0:0:
190,87,209123,1,0,3:0:0:0:
62,12,209337,1,0,3:0:0:0:
311,0,209551,2,0,P|304:48|289:94,1,97.4999955368044,10|2,0:0|0:0,0:0:0:0:
308,108,209872,1,2,3:2:0:0:
327,121,209979,6,0,P|302:215|287:311,2,194.999991073609,4|8|0,3:2|0:0|3:0,0:0:0:0:
419,358,211051,1,2,3:2:0:0:
501,134,211265,2,0,P|477:176|461:222,1,97.4999955368044,10|2,0:0|0:0,0:0:0:0:
357,7,211694,1,2,3:2:0:0:
510,28,211908,1,0,3:0:0:0:
245,54,212123,2,0,P|180:49|117:34,1,129.999994049073,8|8,0:0|0:0,0:0:0:0:
96,27,212480,1,8,0:0:0:0:
76,23,212551,6,0,B|45:22|45:22|29:31,3,48.7499977684022,8|8|8|8,0:0|0:0|3:2|0:0,0:0:0:0:
72,70,212979,5,8,0:0:0:0:
70,128,213087,1,8,0:3:0:0:
69,186,213194,1,8,0:3:0:0:
69,244,213301,1,8,3:0:0:0:
69,302,213408,5,4,3:2:0:0:
225,248,213623,1,2,0:0:0:0:
0,384,213837,1,8,0:0:0:0:
221,363,214051,1,2,0:0:0:0:
221,363,214158,1,0,3:0:0:0:
221,362,214265,2,0,P|269:359|317:365,1,97.4999955368044,0|2,3:0|3:2,0:0:0:0:
512,167,214694,1,8,0:0:0:0:
471,288,214908,1,2,0:0:0:0:
321,124,215123,1,0,3:0:0:0:
342,250,215337,1,2,3:2:0:0:
434,65,215551,1,8,0:0:0:0:
258,13,215765,2,0,P|210:18|163:30,1,97.4999955368044,2|0,0:0|3:0,0:0:0:0:
89,169,216194,1,0,3:0:0:0:
239,198,216408,2,0,P|245:151|234:103,1,97.4999955368044,10|2,0:0|0:0,0:0:0:0:
26,38,216837,5,4,3:2:0:0:
168,167,217051,1,2,0:0:0:0:
154,34,217265,1,8,0:0:0:0:
6,188,217480,1,2,0:0:0:0:
6,188,217587,1,0,3:0:0:0:
6,188,217694,2,0,P|11:236|12:285,1,97.4999955368044,0|2,3:0|3:2,0:0:0:0:
232,293,218123,1,8,0:0:0:0:
120,224,218337,1,2,0:0:0:0:
307,370,218552,1,2,3:2:0:0:
115,384,218766,1,2,3:2:0:0:
418,259,218980,1,8,0:0:0:0:
230,182,219194,2,0,P|227:135|252:94,1,97.4999955368044,2|2,0:0|3:2,0:0:0:0:
469,36,219623,1,2,3:2:0:0:
416,138,219837,2,0,P|368:147|319:150,1,97.4999955368044,10|2,0:0|0:0,0:0:0:0:
33,13,220265,5,4,3:2:0:0:
104,157,220480,1,2,0:0:0:0:
206,24,220694,1,8,0:0:0:0:
356,251,220908,1,2,0:0:0:0:
356,251,221015,1,0,3:0:0:0:
356,251,221122,2,0,P|404:246|451:232,1,97.4999955368044,0|2,3:0|3:2,0:0:0:0:
512,362,221551,1,8,0:0:0:0:
302,330,221765,1,2,0:0:0:0:
191,326,221980,1,0,3:0:0:0:
402,384,222194,1,2,3:2:0:0:
99,304,222408,1,8,0:0:0:0:
98,303,222622,2,0,P|96:255|106:207,1,97.4999955368044,2|0,0:0|3:0,0:0:0:0:
225,21,223051,1,0,3:0:0:0:
112,90,223265,2,0,P|63:95|14:98,1,97.4999955368044,10|2,0:0|0:0,0:0:0:0:
234,169,223694,5,4,3:2:0:0:
483,35,223909,1,2,0:0:0:0:
310,10,224123,1,8,0:0:0:0:
397,186,224337,1,2,0:0:0:0:
397,186,224444,1,0,3:0:0:0:
397,186,224551,2,0,P|402:234|404:283,1,97.4999955368044,0|2,3:0|3:2,0:0:0:0:
171,375,224980,1,10,0:0:0:0:
277,282,225194,1,2,0:0:0:0:
44,334,225409,1,2,3:2:0:0:
146,233,225623,1,0,3:0:0:0:
8,89,225837,1,8,0:0:0:0:
200,25,226051,2,0,L|232:21,3,32.4999985122681,8|8|8|8,0:3|0:3|0:3|0:3,0:0:0:0:
164,153,226479,6,0,P|148:152|132:149,2,32.4999985122681,8|8|0,3:0|0:3|0:0,0:0:0:0:
200,169,226694,5,8,0:0:0:0:
245,178,226801,1,8,0:0:0:0:
290,186,226908,1,8,0:3:0:0:
335,196,227015,1,8,0:3:0:0:
380,205,227122,5,4,3:2:0:0:
252,338,227337,1,2,0:0:0:0:
442,306,227551,1,8,0:0:0:0:
338,110,227765,1,2,0:0:0:0:
338,110,227872,1,0,3:0:0:0:
338,110,227979,2,0,P|386:110|434:119,1,97.4999955368044,0|2,3:0|3:2,0:0:0:0:
249,4,228408,1,8,0:0:0:0:
414,2,228622,1,2,0:0:0:0:
155,107,228837,1,0,3:0:0:0:
21,44,229051,1,2,3:2:0:0:
238,234,229265,1,8,0:0:0:0:
96,233,229479,2,0,P|47:228|0:220,1,97.4999955368044,2|0,0:0|3:0,0:0:0:0:
262,369,229908,1,0,3:0:0:0:
392,364,230122,2,0,P|440:358|488:350,1,97.4999955368044,10|2,0:0|0:0,0:0:0:0:
328,275,230550,5,4,3:2:0:0:
442,257,230765,1,2,0:0:0:0:
202,207,230979,1,8,0:0:0:0:
324,153,231193,1,2,0:0:0:0:
324,153,231300,1,0,3:0:0:0:
324,153,231407,2,0,P|277:143|238:114,1,97.4999955368044,0|2,3:0|3:2,0:0:0:0:
337,46,231836,1,8,0:0:0:0:
102,258,232050,2,0,P|63:171|100:83,1,194.999991073609,2|2,0:0|3:2,0:0:0:0:
253,12,232693,1,8,0:0:0:0:
403,175,232908,1,2,0:0:0:0:
416,130,233015,1,8,0:0:0:0:
427,85,233122,1,10,3:2:0:0:
486,354,233336,1,2,3:2:0:0:
311,301,233550,2,0,P|241:323|173:351,1,146.249993305207,4|2,3:0|0:0,0:0:0:0:
148,384,233979,5,4,3:2:0:0:
209,237,234194,1,2,0:0:0:0:
0,334,234408,1,8,0:0:0:0:
83,207,234622,1,2,0:0:0:0:
83,207,234729,1,0,3:0:0:0:
83,207,234836,2,0,P|92:160|115:117,1,97.4999955368044,0|2,3:0|3:2,0:0:0:0:
305,4,235265,1,8,0:0:0:0:
364,65,235479,2,0,P|412:67|461:64,1,97.4999955368044,2|0,0:0|3:0,0:0:0:0:
270,145,235908,1,2,3:2:0:0:
432,188,236122,1,8,0:0:0:0:
402,277,236337,2,0,P|353:273|305:265,1,97.4999955368044,2|0,0:0|3:0,0:0:0:0:
129,366,236765,1,0,3:0:0:0:
188,123,236979,1,10,0:0:0:0:
5,256,237193,6,0,P|0:208|0:159,1,97.4999955368044,2|2,0:0|3:2,0:0:0:0:
92,35,237622,1,2,0:0:0:0:
304,283,237837,2,0,P|352:280|401:276,1,97.4999955368044,8|2,0:0|0:0,0:0:0:0:
494,367,238265,1,0,3:0:0:0:
325,384,238479,5,2,3:2:0:0:
494,150,238693,1,10,0:0:0:0:
504,275,238907,1,2,0:0:0:0:
345,94,239122,1,2,3:2:0:0:
380,252,239336,1,0,3:0:0:0:
460,6,239550,1,8,0:0:0:0:
255,127,239765,6,0,P|252:142|254:158,3,32.4999985122681,8|8|8|8,0:0|0:0|0:0|0:0,0:0:0:0:
84,0,240193,2,0,P|61:6|37:7,1,48.7499977684022,8|8,3:0|0:0,0:0:0:0:
137,62,240408,2,0,P|123:133|115:206,1,146.249993305207,12|0,0:3|0:0,0:0:0:0:
118,239,240837,5,6,3:2:0:0:
178,319,241051,2,0,P|215:324|252:331,1,75
379,384,241479,1,2,0:0:0:0:
338,305,241694,2,0,P|369:236|382:163,1,150,2|0,0:3|0:0,0:0:0:0:
363,32,242337,1,0,0:0:0:0:
215,132,242551,2,0,P|248:148|284:157,1,75,2|0,0:0|0:0,0:0:0:0:
271,34,242979,1,2,0:0:0:0:
271,34,243194,1,2,0:0:0:0:
169,47,243408,2,0,P|94:54|19:58,1,150,2|0,0:3|0:0,0:0:0:0:
130,145,244051,1,2,0:0:0:0:
130,145,244158,1,2,0:0:0:0:
128,143,244265,6,0,P|91:145|56:157,1,75,2|0,0:0|0:0,0:0:0:0:
70,335,244694,1,0,0:0:0:0:
0,247,244908,1,2,0:0:0:0:
130,241,245122,2,0,P|202:256|252:311,1,150,2|0,0:3|0:0,0:0:0:0:
252,311,245765,1,0,0:0:0:0:
313,243,245979,2,0,P|314:206|308:169,1,75,2|0,0:0|0:0,0:0:0:0:
246,103,246408,1,2,0:0:0:0:
274,17,246622,1,2,0:0:0:0:
339,79,246837,2,0,P|427:70|501:26,1,150,2|2,0:3|0:3,0:0:0:0:
468,187,247479,1,2,0:0:0:0:
468,187,247694,1,0,0:0:0:0:
256,192,248551,12,2,254551,0:0:0:0:
